osu file format v9

[General]
AudioFilename: Kitamura Eri - Taste of Paradise.mp3
AudioLeadIn: 1500
PreviewTime: 2798
Countdown: 0
SampleSet: Soft
StackLeniency: 0.6
Mode: 0
LetterboxInBreaks: 0

[Editor]
DistanceSpacing: 1
BeatDivisor: 4
GridSize: 8

[Metadata]
Title:Taste of Paradise
Artist:Kitamura Eri
Creator:quintitem
Version:Hard
Source:Oniichan no Koto Nanka Zenzen Suki Janain Dakara ne!!
Tags:Anime Mayoi Neko Suzuka Asahina

[Difficulty]
HPDrainRate:5
CircleSize:4
OverallDifficulty:3
ApproachRate:6
SliderMultiplier:1.3
SliderTickRate:0.5

[Events]
//Background and Video events
0,0,"Nao_and_Iroha.jpg"
//Break Periods
2,19712,25790
2,82002,86248
//Storyboard Layer 0 (Background)
//Storyboard Layer 1 (Fail)
//Storyboard Layer 2 (Pass)
//Storyboard Layer 3 (Foreground)
Sprite,Foreground,TopLeft,"Storyboard\mapperq.png",320,240 M,0,20428,21344,60,95,75,95 F,0,20428,21344,0,1 M,0,25924,26840,75,95,75,110 F,0,25924,26840,1,0
Sprite,Foreground,TopLeft,"Storyboard\aa.png",320,240 M,0,3024,,100,400 F,0,3024,3253,0,1 F,0,6001,6230,1,0
Sprite,Foreground,TopLeft,"Storyboard\ab.png",320,240 M,0,6688,,100,400 F,0,6688,6917,0,1 F,0,9665,9894,1,0
Sprite,Foreground,TopLeft,"Storyboard\ac.png",320,240 M,0,10352,,100,400 F,0,10352,10581,0,1 F,0,18825,19054,1,0
Sprite,Foreground,TopLeft,"Storyboard\ad.png",320,240 M,0,16306,,330,400 F,0,16306,16535,0,1 F,0,18825,19054,1,0
Sprite,Foreground,TopLeft,"Storyboard\ae.png",320,240 F,0,19741,19970,0,1 M,0,19741,24550,60,365,100,365 F,0,24321,24550,1,0
Sprite,Foreground,TopLeft,"Storyboard\af.png",320,240 F,0,22489,22718,0,1 M,0,22489,24550,210,400,195,400 F,0,24321,24550,1,0
Sprite,Foreground,TopLeft,"Storyboard\ag.png",320,240 F,0,26153,26382,0,1 M,0,26153,26840,455,365,460,365 F,0,26611,26840,1,0
Sprite,Foreground,TopLeft,"Storyboard\ba.png",320,240 M,0,27069,,100,400 F,0,27069,27298,0,1 F,0,30046,30275,1,0
Sprite,Foreground,TopLeft,"Storyboard\bb.png",320,240 M,0,28901,,280,400 F,0,28901,29130,0,1 F,0,30046,30275,1,0
Sprite,Foreground,TopLeft,"Storyboard\bc.png",320,240 M,0,30733,,100,400 F,0,30733,30962,0,1 F,0,33711,33940,1,0
Sprite,Foreground,TopLeft,"Storyboard\bd.png",320,240 M,0,34398,,100,400 F,0,34398,34627,0,1 F,0,41039,41268,1,0
Sprite,Foreground,TopLeft,"Storyboard\be.png",320,240 M,0,36230,,268,400 F,0,36230,36459,0,1 F,0,41039,41268,1,0
Sprite,Foreground,TopLeft,"Storyboard\bf.png",320,240 M,0,37833,,348,400 F,0,37833,38062,0,1 F,0,41039,41268,1,0
Sprite,Foreground,TopLeft,"Storyboard\bg.png",320,240 M,0,39665,,414,400 F,0,39665,39894,0,1 F,0,41039,41268,1,0
Sprite,Foreground,TopLeft,"Storyboard\ca.png",320,240 M,0,41497,,100,400 F,0,41497,41726,0,1 F,0,44474,44703,1,0
Sprite,Foreground,TopLeft,"Storyboard\cb.png",320,240 M,0,43100,,240,400 F,0,43100,43329,0,1 F,0,44474,44703,1,0
Sprite,Foreground,TopLeft,"Storyboard\cc.png",320,240 M,0,45161,,100,400 F,0,45161,45390,0,1 F,0,50428,50657,1,0
Sprite,Foreground,TopLeft,"Storyboard\cd.png",320,240 M,0,46993,,143,400 F,0,46993,47222,0,1 F,0,50428,50657,1,0
Sprite,Foreground,TopLeft,"Storyboard\da.png",320,240 M,0,52489,,100,400 F,0,52489,52718,0,1 F,0,55466,55695,1,0
Sprite,Foreground,TopLeft,"Storyboard\db.png",320,240 F,0,55466,55695,0,1 M,0,55466,56153,300,375,305,375 F,0,55924,56153,1,0
Sprite,Foreground,TopLeft,"Storyboard\dc.png",320,240 M,0,56153,,100,400 F,0,56153,56382,0,1 F,0,59130,59359,1,0
Sprite,Foreground,TopLeft,"Storyboard\dd.png",320,240 F,0,59130,59359,0,1 M,0,59130,59817,515,375,520,375 F,0,59588,59817,1,0
Sprite,Foreground,TopLeft,"Storyboard\de.png",320,240 M,0,59817,,100,400 F,0,59817,60046,0,1 F,0,62795,63024,1,0
Sprite,Foreground,TopLeft,"Storyboard\df.png",320,240 M,0,63482,,100,400 F,0,63482,63711,0,1 F,0,66459,66688,1,0
Sprite,Foreground,TopLeft,"Storyboard\aa.png",320,240 M,0,67146,,100,400 F,0,67146,67375,0,1 F,0,70123,70352,1,0
Sprite,Foreground,TopLeft,"Storyboard\dh.png",320,240 F,0,70123,70352,0,1 M,0,70123,70810,325,375,330,375 F,0,70581,70810,1,0
Sprite,Foreground,TopLeft,"Storyboard\di.png",320,240 M,0,70810,,100,400 F,0,70810,71039,0,1 F,0,73787,74016,1,0
Sprite,Foreground,TopLeft,"Storyboard\dj.png",320,240 F,0,73787,74016,0,1 M,0,73787,74474,505,375,510,375 F,0,74245,74474,1,0
Sprite,Foreground,TopLeft,"Storyboard\dk.png",320,240 M,0,74474,,100,400 F,0,74474,74703,0,1 F,0,83405,83634,1,0
Sprite,Foreground,TopLeft,"Storyboard\dl.png",320,240 M,0,80428,,390,400 F,0,80428,80657,0,1 F,0,83405,83634,1,0
Sprite,Foreground,TopLeft,"Storyboard\ae.png",320,240 F,0,82031,82260,0,1 M,0,82031,86840,60,365,100,365 F,0,86611,86840,1,0
Sprite,Foreground,TopLeft,"Storyboard\af.png",320,240 F,0,84779,85008,0,1 M,0,84779,86840,210,400,195,400 F,0,86611,86840,1,0
Sprite,Foreground,TopLeft,"Storyboard\ag.png",320,240 F,0,88443,88672,0,1 M,0,88443,89130,455,365,460,365 F,0,88901,89130,1,0
Sprite,Foreground,TopLeft,"Storyboard\ea.png",320,240 M,0,89359,,100,400 F,0,89359,89588,0,1 F,0,92337,92566,1,0
Sprite,Foreground,TopLeft,"Storyboard\eb.png",320,240 M,0,91191,,300,400 F,0,91191,91421,0,1 F,0,92337,92566,1,0
Sprite,Foreground,TopLeft,"Storyboard\ec.png",320,240 M,0,93024,,100,400 F,0,93024,93253,0,1 F,0,96001,96230,1,0
Sprite,Foreground,TopLeft,"Storyboard\ed.png",320,240 M,0,96688,,100,400 F,0,96688,96917,0,1 F,0,103329,103558,1,0
Sprite,Foreground,TopLeft,"Storyboard\ee.png",320,240 M,0,98520,,186,400 F,0,98520,98749,0,1 F,0,103329,103558,1,0
Sprite,Foreground,TopLeft,"Storyboard\ef.png",320,240 M,0,100123,,326,400 F,0,100123,100352,0,1 F,0,103329,103558,1,0
Sprite,Foreground,TopLeft,"Storyboard\eg.png",320,240 M,0,101955,,409,400 F,0,101955,102184,0,1 F,0,103329,103558,1,0
Sprite,Foreground,TopLeft,"Storyboard\fa.png",320,240 M,0,103787,,100,400 F,0,103787,104016,0,1 F,0,108596,108825,1,0
Sprite,Foreground,TopLeft,"Storyboard\fb.png",320,240 M,0,105390,,215,400 F,0,105390,105619,0,1 F,0,108596,108825,1,0
Sprite,Foreground,TopLeft,"Storyboard\fc.png",320,240 M,0,107451,,343,400 F,0,107451,107680,0,1 F,0,108596,108825,1,0
Sprite,Foreground,TopLeft,"Storyboard\fd.png",320,240 M,0,109283,,100,400 F,0,109283,109512,0,1 F,0,112718,112947,1,0
Sprite,Foreground,TopLeft,"Storyboard\ga.png",320,240 M,0,114779,,100,400 F,0,114779,115008,0,1 F,0,117756,117985,1,0
Sprite,Foreground,TopLeft,"Storyboard\gb.png",320,240 F,0,117756,117985,0,1 M,0,117756,118443,305,375,310,375 F,0,118214,118443,1,0
Sprite,Foreground,TopLeft,"Storyboard\gc.png",320,240 M,0,118443,,100,400 F,0,118443,118672,0,1 F,0,121421,121650,1,0
Sprite,Foreground,TopLeft,"Storyboard\gd.png",320,240 F,0,121421,121650,0,1 M,0,121421,122108,525,375,530,375 F,0,121879,122108,1,0
Sprite,Foreground,TopLeft,"Storyboard\ge.png",320,240 M,0,122108,,100,400 F,0,122108,122337,0,1 F,0,125085,125314,1,0
Sprite,Foreground,TopLeft,"Storyboard\gf.png",320,240 M,0,125772,,100,400 F,0,125772,126001,0,1 F,0,128749,128978,1,0
Sprite,Foreground,TopLeft,"Storyboard\aa.png",320,240 M,0,129436,,100,400 F,0,129436,129665,0,1 F,0,132413,132642,1,0
Sprite,Foreground,TopLeft,"Storyboard\gh.png",320,240 F,0,132413,132642,0,1 M,0,132413,133100,325,375,330,375 F,0,132871,133100,1,0
Sprite,Foreground,TopLeft,"Storyboard\gi.png",320,240 M,0,133100,,100,400 F,0,133100,133329,0,1 F,0,136077,136306,1,0
Sprite,Foreground,TopLeft,"Storyboard\gj.png",320,240 F,0,136077,136306,0,1 M,0,136077,136764,450,375,455,375 F,0,136535,136764,1,0
Sprite,Foreground,TopLeft,"Storyboard\gk.png",320,240 M,0,136764,,100,400 F,0,136764,136993,0,1 F,0,145695,145924,1,0
Sprite,Foreground,TopLeft,"Storyboard\gl.png",320,240 M,0,142718,,455,400 F,0,142718,142947,0,1 F,0,145695,145924,1,0
//Storyboard Sound Samples
//Background Colour Transformations
3,100,163,162,255

[TimingPoints]
1192,458.015267175572,4,2,0,50,1,0
2566,-100,4,2,0,0,0,0
2795,-100,4,2,0,55,0,0
9321,-100,4,2,1,55,0,0
9894,-100,4,2,1,65,0,0
10352,-71.4285714285714,4,2,1,75,0,0
18596,-100,4,2,1,70,0,0
18940,-76.9230769230769,4,2,1,70,0,0
41497,-76.9230769230769,4,2,1,75,0,0
44130,-76.9230769230769,4,2,1,70,0,0
45161,-76.9230769230769,4,2,1,75,0,0
51115,-71.4285714285714,4,2,1,65,0,0
52489,-71.4285714285714,4,2,1,70,0,1
52604,-71.4285714285714,4,2,1,75,0,0
66115,-71.4285714285714,4,2,1,65,0,0
67146,-71.4285714285714,4,2,1,75,0,0
89130,-100,4,2,1,90,0,0
91421,-100,4,2,1,75,0,0
92680,-76.9230769230769,4,2,1,70,0,0
103787,-76.9230769230769,4,2,1,75,0,0
106421,-76.9230769230769,4,2,1,70,0,0
107451,-76.9230769230769,4,2,1,75,0,0
113405,-71.4285714285714,4,2,1,65,0,0
114779,-71.4285714285714,4,2,1,70,0,1
114894,-71.4285714285714,4,2,1,75,0,0
128405,-71.4285714285714,4,2,1,65,0,0
129436,-71.4285714285714,4,2,1,75,0,0
143062,-71.4285714285714,4,2,1,65,0,0
145924,-71.4285714285714,4,2,1,0,0,0

[Colours]
Combo1 : 241,176,80
Combo2 : 223,199,57
Combo3 : 116,84,165
Combo4 : 240,167,184

[HitObjects]
256,192,1192,12,0,2566
300,92,3024,6,0,B|440:92,2,130,4|8|0
164,192,4398,2,0,B|32:192,2,130,8|4|8
256,336,5772,2,0,B|328:336,2,65,0|8|8
168,192,6688,6,0,B|85:194|85:285,2,130,4|8|4
320,124,8062,2,0,B|402:121|402:30,2,130,8|4|8
320,292,9436,2,0,B|320:344,8,32.5,8|8|8|8|8|8|8|8|10
356,220,10581,6,0,B|416:220|416:300,2,90.999997830391,8|0|8
292,168,11268,2,0,B|236:168|236:232,2,90.999997830391,2|8|0
356,116,11955,2,0,B|424:116,2,45.4999989151955,8|0|2
292,68,12413,2,0,B|292:12|360:8,2,90.999997830391,8|2|8
216,96,13100,2,0,B|120:96,1,90.999997830391,2|8
84,168,13558,2,0,B|184:168,1,90.999997830391,0|8
212,240,14016,5,2
212,240,14245,2,0,B|396:240,1,181.999995660782,8|8
416,320,14932,1,2
416,320,15161,2,0,B|232:320,1,181.999995660782,8|8
152,320,15848,1,4
256,192,16306,12,0,18596
256,192,19054,6,0,B|256:144,4,42.2499992445111,8|8|8|8|8
156,124,26840,6,0,B|156:36,2,84.4999984890223,4|8|0
224,172,27527,1,8
292,124,27756,1,0
360,176,27985,2,0,B|408:176,2,42.2499992445111,8|0|0
360,260,28443,1,10
360,260,28672,6,0,B|360:348,2,84.4999984890223,2|8|0
292,212,29359,1,8
224,260,29588,1,0
156,208,29817,2,0,B|108:208,2,42.2499992445111,8|0|0
156,124,30275,1,10
228,76,30504,6,0,B|228:24|164:20,2,84.4999984890223,2|8|0
312,96,31192,2,0,B|361:98|361:38,2,84.4999984890223,8|0|8
288,176,31879,1,0
288,176,32108,1,8
288,176,32337,2,0,B|400:176,1,84.4999984890223,0|8
412,252,32795,2,0,B|320:252,1,84.4999984890223,2|8
288,324,33253,2,0,B|212:280,1,84.4999984890223,2|8
144,328,33711,2,0,B|96:240,1,84.4999984890223,2|8
60,180,34169,5,10
60,180,34398,1,8
60,180,34627,2,0,B|60:80,2,84.4999984890223,0|8|0
140,160,35314,2,0,B|140:212,2,42.2499992445111,8|0|0
224,180,35772,1,10
304,160,36001,5,2
304,160,36230,1,8
304,160,36459,2,0,B|304:260,2,84.4999984890223,0|8|0
384,180,37146,2,0,B|384:128,2,42.2499992445111,8|0|0
468,160,37604,1,8
464,244,37833,5,2
464,244,38062,2,0,B|292:244,1,168.999996978045,8|8
324,324,38749,1,2
324,324,38978,2,0,B|144:324,1,168.999996978045,8|8
76,292,39665,2,0,B|76:236|140:228,1,84.4999984890223,2|8
204,200,40123,2,0,B|204:148|144:136,1,84.4999984890223,2|8
128,60,40581,1,2
128,60,40810,6,0,B|76:60,6,42.2499992445111,8|8|10|8|8|8|8
208,40,41726,2,0,B|384:40,1,168.999996978045,8|0
404,120,42413,2,0,B|488:120,2,84.4999984890223,0|0|10
404,204,43100,6,0,B|404:256,2,42.2499992445111,0|0|8
328,164,43558,2,0,B|226:167|224:286,1,168.999996978045,8|0
224,356,44245,2,0,B|280:356,8,42.2499992445111,2|0|10|0|10|0|2|0|8
148,316,45390,6,0,B|46:313|44:194,1,168.999996978045,8|0
44,124,46077,1,2
188,36,46535,1,10
356,36,46993,6,0,B|356:120,1,84.4999984890223,0|8
440,112,47451,2,0,B|440:196,1,84.4999984890223,0|8
356,192,47909,2,0,B|356:280,1,84.4999984890223,0|8
440,272,48367,2,0,B|440:360,1,84.4999984890223,0|8
256,192,48825,12,2,50657
256,296,51573,6,0,B|256:352,8,45.4999989151955,10|8|8|8|8|8|8|8|10
320,248,52718,2,0,B|376:248|376:312,2,90.999997830391,8|0|8
256,196,53405,2,0,B|256:140|328:128,1,90.999997830391,0|8
384,100,53863,2,0,B|384:40|320:32,1,90.999997830391,0|8
256,64,54321,1,2
256,64,54550,1,8
176,40,54779,1,0
176,40,55008,2,0,B|120:40,2,45.4999989151955,8|0|2
176,120,55466,2,0,B|176:216,2,90.999997830391,8|0|8
96,140,56153,5,2
96,140,56382,2,0,B|32:140,2,45.4999989151955,8|0|0
96,220,56840,1,8
96,220,57069,2,0,B|40:224|40:304,2,90.999997830391,0|8|0
164,268,57756,1,8
240,296,57985,2,0,B|292:300|292:368,2,90.999997830391,2|8|2
240,216,58672,2,0,B|240:152,2,45.4999989151955,8|0|2
312,256,59130,2,0,B|408:256,2,90.999997830391,8|2|8
312,176,59817,5,2
312,176,60046,2,0,B|424:172|424:40,1,181.999995660782,8|8
348,28,60733,1,2
348,28,60962,1,8
272,56,61191,1,0
272,56,61421,1,8
196,28,61650,2,0,B|100:28,2,90.999997830391,2|8|2
196,108,62337,2,0,B|196:176,2,45.4999989151955,8|0|2
116,108,62795,2,0,B|4:112|4:244,1,181.999995660782,8|8
68,276,63482,6,0,B|68:372,2,90.999997830391,2|8|2
148,264,64169,1,8
148,264,64398,2,0,B|148:164,2,90.999997830391,2|8|2
228,284,65085,1,8
228,284,65314,1,2
228,284,65543,2,0,B|416:284,1,181.999995660782,8|10
448,212,66230,6,0,B|496:212,8,45.4999989151955,10|8|10|8|10|8|8|8|10
396,152,67375,2,0,B|396:100|456:88,2,90.999997830391,8|0|8
324,192,68062,2,0,B|268:192|268:128,1,90.999997830391,0|8
236,60,68520,2,0,B|180:60|180:124,1,90.999997830391,0|8
144,192,68978,2,0,B|88:192|88:120,2,90.999997830391,2|8|0
144,272,69665,2,0,B|144:320,2,45.4999989151955,8|0|2
216,232,70123,1,8
216,232,70352,1,0
216,232,70581,1,8
292,260,70810,6,0,B|292:304,8,45.4999989151955,2|0|8|0|0|0|8|0|2
368,228,71955,2,0,B|420:228,2,45.4999989151955,8|0|0
332,152,72413,2,0,B|332:96,2,45.4999989151955,8|0|2
256,188,72871,1,8
184,152,73100,1,2
112,188,73329,2,0,B|64:188,2,45.4999989151955,8|0|2
112,108,73787,2,0,B|112:48|44:48,2,90.999997830391,8|2|8
184,72,74474,5,2
184,72,74703,2,0,B|372:72,1,181.999995660782,8|8
424,132,75390,1,2
368,192,75619,1,8
256,312,76077,2,0,B|256:368,2,45.4999989151955,8|0|2
176,296,76535,1,8
176,296,76764,2,0,B|76:276,1,90.999997830391,2|8
132,212,77222,2,0,B|68:144,1,90.999997830391,2|8
148,120,77680,2,0,B|132:32,1,90.999997830391,0|8
212,48,78138,5,2
212,48,78367,2,0,B|324:52|324:184,1,181.999995660782,8|8
240,168,79054,1,2
240,168,79283,2,0,B|432:168,1,181.999995660782,8|8
468,236,79970,1,4
256,192,80199,12,8,81344
256,192,81802,5,6
256,192,87298,12,8,89130
256,192,90733,5,8
256,192,90962,1,8
104,136,91879,2,0,B|104:32,2,97.5,10|10|10
32,192,92795,5,2
32,192,93024,1,8
104,248,93253,1,0
104,248,93482,1,8
176,188,93711,1,0
176,188,93940,1,8
248,248,94169,1,0
248,248,94398,1,8
320,188,94627,2,0,B|368:188|368:132,1,84.4999984890223,0|8
432,64,95085,2,0,B|484:64|484:140,1,84.4999984890223,2|8
484,212,95543,2,0,B|428:212|428:292,1,84.4999984890223,2|8
380,344,96001,2,0,B|324:344|324:280,1,84.4999984890223,2|8
256,232,96459,5,10
256,232,96688,2,0,B|256:168|328:168,2,84.4999984890223,8|0|8
184,288,97375,1,0
184,288,97604,2,0,B|184:340,2,42.2499992445111,8|0|0
112,232,98062,1,10
112,140,98291,5,2
112,140,98520,2,0,B|112:76|40:76,2,84.4999984890223,8|0|8
184,196,99207,1,0
184,196,99436,2,0,B|184:248,2,42.2499992445111,8|0|0
256,140,99894,1,8
332,192,100123,5,2
332,192,100352,2,0,B|504:192,1,168.999996978045,8|8
444,116,101039,1,2
444,116,101268,2,0,B|372:189|453:276,1,168.999996978045,8|8
396,348,101955,2,0,B|312:308,1,84.4999984890223,2|8
232,340,102413,2,0,B|188:260,1,84.4999984890223,2|8
116,212,102871,1,2
116,212,103100,6,0,B|64:212,6,42.2499992445111,8|8|10|8|8|8|8
96,120,104016,2,0,B|272:120,1,168.999996978045,8|0
320,48,104703,1,0
376,120,104932,1,0
320,192,105161,1,10
376,268,105390,6,0,B|432:268,2,42.2499992445111,0|0|8
320,344,105848,2,0,B|132:344,1,168.999996978045,8|0
76,288,106535,2,0,B|28:288,8,42.2499992445111,2|0|10|0|10|0|2|0|8
116,204,107680,6,0,B|218:201|220:82,1,168.999996978045,8|0
128,92,108367,2,0,B|308:92,1,168.999996978045,2|10
456,192,109283,6,0,B|456:252|392:252,1,84.4999984890223,0|8
360,332,109741,2,0,B|300:332|300:268,1,84.4999984890223,0|8
224,232,110199,2,0,B|224:172|288:172,1,84.4999984890223,0|8
320,92,110657,2,0,B|380:92|380:156,1,84.4999984890223,0|8
256,192,111115,12,2,112947
256,192,113863,6,0,B|256:140,8,45.4999989151955,10|8|8|8|8|8|8|8|10
256,284,115008,1,8
256,284,115237,2,0,B|144:284,1,90.999997830391,0|8
92,340,115695,2,0,B|40:248,1,90.999997830391,0|8
120,204,116153,2,0,B|120:104,1,90.999997830391,0|8
208,92,116611,2,0,B|208:32|140:28,2,90.999997830391,2|8|0
256,168,117298,2,0,B|256:220,2,45.4999989151955,8|0|2
312,96,117756,1,8
364,168,117985,1,0
420,96,118214,1,8
476,168,118443,5,2
420,240,118672,2,0,B|420:288,2,45.4999989151955,8|0|0
332,260,119130,1,8
332,260,119359,2,0,B|228:260,2,90.999997830391,0|8|0
332,168,120046,1,8
332,168,120275,2,0,B|332:76,2,90.999997830391,2|8|2
240,172,120962,2,0,B|180:172,2,45.4999989151955,8|0|2
240,80,121421,1,8
164,32,121650,1,2
88,80,121879,1,8
56,164,122108,5,2
56,164,122337,2,0,B|56:356,1,181.999995660782,8|8
132,296,123024,2,0,B|192:296|192:372,2,90.999997830391,2|8|0
152,208,123711,1,8
152,208,123940,1,2
208,136,124169,1,8
208,136,124398,1,2
288,96,124627,2,0,B|288:28,2,45.4999989151955,8|0|2
376,84,125085,2,0,B|376:272,1,181.999995660782,8|8
464,248,125772,6,0,B|464:344,2,90.999997830391,2|8|2
464,248,126459,1,8
464,156,126688,2,0,B|464:56,2,90.999997830391,2|8|2
464,156,127375,1,8
384,200,127604,1,2
384,200,127833,2,0,B|272:204|272:336,1,181.999995660782,8|8
180,308,128520,6,0,B|180:356,8,45.4999989151955,10|8|10|8|10|8|8|8|10
100,264,129665,1,8
100,264,129894,2,0,B|64:172,1,90.999997830391,0|8
124,108,130352,2,0,B|188:192,1,90.999997830391,0|8
264,144,130810,2,0,B|232:56,1,90.999997830391,0|8
324,64,131268,1,2
324,64,131497,1,8
412,92,131726,1,0
412,92,131955,2,0,B|472:92,2,45.4999989151955,8|0|2
392,180,132413,1,8
392,180,132642,1,0
392,180,132871,1,8
348,260,133100,6,0,B|348:328|424:328,2,90.999997830391,2|8|0
276,204,133787,1,8
204,260,134016,2,0,B|204:308,6,45.4999989151955,2|0|8|0|0|0|8
132,200,134932,1,2
132,200,135161,1,8
204,144,135390,1,2
204,144,135619,2,0,B|272:144,2,45.4999989151955,8|0|2
132,88,136077,2,0,B|32:88,2,90.999997830391,8|2|8
204,32,136764,5,2
204,32,136993,1,8
376,88,137451,2,0,B|436:88|436:16,2,90.999997830391,8|2|8
380,272,138367,2,0,B|380:328,2,45.4999989151955,8|0|2
288,264,138825,2,0,B|228:264|232:344,2,90.999997830391,8|2|8
284,172,139512,2,0,B|284:112|224:112,1,90.999997830391,2|8
204,24,139970,2,0,B|144:24|144:100,1,90.999997830391,0|8
60,112,140428,5,2
60,112,140657,2,0,B|60:312,1,181.999995660782,8|8
144,332,141344,1,2
144,332,141573,2,0,B|144:152,1,181.999995660782,8|8
232,128,142260,1,2
232,128,142489,2,0,B|232:32,2,90.999997830391,8|0|8
256,216,143176,2,0,B|256:264,8,45.4999989151955,0|8|8|8|8|8|8|8|8
256,192,144321,12,0,145924
