osu file format v9

[General]
AudioFilename: happy.mp3
AudioLeadIn: 2000
PreviewTime: 54656
Countdown: 0
SampleSet: Soft
StackLeniency: 0.7
Mode: 0
LetterboxInBreaks: 0

[Editor]
Bookmarks: 50482
DistanceSpacing: 1
BeatDivisor: 4
GridSize: 4

[Metadata]
Title:Happy Girl (TV Size)
Artist:Kitamura Eri
Creator:-Chata-
Version:Easy
Source:Papa no Iukoto wo Kikinasai!
Tags:opening mura_77 KDS papakiki paikoki

[Difficulty]
HPDrainRate:3
CircleSize:3
OverallDifficulty:3
ApproachRate:2
SliderMultiplier:1
SliderTickRate:1

[Events]
//Background and Video events
0,0,"haahaa.jpg"
Video,0,"hinaaaaa.flv"
//Break Periods
//Storyboard Layer 0 (Background)
//Storyboard Layer 1 (Fail)
//Storyboard Layer 2 (Pass)
//Storyboard Layer 3 (Foreground)
//Storyboard Sound Samples
//Background Colour Transformations
3,100,163,162,255

[TimingPoints]
24,413.793103448276,4,2,1,48,1,0
4989,-100,4,2,1,10,0,0
5920,-100,4,2,1,15,0,0
6024,-100,4,2,1,22,0,0
6127,-100,4,2,1,28,0,0
6230,-100,4,2,1,32,0,0
6334,-100,4,2,1,40,0,0
6437,-100,4,2,1,50,0,0
6644,-100,4,2,1,35,0,0
7472,-100,4,2,1,45,0,0
19265,-100,4,2,2,45,0,0
19472,-100,4,2,2,60,0,0
19886,-100,4,2,1,60,0,1
19989,-100,4,2,1,60,0,0
26093,-100,4,2,1,60,0,0
54230,-100,4,2,2,60,0,0
54644,-100,4,1,0,70,0,1
54748,-100,4,2,1,70,0,1
67472,-100,4,2,2,40,0,1
67782,-100,4,2,1,60,0,0
67886,-100,4,1,0,70,0,1
67989,-100,4,2,1,70,0,1
84437,-100,4,1,0,70,0,0
84644,-100,4,2,1,70,0,0
86920,-100,4,2,1,15,0,0
87230,-100,4,2,1,15,0,0

[Colours]
Combo1 : 255,60,60
Combo2 : 255,255,128
Combo3 : 255,157,206
Combo4 : 128,255,128

[HitObjects]
172,292,24,2,0,B|248:328|340:320,2,150,4|0|2
156,192,1679,2,0,B|48:216,1,100,2|0
92,120,2506,2,0,B|136:96|212:104,1,100,0|2
288,92,3334,6,0,B|360:96|412:152|424:232,1,200,2|0
388,316,4575,1,2
256,192,4989,12,0,6644
144,164,7472,6,0,B|124:288|260:308,1,200,2|0
340,264,8713,2,0,B|312:224|228:216,2,100,4|0|2
416,200,9955,5,0
256,80,10782,1,0
100,200,11610,2,4,B|0:224,2,100,2|0|2
196,168,12851,1,0
204,268,13265,6,0,B|292:308|412:296,1,200,2|0
508,128,14920,2,0,B|420:168|296:156,1,200,0|0
232,100,16161,1,2
196,192,16575,6,8,B|96:232|-12:188,2,200,0|2|2
156,284,18644,1,0
224,360,19058,2,0,B|274:360,2,50,0|4|4
292,284,19886,6,0,B|432:292,1,100,8|4
432,200,20713,2,0,B|292:192,1,100,8|4
372,104,21541,2,0,B|508:112,2,100,8|4|8
272,96,22782,1,4
228,188,23196,6,0,B|164:276|36:296,1,200,8|8
68,192,24437,1,4
28,100,24851,2,0,B|128:108,1,100,8|2
208,48,25679,2,0,B|300:100,1,100,8|8
396,96,26506,5,8
368,192,26920,1,4
384,292,27334,2,0,B|338:298|290:262,1,100,8|4
224,336,28161,2,0,B|172:352|116:316,2,100,8|4|8
184,244,29403,1,8
184,244,29817,6,0,B|240:252|296:208,2,100,8|4|8
204,148,31058,2,0,B|180:104|104:80,1,100,4|8
96,180,31886,2,0,B|44:180|44:180|0:154,2,100,4|8|8
84,280,33127,6,0,B|176:340|288:328,1,200,8|8
352,260,34368,1,4
376,164,34782,2,0,B|512:184,1,100,8|4
428,88,35610,2,0,B|372:56|300:96,1,100,8|4
232,80,36437,6,0,B|156:88|156:88|56:68,1,150,8|8
56,220,37679,2,0,B|162:258|269:204,1,200,8|4
296,124,38920,6,0,B|404:124,2,100,8|4|8
356,204,40161,2,0,B|460:204,2,100,4|8|4
304,288,41403,1,8
168,148,42230,6,0,B|124:180|73:177,1,100,8|4
16,260,43058,2,0,B|116:288|232:248,1,200,8|8
372,124,44713,6,0,B|416:164|432:248,2,100,8|4|8
272,116,45955,1,4
276,216,46368,6,0,B|244:312|120:360,1,200,8|8
0,196,48024,2,0,B|100:232|224:184,1,200,8|8
156,100,49265,1,4
248,60,49679,6,0,B|300:32|388:44,1,100,8|4
408,116,50506,2,0,B|356:144|268:132,1,100,8|4
256,192,51334,12,8,52989
128,192,53817,6,0,B|208:256,1,100,8|4
300,220,54644,6,0,B|360:240|440:228,2,100,4|4|8
336,312,55886,1,4
236,328,56299,2,0,B|176:348|96:336,2,100,8|4|8
180,244,57541,1,4
148,148,57955,6,0,B|88:172|16:172,1,100,8|4
76,72,58782,2,0,B|136:48|208:48,1,100,8|4
256,104,59610,2,0,B|360:76,1,100,8|4
428,140,60437,2,0,B|324:168,1,100,8|4
248,220,61265,6,0,B|324:284|460:288,1,200,8|8
408,188,62506,1,4
344,112,62920,2,0,B|260:40|144:56,1,200,8|8
80,116,64161,1,4
72,216,64575,5,8
140,292,64989,1,4
240,308,65403,2,4,B|352:316,1,100,8|4
440,304,66230,1,8
392,216,66644,2,0,B|276:224,2,100,4|8|4
444,128,67886,6,0,B|348:80|220:108,1,200,4|8
152,120,69127,1,4
112,212,69541,2,0,B|220:236,1,100,8|4
296,284,70368,2,0,B|258:318|258:318|192:336,1,100,8|4
112,332,71196,5,8
88,132,72024,1,8
284,104,72851,2,0,B|408:88,2,100,8|4|8
184,120,74092,1,4
108,184,74506,6,0,B|196:240|316:216,1,200,8|8
320,316,75748,1,4
320,316,76161,2,0,B|276:348|196:340,2,100,8|4|8
400,252,77403,1,4
420,156,77817,6,8,B|408:88|296:60|248:128,2,200,8|10|8
328,192,79886,1,2
264,268,80299,2,0,B|148:292,1,100,8|4
112,204,81127,6,0,B|228:180,1,100,8|4
252,92,81955,2,0,B|148:44,1,100,8|8
60,64,82782,1,8
4,148,83196,1,8
20,248,83610,2,0,B|68:364|228:312,1,200,8|4
280,296,84851,5,4
240,208,85265,2,0,B|292:204|360:224,1,100,8|4
424,168,86092,1,8
424,168,86506,1,4
348,104,86920,2,0,B|268:88,1,75,2|0
