osu file format v12

[General]
AudioFilename: =A=.mp3
AudioLeadIn: 0
PreviewTime: 64403
Countdown: 0
SampleSet: Soft
StackLeniency: 0.7
Mode: 0
LetterboxInBreaks: 1

[Editor]
DistanceSpacing: 1.8
BeatDivisor: 4
GridSize: 8

[Metadata]
Title:Give Me Everything
TitleUnicode:Give Me Everything
Artist:Kitamura Eri
ArtistUnicode:喜多村英梨
Creator:Nymph
Version:Hard
Source:Mayo Chiki!
Tags:Suzutsuki Kanade まよチキ
BeatmapID:194232
BeatmapSetID:51330

[Difficulty]
HPDrainRate:6
CircleSize:4
OverallDifficulty:7
ApproachRate:7
SliderMultiplier:2.4
SliderTickRate:1

[Events]
//Background and Video events
0,0,"kanade.jpg",0,0
//Break Periods
2,86597,95830
2,161264,181497
//Storyboard Layer 0 (Background)
//Storyboard Layer 1 (Fail)
//Storyboard Layer 2 (Pass)
//Storyboard Layer 3 (Foreground)
//Storyboard Sound Samples
//Background Colour Transformations
3,100,163,162,255

[TimingPoints]
1064,666.666666666667,4,2,1,60,1,0
22397,-100,4,2,1,50,0,0
65064,-100,4,2,1,65,0,1
86397,-100,4,2,1,50,0,0
139730,-100,4,2,1,65,0,1
161064,-100,4,2,1,50,0,0
182397,-133.333333333333,4,2,1,50,0,0
205730,-100,4,2,1,50,0,0
206397,-100,4,2,1,65,0,1
227730,-100,4,2,1,50,0,0

[Colours]
Combo1 : 198,140,255
Combo2 : 142,199,255
Combo3 : 223,255,191
Combo4 : 255,214,193

[HitObjects]
184,64,11730,2,0,P|160:121|114:153,1,120,4|0,0:0|0:0,0:0:0:0:
109,225,12230,2,0,L|85:281,1,60,0|8,0:0|0:0,0:0:0:0:
266,329,12730,2,0,L|322:353,1,60,0|0,0:0|0:0,0:0:0:0:
374,303,13064,2,0,L|430:327,1,60,2|0,0:0|0:0,0:0:0:0:
435,245,13397,2,0,L|491:269,2,60,0|0|8,0:0|0:0|0:0,0:0:0:0:
476,45,14064,1,0,0:0:0:0:
272,23,14397,6,0,P|225:64|166:80,1,120,2|0,0:0|0:0,0:0:0:0:
98,75,14897,2,0,L|61:125,1,60,0|8,0:0|0:0,0:0:0:0:
56,312,15397,2,0,L|92:264,1,60
167,307,15730,2,0,L|132:356,1,60,2|0,0:0|0:0,0:0:0:0:
240,336,16064,2,0,L|276:288,2,60,0|0|8,0:0|0:0|0:0,0:0:0:0:
455,354,16730,1,0,0:0:0:0:
509,166,17064,5,2,0:0:0:0:
418,54,17397,2,0,L|376:100,2,60,0|0|8,0:0|0:0|0:0,0:0:0:0:
217,102,18064,2,0,L|175:148,1,60
104,143,18397,1,2,0:0:0:0:
104,143,18564,2,0,L|62:189,1,60
103,247,18897,2,0,L|61:293,1,60,0|8,0:0|0:0,0:0:0:0:
246,364,19397,1,0,0:0:0:0:
432,340,19730,5,2,0:0:0:0:
451,197,20064,2,0,L|493:151,2,60,0|0|8,0:0|0:0|0:0,0:0:0:0:
349,95,20730,2,0,L|391:49,1,60
287,56,21064,1,2,0:0:0:0:
287,56,21230,2,0,L|246:100,1,60,0|2,0:0|0:0,0:0:0:0:
174,100,21564,2,0,L|133:144,1,60,0|8,0:0|0:0,0:0:0:0:
154,287,22064,2,0,L|113:331,1,60
225,317,22397,6,0,P|273:353|332:361,1,120,4|0,0:0|0:0,0:0:0:0:
403,356,22897,1,0,0:0:0:0:
442,183,23230,2,0,L|461:127,1,60
421,65,23564,2,0,P|373:29|314:21,1,120,2|0,0:0|0:0,0:0:0:0:
258,65,24064,1,0,0:0:0:0:
207,115,24230,2,0,P|159:151|100:159,1,120
44,291,24897,1,0,0:0:0:0:
112,313,25064,6,0,P|171:321|219:357,1,120,2|0,0:0|0:0,0:0:0:0:
293,357,25564,2,0,P|341:321|400:313,1,120,0|0,0:0|0:0,0:0:0:0:
468,291,26064,1,0,0:0:0:0:
497,150,26397,2,0,L|498:82,1,60,0|2,0:0|0:0,0:0:0:0:
425,26,26730,2,0,L|425:86,1,60,0|0,0:0|0:0,0:0:0:0:
360,120,27064,1,8,0:0:0:0:
235,290,27397,2,0,L|194:334,1,60
124,353,27730,6,0,P|76:316|53:261,1,120,2|0,0:0|0:0,0:0:0:0:
31,193,28230,1,0,0:0:0:0:
135,93,28564,2,0,L|176:49,1,60
244,27,28897,2,0,P|303:35|351:71,1,120,2|0,0:0|0:0,0:0:0:0:
338,141,29397,1,0,0:0:0:0:
374,203,29564,2,0,P|422:239|481:247,1,120,0|0,0:0|0:0,0:0:0:0:
296,313,30230,1,0,0:0:0:0:
223,313,30397,6,0,P|164:321|116:357,1,120,2|0,0:0|0:0,0:0:0:0:
56,316,30897,2,0,P|48:257|12:209,1,120
19,137,31397,1,0,0:0:0:0:
151,81,31730,2,0,L|192:37,1,60,0|2,0:0|0:0,0:0:0:0:
251,78,32064,2,0,L|292:34,1,60
364,34,32397,1,0,0:0:0:0:
486,165,32730,2,0,L|445:209,1,60
376,232,33064,6,0,P|328:269|305:324,1,120,4|0,0:0|0:0,0:0:0:0:
254,374,33564,1,0,0:0:0:0:
201,324,33730,1,8,0:0:0:0:
44,215,34064,1,0,0:0:0:0:
47,143,34230,2,0,P|55:84|91:36,1,120,2|0,0:0|0:0,0:0:0:0:
156,7,34730,1,0,0:0:0:0:
219,40,34897,2,0,P|267:76|326:84,1,120,0|0,0:0|0:0,0:0:0:0:
338,227,35564,1,0,0:0:0:0:
338,227,35730,6,0,P|397:235|445:271,1,120,2|0,0:0|0:0,0:0:0:0:
421,338,36230,2,0,P|362:330|314:294,1,120
255,335,36730,1,0,0:0:0:0:
110,340,37064,2,0,L|54:314,1,60,0|2,0:0|0:0,0:0:0:0:
66,219,37397,2,0,L|30:168,1,60
104,106,37730,2,0,L|98:44,1,60,8|0,0:0|0:0,0:0:0:0:
192,71,38064,2,0,L|218:15,1,60
313,8,38397,6,0,P|361:44|420:52,1,120,2|0,0:0|0:0,0:0:0:0:
435,122,38897,2,0,P|471:170|479:229,1,120
413,259,39397,1,0,0:0:0:0:
422,330,39564,2,0,P|374:366|315:374,1,120,2|0,0:0|0:0,0:0:0:0:
256,333,40064,1,0,0:0:0:0:
197,291,40230,2,0,P|138:299|90:335,1,120
43,137,40897,1,0,0:0:0:0:
43,137,41064,6,0,P|102:129|150:93,1,120,2|0,0:0|0:0,0:0:0:0:
196,38,41564,2,0,P|256:29|314:38,1,120
363,93,42064,1,0,0:0:0:0:
256,192,42230,12,4,43730,0:0:0:0:
92,66,44064,5,0,0:0:0:0:
92,66,44230,1,0,0:0:0:0:
92,66,44397,2,0,P|100:125|136:173,1,120,8|0,0:0|0:0,0:0:0:0:
245,123,44897,1,0,0:0:0:0:
245,123,45064,2,0,P|281:171|289:230,1,120,2|0,0:0|0:0,0:0:0:0:
292,301,45564,1,0,0:0:0:0:
360,323,45730,2,0,L|408:363,2,60,8|0|0,0:0|0:0|0:0,0:0:0:0:
473,172,46397,6,0,P|437:124|429:65,1,120,2|0,0:0|0:0,0:0:0:0:
360,43,46897,2,0,P|312:79|253:87,1,120
184,68,47397,1,0,0:0:0:0:
122,105,47564,2,0,L|76:148,1,60,0|2,0:0|0:0,0:0:0:0:
89,217,47897,2,0,L|43:260,1,60
52,353,48230,2,0,L|95:312,1,60,0|8,0:0|0:0,0:0:0:0:
165,332,48564,2,0,L|208:291,1,60
271,255,48897,1,0,0:0:0:0:
321,306,49064,6,0,P|369:342|428:350,1,120,2|0,0:0|0:0,0:0:0:0:
498,339,49564,1,0,0:0:0:0:
498,339,49730,1,8,0:0:0:0:
494,155,50064,1,0,0:0:0:0:
494,155,50230,1,0,0:0:0:0:
441,105,50397,2,0,P|393:69|334:61,1,120,2|0,0:0|0:0,0:0:0:0:
266,85,50897,1,0,0:0:0:0:
204,123,51064,2,0,P|156:159|97:167,1,120,8|0,0:0|0:0,0:0:0:0:
42,300,51730,6,0,P|101:308|149:344,1,120,2|0,0:0|0:0,0:0:0:0:
213,373,52230,1,0,0:0:0:0:
257,315,52397,1,8,0:0:0:0:
465,259,52730,1,0,0:0:0:0:
465,259,52897,1,0,0:0:0:0:
465,259,53064,1,2,0:0:0:0:
365,67,53397,1,0,0:0:0:0:
365,67,53564,1,0,0:0:0:0:
365,67,53730,1,8,0:0:0:0:
189,192,54064,1,0,0:0:0:0:
189,192,54230,1,0,0:0:0:0:
189,192,54397,6,0,P|130:177|73:193,1,120,4|0,0:0|0:0,0:0:0:0:
53,262,54897,2,0,P|111:276|168:260,1,120
204,323,55397,1,0,0:0:0:0:
276,322,55564,2,0,L|338:322,1,60,0|2,0:0|0:0,0:0:0:0:
378,263,55897,2,0,L|431:232,1,60
434,160,56230,2,0,L|465:106,1,60,0|8,0:0|0:0,0:0:0:0:
306,270,56730,2,0,L|275:321,1,60
209,351,57064,6,0,P|122:367|49:318,2,180,2|0|0,0:0|0:0|0:0,0:0:0:0:
449,192,58730,1,0,0:0:0:0:
357,80,59064,2,0,P|327:50|288:32,2,80,8|0|0,0:0|0:0|0:0,0:0:0:0:
347,175,59730,6,0,P|349:254|296:336,1,180,2|0,0:0|0:0,0:0:0:0:
228,363,60397,1,8,0:0:0:0:
92,313,60730,1,0,0:0:0:0:
92,313,60897,1,0,0:0:0:0:
92,313,61064,2,0,P|62:303|38:284,1,60,2|0,0:0|0:0,0:0:0:0:
15,217,61397,2,0,P|25:187|44:163,2,60,0|0|8,0:0|0:0|0:0,0:0:0:0:
204,352,62064,1,0,0:0:0:0:
347,352,62397,6,0,P|407:344|455:306,1,120,4|0,0:0|0:0,0:0:0:0:
510,210,62897,2,0,P|450:218|404:254,1,120
336,280,63397,1,0,0:0:0:0:
271,248,63564,2,0,L|220:282,1,60
60,189,64397,6,0,P|37:134|41:70,1,120,2|0,0:0|0:0,0:0:0:0:
100,35,64897,1,0,0:0:0:0:
171,55,65064,6,0,P|190:83|215:100,1,60,4|0,0:0|0:0,0:0:0:0:
300,98,65397,2,0,P|322:83|341:55,1,60
464,128,65730,2,0,P|487:183|483:247,1,120,8|0,0:0|0:0,0:0:0:0:
460,310,66230,2,0,P|400:312|345:289,1,120,2|0,0:0|0:0,0:0:0:0:
318,223,66730,2,0,P|290:242|273:267,1,60
136,336,67064,2,0,P|81:359|21:356,1,120,8|0,0:0|0:0,0:0:0:0:
20,194,67730,6,0,P|75:171|134:173,1,120,2|0,0:0|0:0,0:0:0:0:
148,102,68230,2,0,P|207:104|262:81,1,120,2|0,0:0|0:0,0:0:0:0:
441,54,68897,1,0,0:0:0:0:
441,54,69064,2,0,P|465:72|479:99,1,60
399,152,69397,2,0,P|413:179|437:197,1,60
450,291,69730,1,8,0:0:0:0:
256,365,70064,1,0,0:0:0:0:
62,291,70397,6,0,P|28:243|21:180,1,120,4|0,0:0|0:0,0:0:0:0:
26,111,70897,1,0,0:0:0:0:
26,111,71064,1,8,0:0:0:0:
190,27,71397,2,0,P|224:75|231:138,1,120,2|0,0:0|0:0,0:0:0:0:
226,207,71897,1,0,0:0:0:0:
226,207,72064,1,0,0:0:0:0:
399,356,72397,2,0,P|455:332|490:287,1,120,8|0,0:0|0:0,0:0:0:0:
469,57,73064,5,2,0:0:0:0:
469,57,73230,1,0,0:0:0:0:
434,120,73397,2,0,L|402:176,1,60,2|0,0:0|0:0,0:0:0:0:
336,146,73730,2,0,L|304:202,2,60,8|0|0,0:0|0:0|0:0,0:0:0:0:
191,91,74397,2,0,L|223:35,1,60,2|0,0:0|0:0,0:0:0:0:
95,62,74730,2,0,L|65:114,1,60,2|0,0:0|0:0,0:0:0:0:
53,250,75064,2,0,L|0:220,1,60,8|0,0:0|0:0,0:0:0:0:
132,345,75397,2,0,L|184:374,1,60
278,269,75730,6,0,P|337:276|385:310,1,120,4|0,0:0|0:0,0:0:0:0:
443,353,76230,1,0,0:0:0:0:
443,353,76397,1,8,0:0:0:0:
505,172,76730,1,0,0:0:0:0:
313,138,77064,2,0,P|253:130|205:96,1,120,2|0,0:0|0:0,0:0:0:0:
151,48,77564,1,0,0:0:0:0:
151,48,77730,1,8,0:0:0:0:
24,192,78064,1,0,0:0:0:0:
199,269,78397,6,0,P|258:276|306:310,1,120,2|0,0:0|0:0,0:0:0:0:
361,359,78897,1,0,0:0:0:0:
361,359,79064,1,8,0:0:0:0:
468,263,79397,1,0,0:0:0:0:
468,121,79730,1,2,0:0:0:0:
361,25,80064,1,0,0:0:0:0:
254,121,80397,1,8,0:0:0:0:
254,264,80730,1,0,0:0:0:0:
254,264,80897,2,0,P|206:298|146:305,1,120,2|0,0:0|0:0,0:0:0:0:
80,277,81397,6,0,L|28:312,2,60,2|0|8,0:0|0:0|0:0,0:0:0:0:
29,141,82064,1,0,0:0:0:0:
131,40,82397,1,2,0:0:0:0:
183,173,82730,1,0,0:0:0:0:
80,277,83064,1,8,0:0:0:0:
29,141,83397,1,0,0:0:0:0:
183,173,83730,6,0,P|209:159|230:137,1,60,4|0,0:0|0:0,0:0:0:0:
315,51,84064,2,0,P|329:77|351:98,1,60,2|0,0:0|0:0,0:0:0:0:
446,170,84397,2,0,P|420:184|399:206,1,60,8|0,0:0|0:0,0:0:0:0:
317,294,84730,2,0,P|303:268|281:247,1,60,2|0,0:0|0:0,0:0:0:0:
317,294,85064,2,0,P|350:342|407:368,1,120,4|0,0:0|0:0,0:0:0:0:
476,377,85564,2,0,P|474:346|458:320,1,60,0|8,0:0|0:0,0:0:0:0:
373,171,86064,2,0,P|375:140|391:114,1,60
427,54,86397,1,4,0:0:0:0:
285,58,96730,5,0,0:0:0:0:
352,88,96897,2,0,L|408:111,2,60,0|4|0,0:0|0:0|0:0,0:0:0:0:
438,176,97397,1,0,0:0:0:0:
438,176,97564,2,0,P|441:236|413:289,1,120
347,312,98064,1,0,0:0:0:0:
347,312,98230,2,0,P|286:308|233:336,1,120,2|0,0:0|0:0,0:0:0:0:
163,344,98730,1,0,0:0:0:0:
163,344,98897,2,0,P|109:317|76:265,1,120
163,40,99730,6,0,P|109:66|76:118,1,120,2|0,0:0|0:0,0:0:0:0:
78,188,100230,2,0,P|109:237|163:264,1,120,0|0,0:0|0:0,0:0:0:0:
231,288,100730,2,0,L|279:325,1,60
344,294,101064,1,2,0:0:0:0:
344,294,101230,2,0,L|392:331,1,60
430,262,101564,1,0,0:0:0:0:
430,262,101730,2,0,L|478:299,1,60,2|0,0:0|0:0,0:0:0:0:
437,190,102064,2,0,L|474:142,1,60
378,42,102397,6,0,P|318:37|263:66,1,120,2|0,0:0|0:0,0:0:0:0:
255,135,102897,2,0,P|202:161|142:157,1,120
74,181,103397,1,0,0:0:0:0:
74,181,103564,2,0,P|47:233|51:293,1,120,2|0,0:0|0:0,0:0:0:0:
115,327,104064,1,0,0:0:0:0:
115,327,104230,2,0,P|174:322|227:349,1,120
478,256,105064,6,0,P|418:260|365:233,1,120,2|0,0:0|0:0,0:0:0:0:
341,165,105564,2,0,P|288:138|228:142,1,120
157,155,106064,2,0,L|102:187,1,60
78,277,106397,2,0,L|23:309,1,60,2|0,0:0|0:0,0:0:0:0:
196,318,106730,2,0,L|141:350,1,60
293,334,107064,2,0,L|344:303,1,60,2|0,0:0|0:0,0:0:0:0:
381,220,107397,2,0,L|432:189,1,60
405,33,107730,6,0,P|352:60|292:56,1,120,4|0,0:0|0:0,0:0:0:0:
219,56,108230,2,0,P|160:60|107:33,1,120
54,82,108730,1,0,0:0:0:0:
42,153,108897,2,0,P|45:212|18:265,1,120,2|0,0:0|0:0,0:0:0:0:
189,353,109397,1,0,0:0:0:0:
158,287,109564,2,0,P|154:227|181:174,1,120
397,75,110230,1,0,0:0:0:0:
433,139,110397,6,0,P|437:199|410:252,1,120,2|0,0:0|0:0,0:0:0:0:
315,365,110897,2,0,P|311:305|338:253,1,120
310,137,111397,2,0,L|263:97,1,60
168,94,111730,2,0,L|121:54,2,60,2|0|0,0:0|0:0|0:0,0:0:0:0:
86,169,112230,2,0,L|39:129,2,60,0|2|0,0:0|0:0|0:0,0:0:0:0:
45,267,112730,2,0,P|41:299|28:325,1,60
106,331,113064,6,0,P|158:357|218:353,1,120,2|0,0:0|0:0,0:0:0:0:
293,353,113564,1,0,0:0:0:0:
293,353,113730,2,0,P|353:357|406:331,1,120
501,196,114230,1,0,0:0:0:0:
501,196,114397,2,0,P|441:192|388:218,1,120,2|0,0:0|0:0,0:0:0:0:
319,198,114897,2,0,P|292:145|296:85,1,120,2|0,0:0|0:0,0:0:0:0:
126,42,115564,1,0,0:0:0:0:
126,42,115730,6,2,P|152:94|148:154,1,120,2|0,0:0|0:0,0:0:0:0:
87,193,116230,2,0,P|83:253|109:305,1,120,2|0,0:0|0:0,0:0:0:0:
159,356,116730,1,2,0:0:0:0:
478,192,117397,1,0,0:0:0:0:
357,23,117730,2,0,L|298:23,1,60
280,93,118064,2,0,L|221:93,1,60
201,162,118397,6,0,L|77:162,1,120,4|0,0:0|0:0,0:0:0:0:
8,162,118897,1,0,0:0:0:0:
8,162,119064,1,8,0:0:0:0:
68,348,119397,2,0,L|128:348,1,60,0|0,0:0|0:0,0:0:0:0:
182,300,119730,1,2,0:0:0:0:
182,300,119897,2,0,L|242:300,1,60
295,348,120230,2,0,L|355:348,1,60,0|8,0:0|0:0,0:0:0:0:
486,192,120730,1,0,0:0:0:0:
355,36,121064,6,0,P|330:89|278:123,1,120,2|0,0:0|0:0,0:0:0:0:
213,93,121564,2,0,P|163:126|138:179,1,120
98,340,122230,1,0,0:0:0:0:
166,361,122397,2,0,P|197:366|226:361,1,60,2|0,0:0|0:0,0:0:0:0:
284,320,122730,2,0,P|315:315|344:320,1,60
412,340,123064,1,8,0:0:0:0:
493,191,123397,1,0,0:0:0:0:
412,44,123730,5,2,0:0:0:0:
330,162,124064,1,0,0:0:0:0:
330,162,124230,1,0,0:0:0:0:
330,162,124397,1,8,0:0:0:0:
182,162,124730,1,0,0:0:0:0:
182,162,124897,1,0,0:0:0:0:
182,162,125064,1,2,0:0:0:0:
100,44,125397,1,0,0:0:0:0:
100,44,125564,2,0,P|54:88|36:143,1,120
123,254,126230,6,0,P|140:306|186:350,1,120,2|0,0:0|0:0,0:0:0:0:
256,369,126730,1,0,0:0:0:0:
480,192,127064,1,8,0:0:0:0:
409,344,127397,1,0,0:0:0:0:
409,344,127564,1,0,0:0:0:0:
409,344,127730,1,2,0:0:0:0:
256,370,128064,1,0,0:0:0:0:
256,370,128230,1,0,0:0:0:0:
256,370,128397,2,0,P|196:380|139:370,1,120,8|0,0:0|0:0,0:0:0:0:
73,338,128897,1,0,0:0:0:0:
73,338,129064,6,0,P|63:278|73:221,1,120,4|0,0:0|0:0,0:0:0:0:
134,64,129564,2,0,P|144:124|134:181,1,120
189,227,130064,1,0,0:0:0:0:
189,227,130230,2,0,P|246:237|306:227,1,120,2|0,0:0|0:0,0:0:0:0:
355,173,130730,2,0,P|412:163|472:173,1,120,0|8,0:0|0:0,0:0:0:0:
320,345,131397,1,0,0:0:0:0:
320,345,131564,1,0,0:0:0:0:
248,345,131730,6,0,P|164:368|80:329,2,180,2|0|0,0:0|0:0|0:0,0:0:0:0:
439,130,133397,1,0,0:0:0:0:
293,67,133730,2,0,P|256:58|216:66,2,80,8|0|0,0:0|0:0|0:0,0:0:0:0:
256,156,134397,5,2,0:0:0:0:
123,282,134730,1,0,0:0:0:0:
123,282,134897,1,0,0:0:0:0:
123,282,135064,1,8,0:0:0:0:
256,345,135397,1,0,0:0:0:0:
256,345,135564,1,0,0:0:0:0:
256,345,135730,1,2,0:0:0:0:
389,282,136064,1,0,0:0:0:0:
389,282,136230,1,0,0:0:0:0:
389,282,136397,1,8,0:0:0:0:
256,226,136730,1,0,0:0:0:0:
256,226,137064,6,0,P|266:167|256:108,1,120,4|0,0:0|0:0,0:0:0:0:
144,64,137564,2,0,P|134:123|144:182,2,120,2|0|2,0:0|0:0|0:0,0:0:0:0:
256,192,138397,12,4,139730,0:0:0:0:
257,84,140064,5,0,0:0:0:0:
257,84,140230,1,0,0:0:0:0:
257,84,140397,1,8,0:0:0:0:
148,191,140730,1,0,0:0:0:0:
148,191,140897,1,0,0:0:0:0:
148,191,141064,1,2,0:0:0:0:
255,300,141397,1,0,0:0:0:0:
255,300,141564,1,0,0:0:0:0:
255,300,141730,2,0,P|315:287|360:250,1,120,8|0,0:0|0:0,0:0:0:0:
478,61,142397,6,0,P|418:74|373:111,1,120,2|0,0:0|0:0,0:0:0:0:
341,174,142897,2,0,P|281:161|236:124,1,120
97,50,143564,1,0,0:0:0:0:
97,50,143730,2,0,L|52:90,1,60,2|0,0:0|0:0,0:0:0:0:
67,185,144064,2,0,L|48:242,1,60
90,328,144397,1,8,0:0:0:0:
256,376,144730,1,0,0:0:0:0:
422,328,145064,5,4,0:0:0:0:
475,194,145397,1,0,0:0:0:0:
475,194,145564,1,0,0:0:0:0:
475,194,145730,1,8,0:0:0:0:
330,187,146064,1,0,0:0:0:0:
383,53,146397,1,2,0:0:0:0:
383,53,146564,1,0,0:0:0:0:
383,53,146730,1,0,0:0:0:0:
244,93,147064,2,0,P|196:128|137:138,1,120,8|0,0:0|0:0,0:0:0:0:
33,237,147730,6,0,P|24:268|25:297,1,60,2|0,0:0|0:0,0:0:0:0:
134,374,148064,2,0,P|143:343|142:314,1,60
250,263,148397,2,0,P|277:262|308:271,1,60,8|0,0:0|0:0,0:0:0:0:
418,320,148730,1,0,0:0:0:0:
493,91,149064,2,0,P|465:91|434:82,1,60,2|0,0:0|0:0,0:0:0:0:
337,11,149397,2,0,P|320:38|313:65,1,60
186,193,149730,2,0,P|202:165|209:138,1,60,8|0,0:0|0:0,0:0:0:0:
88,121,150064,2,0,P|57:112|30:113,1,60
95,279,150397,6,0,P|135:328|185:351,1,120,4|0,0:0|0:0,0:0:0:0:
256,364,150897,1,0,0:0:0:0:
256,364,151064,1,8,0:0:0:0:
442,320,151397,1,0,0:0:0:0:
483,132,151730,2,0,P|443:83|393:60,1,120,2|0,0:0|0:0,0:0:0:0:
322,47,152230,1,0,0:0:0:0:
322,47,152397,1,8,0:0:0:0:
255,226,152730,1,0,0:0:0:0:
114,356,153064,6,0,P|64:333|24:284,1,120,2|0,0:0|0:0,0:0:0:0:
6,213,153564,1,0,0:0:0:0:
6,213,153730,1,8,0:0:0:0:
102,47,154064,1,0,0:0:0:0:
256,161,154397,2,0,P|282:216|332:248,1,120,2|0,0:0|0:0,0:0:0:0:
503,163,155064,2,0,P|477:108|427:76,1,120,8|0,0:0|0:0,0:0:0:0:
364,44,155564,2,0,P|313:78|254:81,1,120
184,88,156064,6,0,L|135:127,1,60
83,174,156397,1,8,0:0:0:0:
190,269,156730,2,0,L|141:308,1,60
89,355,157064,1,2,0:0:0:0:
388,251,157397,2,0,L|339:290,1,60
287,337,157730,1,8,0:0:0:0:
476,160,158064,1,0,0:0:0:0:
273,66,158397,6,0,P|256:91|233:109,1,60,4|0,0:0|0:0,0:0:0:0:
130,175,158730,2,0,P|155:192|173:215,1,60
239,318,159064,2,0,P|256:293|279:275,1,60,8|0,0:0|0:0,0:0:0:0:
382,209,159397,2,0,P|357:192|339:169,1,60
273,66,159730,1,4,0:0:0:0:
239,317,160064,1,0,0:0:0:0:
239,317,160230,1,0,0:0:0:0:
239,317,160397,1,8,0:0:0:0:
165,182,160730,1,0,0:0:0:0:
347,202,161064,1,4,0:0:0:0:
253,41,182397,6,0,P|209:114|121:145,1,180.000006866455,4|0,0:0|0:0,0:0:0:0:
63,235,183397,1,0,0:0:0:0:
63,235,183564,1,0,0:0:0:0:
63,235,183730,2,0,P|148:267|192:339,1,180.000006866455,2|0,0:0|0:0,0:0:0:0:
429,298,184897,1,0,0:0:0:0:
429,298,185064,6,0,P|462:264|477:222,1,90.0000034332277,2|0,0:0|0:0,0:0:0:0:
476,170,185564,2,0,P|461:130|428:96,1,90.0000034332277
282,42,186230,1,0,0:0:0:0:
282,42,186397,2,0,P|248:75|208:89,1,90.0000034332277,2|0,0:0|0:0,0:0:0:0:
120,151,187064,2,0,P|80:165|46:198,1,90.0000034332277
20,246,187564,1,0,0:0:0:0:
20,246,187730,1,2,0:0:0:0:
110,343,188064,6,0,P|155:350|198:343,2,90.0000034332277
314,294,189064,2,0,P|357:287|402:294,2,90.0000034332277,2|0|0,0:0|0:0|0:0,0:0:0:0:
256,202,190064,1,0,0:0:0:0:
256,202,190397,6,0,P|261:154|256:110,1,90.0000034332277,2|0,0:0|0:0,0:0:0:0:
256,57,190897,1,0,0:0:0:0:
256,57,191064,1,0,0:0:0:0:
80,22,191397,1,0,0:0:0:0:
80,129,191730,1,2,0:0:0:0:
80,129,191897,1,0,0:0:0:0:
80,129,192064,1,0,0:0:0:0:
17,216,192397,2,0,P|30:261|60:290,1,90.0000034332277,8|0,0:0|0:0,0:0:0:0:
203,308,193064,6,0,P|248:321|277:351,1,90.0000034332277,4|0,0:0|0:0,0:0:0:0:
329,365,193564,1,0,0:0:0:0:
329,365,193730,1,8,0:0:0:0:
452,289,194064,1,0,0:0:0:0:
400,154,194397,2,0,P|370:125|357:80,1,90.0000034332277,2|0,0:0|0:0,0:0:0:0:
345,26,194897,1,0,0:0:0:0:
345,26,195064,1,8,0:0:0:0:
214,87,195397,1,0,0:0:0:0:
76,45,195730,6,0,P|46:74|33:119,1,90.0000034332277,2|0,0:0|0:0,0:0:0:0:
72,156,196230,2,0,P|59:201|29:230,1,90.0000034332277
135,353,196897,1,0,0:0:0:0:
175,317,197064,2,0,P|196:314|220:318,1,45.0000017166138,2|0,0:0|0:0,0:0:0:0:
259,354,197397,2,0,P|280:357|304:353,1,45.0000017166138
357,352,197730,1,8,0:0:0:0:
467,259,198064,1,0,0:0:0:0:
438,117,198397,6,0,P|425:72|395:43,1,90.0000034332277,4|0,0:0|0:0,0:0:0:0:
340,42,198897,2,0,P|311:72|266:85,1,90.0000034332277
126,130,199564,1,0,0:0:0:0:
91,171,199730,2,0,L|56:206,1,45.0000017166138,2|0,0:0|0:0,0:0:0:0:
69,256,200064,2,0,L|34:291,2,45.0000017166138,0|0|8,0:0|0:0|0:0,0:0:0:0:
256,192,201064,12,0,203730,0:0:0:0:
128,40,205730,6,0,P|167:85|177:148,1,120,2|0,0:0|0:0,0:0:0:0:
135,242,206230,6,0,P|118:264|88:279,2,60,0|4|0,0:0|0:0|0:0,0:0:0:0:
201,346,206730,2,0,P|218:324|248:309,1,60
441,322,207064,2,0,P|402:277|392:214,1,120,8|0,0:0|0:0,0:0:0:0:
288,187,207564,2,0,P|326:141|382:122,1,120,2|0,0:0|0:0,0:0:0:0:
490,121,208064,2,0,P|498:92|495:63,1,60
303,23,208397,2,0,P|246:42|208:87,1,120,8|0,0:0|0:0,0:0:0:0:
174,301,209064,6,0,P|135:346|79:365,1,120,2|0,0:0|0:0,0:0:0:0:
9,283,209564,2,0,P|47:237|103:218,1,120,0|0,0:0|0:0,0:0:0:0:
237,49,210230,1,0,0:0:0:0:
237,49,210397,2,0,P|268:60|296:61,1,60,2|0,0:0|0:0,0:0:0:0:
379,128,210730,2,0,P|404:106|418:82,1,60
480,220,211064,2,0,P|454:241|440:265,1,60,8|0,0:0|0:0,0:0:0:0:
380,353,211397,2,0,P|349:342|321:341,1,60
255,217,211730,5,4,0:0:0:0:
177,338,212064,1,0,0:0:0:0:
177,338,212230,1,0,0:0:0:0:
177,338,212397,1,8,0:0:0:0:
28,238,212730,1,2,0:0:0:0:
106,117,213064,1,0,0:0:0:0:
106,117,213230,1,0,0:0:0:0:
106,117,213397,1,0,0:0:0:0:
232,48,213730,2,0,P|284:76|344:82,1,120,8|0,0:0|0:0,0:0:0:0:
472,211,214397,6,0,P|455:238|451:268,1,60,4|0,0:0|0:0,0:0:0:0:
335,234,214730,2,0,P|333:265|345:293,1,60
226,316,215064,2,0,P|240:344|264:362,1,60,8|0,0:0|0:0,0:0:0:0:
361,383,215397,1,0,0:0:0:0:
473,209,215730,2,0,P|456:182|452:152,1,60,2|0,0:0|0:0,0:0:0:0:
338,112,216064,2,0,P|365:95|395:91,1,60
215,58,216397,2,0,P|242:42|270:37,1,60,8|0,0:0|0:0,0:0:0:0:
119,49,216730,1,0,0:0:0:0:
29,219,217064,6,0,P|83:242|124:286,1,120,4|0,0:0|0:0,0:0:0:0:
197,365,217564,2,0,P|219:341|226:312,1,60,0|8,0:0|0:0,0:0:0:0:
266,102,218064,1,0,0:0:0:0:
469,30,218397,1,2,0:0:0:0:
481,245,218730,1,0,0:0:0:0:
481,245,218897,1,0,0:0:0:0:
481,245,219064,2,0,P|466:303|421:342,1,120,8|0,0:0|0:0,0:0:0:0:
206,335,219730,6,0,P|147:331|96:361,1,120,2|0,0:0|0:0,0:0:0:0:
31,274,220230,2,0,P|35:215|5:164,1,120
31,59,220730,1,0,0:0:0:0:
243,18,221064,1,2,0:0:0:0:
186,144,221397,1,0,0:0:0:0:
398,103,221730,1,8,0:0:0:0:
460,309,222064,1,0,0:0:0:0:
460,309,222230,1,0,0:0:0:0:
460,309,222397,6,0,P|417:351|361:367,1,120,4|0,0:0|0:0,0:0:0:0:
151,367,223064,2,0,P|95:351|52:309,2,120,8|0|2,0:0|0:0|0:0,0:0:0:0:
361,367,224064,2,0,P|417:351|460:309,1,120,0|8,0:0|0:0,0:0:0:0:
485,94,224730,1,0,0:0:0:0:
280,23,225064,6,0,P|269:52|251:77,1,60,4|0,0:0|0:0,0:0:0:0:
80,184,225397,2,0,P|91:155|109:130,1,60
257,180,225730,2,0,P|246:209|228:234,1,60,8|0,0:0|0:0,0:0:0:0:
57,341,226064,2,0,P|68:312|86:287,1,60
254,307,226397,2,0,P|300:347|356:359,1,120,4|0,0:0|0:0,0:0:0:0:
462,335,226897,1,0,0:0:0:0:
434,230,227064,2,0,P|388:190|332:178,1,120,8|0,0:0|0:0,0:0:0:0:
331,177,227730,1,4,0:0:0:0:
