osu file format v12

[General]
AudioFilename: birthtvsize.mp3
AudioLeadIn: 2000
PreviewTime: 55115
Countdown: 0
SampleSet: Normal
StackLeniency: 0.7
Mode: 1
LetterboxInBreaks: 0
WidescreenStoryboard: 1

[Editor]
Bookmarks: 35622,35793,37165,37336,39050,40850,43586,44358,47101,48558,48729,51901,52586,59015,59786,62786,69986,78986
DistanceSpacing: 1
BeatDivisor: 4
GridSize: 8

[Metadata]
Title:Birth (TV Size)
TitleUnicode:Birth (TV Size)
Artist:Kitamura Eri
ArtistUnicode:喜多村 英梨
Creator:JUDYDANNY
Version:Inner Oni
Source:Kamisama no Inai Nichiyoubi
Tags:Lundlerol hibarirailwayz anime op Sunday Without God MADHOUSE かみさまのいないにちようび 神さまのいない日曜日 神不在的星期天
BeatmapID:301468
BeatmapSetID:105388

[Difficulty]
HPDrainRate:6
CircleSize:5
OverallDifficulty:5
ApproachRate:5
SliderMultiplier:1.4
SliderTickRate:1

[Events]
//Background and Video events
0,0,"qq.jpg",0,90
Video,0,"movie.avi"
//Break Periods
//Storyboard Layer 0 (Background)
//Storyboard Layer 1 (Fail)
//Storyboard Layer 2 (Pass)
//Storyboard Layer 3 (Foreground)
//Storyboard Sound Samples
//Background Colour Transformations
3,100,163,162,255

[TimingPoints]
2492,461.538461538462,4,1,0,40,1,0
10568,-100,4,1,0,75,0,0
10770,343.642611683849,4,1,0,75,1,0
13519,338.983050847458,4,1,0,75,1,0
16233,343.642611683849,4,1,0,75,1,0
19003,342.778793418647,4,1,0,75,1,0
21573,-100,4,1,0,40,0,0
21747,342.857142857143,4,1,0,40,1,0
32375,-100,4,1,0,75,0,0
40928,342.857142857143,4,1,0,75,1,0
42304,342.857142857143,4,1,0,75,1,0
43680,342.857142857143,4,1,0,75,1,0
53278,342.857142857143,4,1,0,75,1,0
56020,342.857142857143,4,1,0,75,1,1
66981,342.857142857143,4,1,0,75,1,1
72466,342.075256556442,4,1,0,75,1,1
73837,344.827586206897,4,1,0,75,1,1
74699,342.857142857143,4,1,0,75,1,1
75213,342.857142857143,4,1,0,75,1,1
79330,342.857142857143,4,1,0,75,1,1
80015,-100,4,1,0,75,0,0
80718,342.465753424658,4,1,0,75,1,0
83447,342.270393610953,4,1,0,75,1,0

[HitObjects]
240,136,2492,1,2,0:0:0:0:
240,136,4338,1,0,0:0:0:0:
240,136,5261,1,2,0:0:0:0:
240,136,6184,1,0,0:0:0:0:
240,136,6645,1,2,0:0:0:0:
240,136,7107,1,0,0:0:0:0:
256,192,7568,12,0,10107,0:0:0:0:
250,161,10770,5,4,0:0:0:0:
278,131,10941,1,2,0:0:0:0:
278,131,11027,1,2,0:0:0:0:
278,131,11113,1,0,0:0:0:0:
278,131,11285,1,2,0:0:0:0:
278,131,11457,1,0,0:0:0:0:
186,75,11543,1,0,0:0:0:0:
278,131,11629,1,0,0:0:0:0:
278,131,11800,1,2,0:0:0:0:
250,161,11972,1,0,0:0:0:0:
250,161,12058,1,2,0:0:0:0:
250,161,12144,1,0,0:0:0:0:
186,75,12316,1,2,0:0:0:0:
186,75,12402,1,0,0:0:0:0:
186,75,12488,1,2,0:0:0:0:
186,75,12660,1,2,0:0:0:0:
186,75,12831,1,0,0:0:0:0:
186,75,13003,1,2,0:0:0:0:
186,75,13089,1,2,0:0:0:0:
186,75,13175,1,2,0:0:0:0:
186,75,13347,1,2,0:0:0:0:
186,75,13519,1,0,0:0:0:0:
164,146,13688,1,2,0:0:0:0:
164,146,13773,1,2,0:0:0:0:
164,146,13857,1,0,0:0:0:0:
164,146,14027,1,2,0:0:0:0:
164,146,14196,1,0,0:0:0:0:
164,146,14281,1,0,0:0:0:0:
164,146,14366,1,0,0:0:0:0:
164,146,14535,1,2,0:0:0:0:
187,168,14705,1,0,0:0:0:0:
187,168,14790,1,2,0:0:0:0:
210,117,14874,1,0,0:0:0:0:
210,117,15044,1,0,0:0:0:0:
210,117,15129,1,0,0:0:0:0:
210,117,15213,1,2,0:0:0:0:
210,117,15298,1,0,0:0:0:0:
210,117,15383,1,2,0:0:0:0:
217,90,15468,1,2,0:0:0:0:
217,90,15552,1,0,0:0:0:0:
217,90,15722,1,0,0:0:0:0:
217,90,15891,1,2,0:0:0:0:
210,117,16230,1,4,0:0:0:0:
210,117,16404,1,0,0:0:0:0:
210,117,16576,1,2,0:0:0:0:
210,117,16748,1,4,0:0:0:0:
217,90,17092,1,2,0:0:0:0:
217,90,17178,1,2,0:0:0:0:
217,90,17263,1,0,0:0:0:0:
217,90,17435,1,2,0:0:0:0:
210,117,17607,1,4,0:0:0:0:
210,117,17779,1,2,0:0:0:0:
210,117,17951,1,0,0:0:0:0:
210,117,18123,1,6,0:0:0:0:
181,60,18466,1,2,0:0:0:0:
181,60,18552,1,2,0:0:0:0:
181,60,18638,1,2,0:0:0:0:
181,60,18810,1,2,0:0:0:0:
217,90,19003,1,0,0:0:0:0:
210,117,19688,1,2,0:0:0:0:
217,90,20374,1,2,0:0:0:0:
217,90,20459,1,0,0:0:0:0:
217,90,20545,1,0,0:0:0:0:
210,117,20631,1,0,0:0:0:0:
210,117,20716,1,2,0:0:0:0:
210,117,20802,1,0,0:0:0:0:
210,117,20888,1,0,0:0:0:0:
210,117,20973,1,0,0:0:0:0:
210,117,21059,1,2,0:0:0:0:
210,117,21231,1,6,0:0:0:0:
217,90,21747,1,6,0:0:0:0:
217,90,22089,1,2,0:0:0:0:
217,90,22261,1,0,0:0:0:0:
217,90,22604,1,2,0:0:0:0:
217,90,23118,1,0,0:0:0:0:
217,90,23804,1,2,0:0:0:0:
217,90,24489,1,0,0:0:0:0:
217,90,24832,1,2,0:0:0:0:
217,90,25004,1,0,0:0:0:0:
217,90,25347,1,0,0:0:0:0:
217,90,25518,1,2,0:0:0:0:
217,90,25689,1,2,0:0:0:0:
217,90,26032,1,2,0:0:0:0:
217,90,26204,1,2,0:0:0:0:
217,90,26375,1,0,0:0:0:0:
217,90,26547,1,2,0:0:0:0:
217,90,26718,1,0,0:0:0:0:
217,90,26889,1,0,0:0:0:0:
217,90,27061,1,2,0:0:0:0:
217,90,27232,1,0,0:0:0:0:
217,90,27575,1,2,0:0:0:0:
217,90,27747,1,2,0:0:0:0:
217,90,27918,1,0,0:0:0:0:
217,90,28261,1,2,0:0:0:0:
217,90,28604,1,0,0:0:0:0:
217,90,28947,1,2,0:0:0:0:
217,90,29118,1,2,0:0:0:0:
217,90,29289,1,0,0:0:0:0:
217,90,29461,1,2,0:0:0:0:
217,90,29632,1,2,0:0:0:0:
217,90,29804,1,2,0:0:0:0:
217,90,29975,1,0,0:0:0:0:
160,144,30147,1,0,0:0:0:0:
217,90,30318,1,0,0:0:0:0:
217,90,30489,1,2,0:0:0:0:
217,90,30832,1,2,0:0:0:0:
217,90,31175,1,6,0:0:0:0:
186,119,32718,5,4,0:0:0:0:
220,147,32889,1,2,0:0:0:0:
220,147,33061,1,0,0:0:0:0:
220,147,33232,5,2,0:0:0:0:
220,147,33318,1,0,0:0:0:0:
220,147,33404,1,0,0:0:0:0:
214,176,33575,5,0,0:0:0:0:
214,176,33661,1,0,0:0:0:0:
214,176,33747,1,2,0:0:0:0:
214,176,33918,1,0,0:0:0:0:
157,193,34089,5,0,0:0:0:0:
186,119,34175,1,0,0:0:0:0:
186,119,34261,1,2,0:0:0:0:
186,119,34432,1,0,0:0:0:0:
186,119,34604,5,0,0:0:0:0:
186,119,34689,1,2,0:0:0:0:
186,119,34775,1,0,0:0:0:0:
186,119,34861,1,0,0:0:0:0:
186,119,34947,1,0,0:0:0:0:
186,119,35118,1,2,0:0:0:0:
214,176,35289,1,0,0:0:0:0:
214,176,35375,1,0,0:0:0:0:
214,176,35461,5,2,0:0:0:0:
214,176,35632,1,2,0:0:0:0:
186,119,35804,1,0,0:0:0:0:
186,119,35975,1,2,0:0:0:0:
186,119,36061,1,2,0:0:0:0:
186,119,36147,1,0,0:0:0:0:
186,119,36318,1,2,0:0:0:0:
512,24,36489,1,0,0:0:0:0:
166,75,36661,1,2,0:0:0:0:
288,248,36747,1,2,0:0:0:0:
166,75,36832,1,0,0:0:0:0:
166,75,36918,1,0,0:0:0:0:
166,75,37004,1,2,0:0:0:0:
512,24,37175,5,0,0:0:0:0:
77,132,37347,5,2,0:0:0:0:
77,132,37518,5,0,0:0:0:0:
77,132,37604,1,2,0:0:0:0:
77,132,37689,1,2,0:0:0:0:
196,149,37775,1,0,0:0:0:0:
166,75,37861,1,2,0:0:0:0:
77,132,38204,1,0,0:0:0:0:
179,192,38289,1,0,0:0:0:0:
196,78,38375,1,0,0:0:0:0:
172,126,38547,1,2,0:0:0:0:
172,126,38718,1,0,0:0:0:0:
172,126,38889,1,0,0:0:0:0:
196,149,38975,1,0,0:0:0:0:
196,149,39061,1,2,0:0:0:0:
172,126,39147,1,0,0:0:0:0:
172,126,39232,1,2,0:0:0:0:
172,126,39404,1,2,0:0:0:0:
172,126,39575,1,2,0:0:0:0:
196,78,39661,1,0,0:0:0:0:
172,126,39747,1,2,0:0:0:0:
172,126,39832,1,2,0:0:0:0:
172,126,39918,1,0,0:0:0:0:
172,126,40089,1,2,0:0:0:0:
172,126,40261,1,0,0:0:0:0:
172,126,40347,1,2,0:0:0:0:
172,126,40432,1,0,0:0:0:0:
172,126,40604,1,2,0:0:0:0:
160,64,40775,1,0,0:0:0:0:
96,200,40861,1,0,0:0:0:0:
172,126,40928,1,2,0:0:0:0:
184,48,41099,1,0,0:0:0:0:
152,64,41185,1,0,0:0:0:0:
172,126,41270,1,2,0:0:0:0:
172,126,41442,1,6,0:0:0:0:
172,126,41785,1,6,0:0:0:0:
172,126,42128,1,4,0:0:0:0:
172,126,42475,1,0,0:0:0:0:
172,126,42561,1,0,0:0:0:0:
172,126,42646,1,2,0:0:0:0:
199,149,42989,1,0,0:0:0:0:
199,149,43161,1,2,0:0:0:0:
199,149,43246,1,2,0:0:0:0:
199,149,43332,1,2,0:0:0:0:
199,149,43418,1,0,0:0:0:0:
199,149,43504,1,0,0:0:0:0:
199,149,43680,1,6,0:0:0:0:
197,102,44022,1,0,0:0:0:0:
197,102,44365,1,0,0:0:0:0:
197,102,44708,1,2,0:0:0:0:
197,102,45051,1,0,0:0:0:0:
197,102,45222,1,0,0:0:0:0:
197,102,45308,1,0,0:0:0:0:
197,102,45394,1,2,0:0:0:0:
197,102,45565,1,2,0:0:0:0:
197,102,45737,1,0,0:0:0:0:
166,18,45822,1,0,0:0:0:0:
197,102,45908,1,2,0:0:0:0:
177,55,45994,1,2,0:0:0:0:
197,102,46080,1,0,0:0:0:0:
197,102,46251,1,0,0:0:0:0:
197,102,46422,1,4,0:0:0:0:
197,102,46765,1,0,0:0:0:0:
197,102,47108,1,2,0:0:0:0:
197,102,47451,1,2,0:0:0:0:
197,102,47794,1,0,0:0:0:0:
197,102,47965,1,2,0:0:0:0:
197,102,48051,1,2,0:0:0:0:
197,102,48137,1,0,0:0:0:0:
196,148,48222,1,0,0:0:0:0:
196,148,48308,1,2,0:0:0:0:
196,148,48394,1,0,0:0:0:0:
196,148,48480,1,2,0:0:0:0:
196,148,48651,1,0,0:0:0:0:
196,148,48822,1,2,0:0:0:0:
196,148,48908,1,0,0:0:0:0:
196,148,48994,1,2,0:0:0:0:
196,148,49080,1,2,0:0:0:0:
196,148,49165,1,0,0:0:0:0:
199,175,49337,1,0,0:0:0:0:
199,175,49508,1,2,0:0:0:0:
199,175,49680,1,4,0:0:0:0:
136,131,50022,1,0,0:0:0:0:
136,131,50194,1,2,0:0:0:0:
136,131,50365,1,0,0:0:0:0:
136,131,50451,1,0,0:0:0:0:
136,131,50537,1,2,0:0:0:0:
126,173,50708,1,0,0:0:0:0:
126,173,50880,1,0,0:0:0:0:
126,173,51051,1,6,0:0:0:0:
126,173,51394,1,2,0:0:0:0:
126,173,51565,1,0,0:0:0:0:
126,173,51737,5,2,0:0:0:0:
126,173,51822,1,0,0:0:0:0:
126,173,51908,5,0,0:0:0:0:
126,173,51994,1,0,0:0:0:0:
126,173,52165,1,2,0:0:0:0:
181,53,52251,1,2,0:0:0:0:
126,173,52422,5,2,0:0:0:0:
126,173,52508,1,2,0:0:0:0:
126,173,52594,5,0,0:0:0:0:
126,173,52680,1,2,0:0:0:0:
126,173,52851,1,2,0:0:0:0:
213,94,52937,1,0,0:0:0:0:
126,173,53108,5,2,0:0:0:0:
126,173,53278,5,0,0:0:0:0:
181,53,53449,1,2,0:0:0:0:
181,53,53535,1,2,0:0:0:0:
181,53,53620,1,2,0:0:0:0:
181,53,53706,1,2,0:0:0:0:
181,53,53792,1,0,0:0:0:0:
181,53,53878,1,0,0:0:0:0:
181,53,53963,1,2,0:0:0:0:
277,101,54192,1,4,0:0:0:0:
277,101,54420,1,4,0:0:0:0:
277,101,54649,1,6,0:0:0:0:
190,107,55335,5,2,0:0:0:0:
190,107,55420,1,2,0:0:0:0:
190,107,55506,1,2,0:0:0:0:
190,107,55592,1,2,0:0:0:0:
190,107,55678,1,2,0:0:0:0:
190,107,55763,1,2,0:0:0:0:
190,107,55849,1,2,0:0:0:0:
190,107,56020,5,4,0:0:0:0:
223,145,56191,1,0,0:0:0:0:
223,145,56277,1,0,0:0:0:0:
223,145,56362,1,2,0:0:0:0:
223,145,56534,1,0,0:0:0:0:
223,145,56705,1,2,0:0:0:0:
173,4,56791,1,2,0:0:0:0:
223,145,56877,1,0,0:0:0:0:
200,72,56962,1,0,0:0:0:0:
223,145,57048,1,2,0:0:0:0:
149,34,57134,1,2,0:0:0:0:
223,145,57220,1,0,0:0:0:0:
223,145,57391,5,2,0:0:0:0:
156,67,57562,1,0,0:0:0:0:
156,67,57648,1,0,0:0:0:0:
156,67,57734,1,2,0:0:0:0:
156,67,57905,1,0,0:0:0:0:
156,67,57991,1,2,0:0:0:0:
200,72,58077,1,0,0:0:0:0:
156,67,58162,1,0,0:0:0:0:
149,34,58248,1,0,0:0:0:0:
156,67,58420,1,2,0:0:0:0:
149,34,58591,1,0,0:0:0:0:
176,34,58762,5,0,0:0:0:0:
223,145,58848,1,0,0:0:0:0:
223,145,58934,1,0,0:0:0:0:
240,176,59020,1,0,0:0:0:0:
226,175,59105,1,2,0:0:0:0:
208,116,59277,1,2,0:0:0:0:
208,116,59362,1,2,0:0:0:0:
208,116,59448,1,0,0:0:0:0:
208,116,59620,1,2,0:0:0:0:
208,116,59791,5,0,0:0:0:0:
165,179,59962,5,0,0:0:0:0:
165,179,60048,1,0,0:0:0:0:
165,179,60134,5,2,0:0:0:0:
214,209,60305,1,0,0:0:0:0:
214,209,60477,1,2,0:0:0:0:
220,142,60648,1,2,0:0:0:0:
220,142,60734,1,2,0:0:0:0:
220,142,60820,1,0,0:0:0:0:
200,112,60905,1,2,0:0:0:0:
214,209,60991,1,0,0:0:0:0:
214,209,61162,1,2,0:0:0:0:
214,209,61334,1,0,0:0:0:0:
214,209,61505,1,2,0:0:0:0:
180,80,61591,1,2,0:0:0:0:
214,209,61677,1,0,0:0:0:0:
180,80,61848,1,2,0:0:0:0:
214,209,62020,1,4,0:0:0:0:
152,62,62362,1,0,0:0:0:0:
152,62,62534,1,2,0:0:0:0:
200,104,62705,1,0,0:0:0:0:
200,104,62791,1,2,0:0:0:0:
200,104,62877,1,0,0:0:0:0:
177,115,63048,1,2,0:0:0:0:
180,80,63134,1,2,0:0:0:0:
180,80,63220,1,0,0:0:0:0:
180,80,63391,1,6,0:0:0:0:
177,115,63734,5,0,0:0:0:0:
177,115,63820,1,0,0:0:0:0:
177,115,63905,1,2,0:0:0:0:
177,115,64248,5,0,0:0:0:0:
191,153,64420,1,0,0:0:0:0:
199,192,64591,1,2,0:0:0:0:
199,192,64762,1,0,0:0:0:0:
199,192,64848,1,0,0:0:0:0:
199,192,64934,5,2,0:0:0:0:
257,204,65105,1,0,0:0:0:0:
257,204,65191,5,2,0:0:0:0:
191,153,65362,1,2,0:0:0:0:
199,192,65448,5,0,0:0:0:0:
199,192,65620,5,6,0:0:0:0:
184,128,65791,1,0,0:0:0:0:
108,173,65962,1,2,0:0:0:0:
191,153,66134,1,0,0:0:0:0:
191,153,66220,1,0,0:0:0:0:
191,153,66305,1,2,0:0:0:0:
177,115,66391,1,2,0:0:0:0:
177,115,66477,1,2,0:0:0:0:
366,287,66562,1,2,0:0:0:0:
177,115,66648,1,2,0:0:0:0:
177,115,66820,1,0,0:0:0:0:
177,115,66981,1,6,0:0:0:0:
177,115,67152,1,0,0:0:0:0:
177,115,67238,1,0,0:0:0:0:
177,115,67323,1,2,0:0:0:0:
177,115,67495,1,0,0:0:0:0:
191,153,67581,1,0,0:0:0:0:
177,115,67666,1,2,0:0:0:0:
191,153,67838,1,0,0:0:0:0:
177,115,68009,1,2,0:0:0:0:
191,153,68181,1,0,0:0:0:0:
191,153,68266,1,0,0:0:0:0:
191,153,68352,1,2,0:0:0:0:
157,95,68438,1,2,0:0:0:0:
191,153,68523,1,0,0:0:0:0:
177,115,68695,1,2,0:0:0:0:
177,115,68866,1,0,0:0:0:0:
177,115,69038,1,2,0:0:0:0:
191,153,69209,1,0,0:0:0:0:
168,64,69295,1,0,0:0:0:0:
191,153,69381,1,2,0:0:0:0:
191,153,69552,1,2,0:0:0:0:
177,115,69723,5,0,0:0:0:0:
152,143,69809,1,0,0:0:0:0:
152,143,69895,1,0,0:0:0:0:
191,153,69981,1,0,0:0:0:0:
152,143,70066,1,2,0:0:0:0:
152,143,70238,1,0,0:0:0:0:
152,143,70323,1,2,0:0:0:0:
152,143,70409,1,0,0:0:0:0:
152,143,70581,1,0,0:0:0:0:
177,115,70666,1,0,0:0:0:0:
152,143,70752,1,2,0:0:0:0:
177,115,70923,1,2,0:0:0:0:
177,115,71095,1,0,0:0:0:0:
146,82,71181,1,0,0:0:0:0:
177,115,71266,1,2,0:0:0:0:
152,143,71352,1,2,0:0:0:0:
152,143,71438,1,2,0:0:0:0:
152,143,71523,1,2,0:0:0:0:
152,143,71609,1,0,0:0:0:0:
152,143,71695,1,0,0:0:0:0:
152,143,71781,1,2,0:0:0:0:
152,143,71866,1,2,0:0:0:0:
152,143,71952,1,0,0:0:0:0:
152,143,72038,1,0,0:0:0:0:
152,143,72123,1,2,0:0:0:0:
152,143,72295,1,2,0:0:0:0:
152,143,72466,1,4,0:0:0:0:
152,143,72637,1,0,0:0:0:0:
152,143,72808,1,2,0:0:0:0:
152,143,72979,1,4,0:0:0:0:
152,143,73321,1,0,0:0:0:0:
152,143,73492,1,2,0:0:0:0:
152,143,73577,1,2,0:0:0:0:
152,143,73663,1,0,0:0:0:0:
152,143,73837,1,6,0:0:0:0:
152,143,74009,1,0,0:0:0:0:
152,143,74181,1,2,0:0:0:0:
152,143,74354,1,4,0:0:0:0:
143,184,74699,1,0,0:0:0:0:
143,184,74870,1,2,0:0:0:0:
143,184,74956,1,0,0:0:0:0:
143,184,75041,1,0,0:0:0:0:
143,184,75127,1,2,0:0:0:0:
143,184,75213,1,0,0:0:0:0:
177,196,75384,5,0,0:0:0:0:
177,196,75555,5,2,0:0:0:0:
177,196,75641,1,2,0:0:0:0:
177,196,75727,1,2,0:0:0:0:
177,196,75813,1,2,0:0:0:0:
177,196,75898,1,0,0:0:0:0:
177,196,76070,5,0,0:0:0:0:
177,196,76241,5,2,0:0:0:0:
177,196,76327,1,2,0:0:0:0:
177,196,76413,1,0,0:0:0:0:
177,196,76498,1,2,0:0:0:0:
177,196,76584,1,0,0:0:0:0:
177,196,76755,5,0,0:0:0:0:
177,196,76927,5,2,0:0:0:0:
168,160,77013,1,0,0:0:0:0:
177,196,77098,1,2,0:0:0:0:
177,196,77270,1,0,0:0:0:0:
177,196,77441,5,2,0:0:0:0:
177,196,77527,1,2,0:0:0:0:
177,196,77613,1,2,0:0:0:0:
177,196,77698,1,0,0:0:0:0:
177,196,77784,1,0,0:0:0:0:
177,196,77955,5,4,0:0:0:0:
177,196,78470,1,0,0:0:0:0:
177,196,78555,1,0,0:0:0:0:
177,196,78641,1,2,0:0:0:0:
177,196,78813,1,0,0:0:0:0:
168,48,79155,1,0,0:0:0:0:
215,117,79327,1,6,0:0:0:0:
215,117,79558,1,4,0:0:0:0:
215,117,79787,1,4,0:0:0:0:
215,117,80015,1,4,0:0:0:0:
215,117,80718,5,0,0:0:0:0:
215,117,80803,1,0,0:0:0:0:
206,93,80889,1,0,0:0:0:0:
206,93,81060,1,2,0:0:0:0:
215,117,81231,1,0,0:0:0:0:
173,89,81317,1,0,0:0:0:0:
173,89,81402,1,2,0:0:0:0:
173,89,81574,1,0,0:0:0:0:
173,89,81745,1,2,0:0:0:0:
163,123,81916,1,2,0:0:0:0:
163,123,82002,1,0,0:0:0:0:
163,123,82087,1,0,0:0:0:0:
163,123,82259,1,0,0:0:0:0:
187,133,82430,1,2,0:0:0:0:
187,133,82601,1,0,0:0:0:0:
163,123,82687,1,2,0:0:0:0:
163,123,82772,1,2,0:0:0:0:
163,123,82944,1,0,0:0:0:0:
163,123,83029,1,0,0:0:0:0:
163,123,83115,1,2,0:0:0:0:
163,123,83286,1,0,0:0:0:0:
163,123,83447,1,0,0:0:0:0:
163,123,83532,1,0,0:0:0:0:
163,123,83618,1,0,0:0:0:0:
163,123,83703,1,0,0:0:0:0:
155,58,83789,1,2,0:0:0:0:
125,71,83960,1,2,0:0:0:0:
125,71,84131,1,0,0:0:0:0:
125,71,84302,1,0,0:0:0:0:
125,71,84388,1,2,0:0:0:0:
192,216,84473,1,2,0:0:0:0:
125,71,84559,1,0,0:0:0:0:
125,71,84644,1,2,0:0:0:0:
125,71,84816,1,2,0:0:0:0:
125,71,84987,1,0,0:0:0:0:
144,96,85072,1,0,0:0:0:0:
125,71,85158,1,2,0:0:0:0:
125,71,85329,1,0,0:0:0:0:
125,71,85500,1,2,0:0:0:0:
125,71,85586,1,2,0:0:0:0:
125,71,85671,1,2,0:0:0:0:
125,71,85757,1,0,0:0:0:0:
125,71,85842,1,0,0:0:0:0:
125,71,86014,1,6,0:0:0:0:
