osu file format v12

[General]
AudioFilename: Birth.mp3
AudioLeadIn: 1000
PreviewTime: 54077
Countdown: 0
SampleSet: Soft
StackLeniency: 0.7
Mode: 0
LetterboxInBreaks: 0

[Editor]
DistanceSpacing: 1
BeatDivisor: 4
GridSize: 4

[Metadata]
Title:Birth (TV Size)
TitleUnicode:Birth (TV Size)
Artist:Kitamura Eri
ArtistUnicode:喜多村英梨
Creator:Amamiya Yuko
Version:Normal
Source:Kamisama no Inai Nichiyoubi
Tags:神さまのいない日曜日 Opening No_Gu Skystar Sunday Without God
BeatmapID:275563
BeatmapSetID:104877

[Difficulty]
HPDrainRate:4
CircleSize:3
OverallDifficulty:4
ApproachRate:5
SliderMultiplier:1
SliderTickRate:1

[Events]
//Background and Video events
0,0,"1.jpg",0,0
Video,0,"video.avi"
//Break Periods
//Storyboard Layer 0 (Background)
//Storyboard Layer 1 (Fail)
//Storyboard Layer 2 (Pass)
//Storyboard Layer 3 (Foreground)
//Storyboard Sound Samples
//Background Colour Transformations
3,100,163,162,255

[TimingPoints]
1426,461.538461538462,4,2,1,50,1,0
6502,794.701986754967,4,2,1,50,1,0
8886,-100,4,2,1,5,0,0
9680,341.782967815437,4,2,1,60,1,0
16515,351.802990325418,4,2,1,60,1,0
17922,342.857142857143,4,2,1,30,1,0
18248,-100,4,2,1,40,0,0
18591,-100,4,2,1,50,0,0
18934,-100,4,2,1,60,0,0
19277,-100,4,1,1,40,0,0
19619,-100,4,1,1,5,0,0
19963,-100,4,1,1,50,0,0
20648,-100,4,2,1,40,0,0
30093,769.230769230769,4,2,1,40,1,0
31439,368.098159509202,4,2,1,40,1,0
31623,342.857142857143,4,2,1,60,1,0
42077,-100,4,1,1,50,0,0
42591,-100,4,2,1,50,0,0
46705,-100,4,1,1,40,0,0
47391,-100,4,1,1,50,0,0
48077,-100,4,2,1,60,0,0
53563,-100,4,2,0,60,0,0
54937,-100,4,2,3,80,0,1
55105,-100,4,2,2,60,0,1
63848,-100,4,2,2,70,0,1
65222,-100,4,1,1,50,0,0
65908,-100,4,2,3,80,0,1
66077,-100,4,2,2,60,0,1
76877,-100,4,2,2,50,0,1
78937,346.820809248555,4,2,2,60,1,1
79630,342.857142857143,4,2,1,50,1,0
83734,-100,4,2,1,60,0,0
84419,-100,4,1,1,50,0,0
84934,-100,4,2,1,60,0,0
87505,-100,4,2,1,5,0,0

[Colours]
Combo1 : 192,192,192
Combo2 : 158,62,255
Combo3 : 154,154,205
Combo4 : 206,176,238

[HitObjects]
376,56,1426,2,0,P|288:104|192:80,2,200,2|0|2,0:0|0:0|0:0,0:0:0:0:
456,240,4195,2,0,B|412:264|412:264|360:256,1,100,0|2,0:0|0:0,0:0:0:0:
264,236,5118,5,0,0:0:0:0:
168,256,5579,1,2,0:0:0:0:
188,352,6041,1,0,0:0:0:0:
284,332,6502,1,2,0:0:0:0:
256,192,6601,12,0,8985,0:0:0:0:
180,64,9680,5,4,0:0:0:0:
108,132,10021,2,0,P|88:176|96:228,1,100,8|4,0:0|0:0,0:0:0:0:
168,292,10705,1,8,0:0:0:0:
268,292,11047,2,0,L|372:272,1,100,4|8,0:0|0:0,0:0:0:0:
372,172,11730,2,0,L|273:190,1,100,4|8,0:0|0:0,0:0:0:0:
216,108,12414,5,4,0:0:0:0:
276,28,12756,2,0,P|328:16|392:32,1,100,8|4,0:0|0:0,0:0:0:0:
464,68,13439,1,8,0:0:0:0:
448,160,13781,2,0,P|436:204|448:256,1,100,4|8,0:0|0:0,0:0:0:0:
368,316,14464,2,0,P|324:304|272:316,1,100,4|8,0:0|0:0,0:0:0:0:
172,324,15148,6,0,P|124:308|96:264,1,100,4|8,0:0|0:0,0:0:0:0:
92,220,15661,2,0,P|95:169|130:131,1,100,4|4,0:0|0:0,0:0:0:0:
176,128,16173,1,8,0:0:0:0:
248,196,16515,6,0,P|296:212|344:200,1,100,4|8,0:0|0:0,0:0:0:0:
392,192,17042,2,4,P|419:149|420:100,1,100
404,44,17570,2,0,L|288:28,1,100,8|0,0:0|0:0,0:0:0:0:
204,60,18264,6,0,L|88:44,2,100
288,116,19293,2,0,P|308:208|228:288,1,200
192,280,20150,1,0,0:0:0:0:
80,180,20664,6,0,P|68:128|88:88,1,100,2|0,0:0|0:0,0:0:0:0:
128,60,21179,2,0,L|232:56,1,100,2|2,0:0|0:0,0:0:0:0:
376,48,22036,2,0,P|440:128|432:236,2,200,2|2|2,0:0|0:0|0:0,0:0:0:0:
276,52,23750,5,0,0:0:0:0:
276,52,23922,2,0,P|256:100|268:164,2,100,2|0|2,0:0|0:0|0:0,0:0:0:0:
176,40,24950,1,2,0:0:0:0:
176,40,25122,2,0,P|124:48|68:28,1,100,2|2,0:0|0:0,0:0:0:0:
16,112,25807,1,2,0:0:0:0:
64,200,26150,6,0,L|168:216,1,100,2|0,0:0|0:0,0:0:0:0:
260,236,26836,1,2,0:0:0:0:
396,88,27522,2,0,L|292:104,1,100,2|0,0:0|0:0,0:0:0:0:
200,124,28207,1,2,0:0:0:0:
224,324,28893,6,0,L|264:232,1,100,2|0,0:0|0:0,0:0:0:0:
300,196,29407,2,0,P|352:212|408:200,2,100,2|2|2,0:0|0:0|0:0,0:0:0:0:
440,56,31623,6,0,B|448:108|448:108|480:160,1,100,4|8,0:0|0:0,0:0:0:0:
452,248,32308,1,4,0:0:0:0:
384,320,32651,1,8,0:0:0:0:
284,304,32994,2,0,B|240:280|240:280|220:232,2,100,4|8|4,0:0|0:0|0:0,0:0:0:0:
316,208,34023,1,8,0:0:0:0:
268,120,34365,6,0,B|260:76|260:76|276:16,1,100,4|8,0:0|0:0,0:0:0:0:
376,20,35051,1,4,0:0:0:0:
432,104,35394,1,8,0:0:0:0:
464,200,35737,2,0,B|448:248|448:248|464:312,1,100,4|8,0:0|0:0,0:0:0:0:
376,352,36423,2,0,B|328:336|328:336|264:352,1,100,4|8,0:0|0:0,0:0:0:0:
180,360,37108,5,4,0:0:0:0:
84,340,37451,1,8,0:0:0:0:
104,244,37794,1,4,0:0:0:0:
200,264,38137,1,8,0:0:0:0:
276,200,38480,2,0,B|300:156|300:156|288:104,2,100,4|8|4,0:0|0:0|0:0,0:0:0:0:
364,244,39508,1,8,0:0:0:0:
436,312,39851,6,0,B|392:336|392:336|336:336,1,100,4|8,0:0|0:0,0:0:0:0:
296,316,40365,2,0,B|246:316|246:316|202:340,1,100,4|4,0:0|0:0,0:0:0:0:
156,364,40880,1,8,0:0:0:0:
156,364,41051,2,0,B|108:352|108:352|88:300,1,100,4|4,0:0|0:0,0:0:0:0:
96,256,41565,2,0,L|84:152,2,100,8|4|0,0:0|0:0|0:0,0:0:0:0:
196,268,42594,5,4,0:0:0:0:
296,280,42937,1,4,0:0:0:0:
396,292,43280,1,4,0:0:0:0:
496,304,43623,1,4,0:0:0:0:
488,204,43965,2,4,L|480:104,1,100
384,72,44651,2,4,L|392:172,1,100
340,256,45337,5,4,0:0:0:0:
240,244,45680,1,4,0:0:0:0:
140,232,46023,1,4,0:0:0:0:
40,220,46365,1,4,0:0:0:0:
48,120,46708,2,0,B|60:72|60:72|104:40,1,100
200,56,47394,2,0,B|188:104|188:104|144:136,1,100
112,228,48080,6,0,L|136:336,1,100,4|8,0:0|0:0,0:0:0:0:
180,344,48594,2,4,P|232:328|288:336,1,100
328,340,49108,1,8,0:0:0:0:
420,304,49451,2,0,P|456:272|460:216,1,100,4|8,0:0|0:0,0:0:0:0:
440,176,49965,2,4,L|460:68,1,100
468,28,50480,1,8,0:0:0:0:
372,52,50823,6,0,P|296:80|232:52,1,150,4|4,0:0|0:0,0:0:0:0:
188,40,51508,2,4,P|220:112|196:180,1,150
256,192,52194,12,4,53565,0:0:0:0:
104,208,54937,6,0,P|156:216|204:204,1,100,4|8,0:0|0:0,0:0:0:0:
276,140,55623,2,0,P|328:132|373:142,1,100,4|8,0:0|0:0,0:0:0:0:
432,224,56308,1,4,0:0:0:0:
476,136,56651,2,0,L|464:36,2,100,8|4|8,0:0|0:0|0:0,0:0:0:0:
432,224,57680,5,4,0:0:0:0:
332,244,58023,1,8,0:0:0:0:
236,216,58365,1,4,0:0:0:0:
136,236,58708,1,8,0:0:0:0:
84,320,59051,2,0,P|136:332|192:316,1,100,4|8,0:0|0:0,0:0:0:0:
280,316,59737,2,0,L|340:328,2,50,4|4|8,0:0|0:0|0:0,0:0:0:0:
260,216,60423,6,0,L|256:112,1,100,4|8,0:0|0:0,0:0:0:0:
272,68,60937,2,4,P|320:44|376:48,1,100
412,60,61451,1,8,0:0:0:0:
496,116,61794,2,0,P|496:168|468:208,1,100,4|8,0:0|0:0,0:0:0:0:
420,212,62308,2,4,L|408:320,1,100
396,360,62823,1,8,0:0:0:0:
304,324,63165,6,0,P|256:312|200:328,1,100,4|8,0:0|0:0,0:0:0:0:
108,340,63851,2,4,P|68:352|32:348,2,75
124,292,64537,2,0,B|104:224|152:164|152:164|179:191|208:200,2,200,4|0|4,0:0|0:0|0:0,0:0:0:0:
216,332,66251,5,8,0:0:0:0:
308,292,66594,2,0,L|412:304,1,100,4|8,0:0|0:0,0:0:0:0:
460,216,67280,1,4,0:0:0:0:
396,140,67623,2,0,L|296:128,2,100,8|4|8,0:0|0:0|0:0,0:0:0:0:
460,216,68651,5,4,0:0:0:0:
380,276,68994,1,8,0:0:0:0:
280,268,69337,1,4,0:0:0:0:
200,328,69680,1,8,0:0:0:0:
100,320,70023,2,0,P|52:324|4:360,1,100,4|8,0:0|0:0,0:0:0:0:
4,252,70708,2,0,L|20:188,2,50,4|4|8,0:0|0:0|0:0,0:0:0:0:
100,276,71394,6,0,P|160:272|196:252,1,100,4|8,0:0|0:0,0:0:0:0:
228,216,71908,2,4,P|288:220|322:238,1,100
360,268,72423,1,8,0:0:0:0:
448,320,72765,2,0,L|456:220,1,100,4|8,0:0|0:0,0:0:0:0:
420,184,73280,2,4,L|412:84,1,100
420,36,73794,1,8,0:0:0:0:
332,80,74137,5,4,0:0:0:0:
232,96,74480,1,8,0:0:0:0:
132,84,74823,1,4,0:0:0:0:
44,36,75165,1,8,0:0:0:0:
16,132,75508,6,0,L|28:192,1,50,4|4,0:0|0:0,0:0:0:0:
40,228,75851,2,0,P|56:276|104:304,1,100,8|4,0:0|0:0,0:0:0:0:
148,308,76365,2,0,L|260:296,1,100,8|4,0:0|0:0,0:0:0:0:
296,292,76880,6,0,P|340:276|376:232,1,100,4|0,0:0|0:0,0:0:0:0:
388,136,77565,2,0,L|292:104,1,100,8|0,0:0|0:0,0:0:0:0:
200,72,78251,2,0,L|124:80,3,66.6666666666667,8|8|8|4,0:0|0:0|0:0|0:0,0:0:0:0:
48,260,79630,6,0,P|88:284|156:280,1,100,4|8,0:0|0:0,0:0:0:0:
188,276,80144,1,4,0:0:0:0:
276,228,80487,1,4,0:0:0:0:
276,228,80658,2,0,L|384:248,1,100,8|4,0:0|0:0,0:0:0:0:
416,156,81344,1,8,0:0:0:0:
416,156,81515,2,4,L|317:137,1,100
268,128,82030,1,8,0:0:0:0:
172,152,82372,6,0,P|124:164|72:152,1,100,4|8,0:0|0:0,0:0:0:0:
32,128,82887,2,4,L|48:232,1,100
56,276,83401,1,8,0:0:0:0:
140,328,83744,2,0,P|192:336|244:316,1,100,4|8,0:0|0:0,0:0:0:0:
276,292,84258,1,4,0:0:0:0:
316,264,84430,2,0,P|368:252|420:264,1,100
448,296,84944,1,2,0:0:0:0:
256,192,85115,12,0,87515,0:0:0:0:
