osu file format v12

[General]
AudioFilename: Birth.mp3
AudioLeadIn: 1000
PreviewTime: 54077
Countdown: 0
SampleSet: Soft
StackLeniency: 0.3
Mode: 0
LetterboxInBreaks: 0

[Editor]
DistanceSpacing: 0.6
BeatDivisor: 4
GridSize: 4

[Metadata]
Title:Birth (TV Size)
TitleUnicode:Birth (TV Size)
Artist:Kitamura Eri
ArtistUnicode:喜多村英梨
Creator:Amamiya Yuko
Version:Insane
Source:Kamisama no Inai Nichiyoubi
Tags:神さまのいない日曜日 Opening No_Gu Skystar Sunday Without God
BeatmapID:275562
BeatmapSetID:104877

[Difficulty]
HPDrainRate:6
CircleSize:4
OverallDifficulty:8
ApproachRate:9
SliderMultiplier:1.6
SliderTickRate:1

[Events]
//Background and Video events
0,0,"1.jpg",0,0
Video,0,"video.avi"
//Break Periods
//Storyboard Layer 0 (Background)
//Storyboard Layer 1 (Fail)
//Storyboard Layer 2 (Pass)
//Storyboard Layer 3 (Foreground)
//Storyboard Sound Samples
//Background Colour Transformations
3,100,163,162,255

[TimingPoints]
1426,461.538461538462,4,2,1,50,1,0
1426,-200,4,2,1,50,0,0
1887,-200,4,2,1,5,0,0
2195,-200,4,2,1,30,0,0
2349,-200,4,2,1,50,0,0
2810,-200,4,2,1,5,0,0
3272,-200,4,2,1,50,0,0
6502,794.701986754967,4,2,1,50,1,0
8985,-200,4,2,1,5,0,0
9680,341.782967815437,4,2,1,60,1,0
16515,351.802990325418,4,2,1,60,1,0
17922,342.857142857143,4,2,1,30,1,0
18248,-100,4,2,1,40,0,0
18591,-100,4,2,1,50,0,0
18934,-100,4,2,1,60,0,0
19277,-100,4,1,1,40,0,0
19619,-100,4,1,1,45,0,0
19963,-66.6666666666667,4,1,1,50,0,0
20648,-200,4,2,1,40,0,0
25105,-100,4,2,1,40,0,0
26134,-200,4,2,1,40,0,0
30093,769.230769230769,4,2,1,40,1,0
31439,368.098159509202,4,2,1,40,1,0
31623,342.857142857143,4,2,1,60,1,0
42077,-100,4,1,1,50,0,0
42591,-133.333333333333,4,2,1,50,0,0
44477,-133.333333333333,4,1,1,40,0,0
44648,-133.333333333333,4,2,1,50,0,0
46705,-100,4,1,1,50,0,0
46877,-100,4,1,1,35,0,0
47048,-100,4,1,1,40,0,0
47391,-100,4,1,1,45,0,0
47734,-100,4,1,1,50,0,0
48077,-100,4,2,1,60,0,0
52277,-100,4,1,1,30,0,0
52534,-100,4,1,1,40,0,0
52877,-100,4,2,1,50,0,0
53048,-100,4,2,1,55,0,0
53305,-100,4,2,1,60,0,0
53648,-100,4,2,1,30,0,0
53905,-100,4,2,1,40,0,0
54077,-100,4,2,1,45,0,0
54248,-100,4,2,1,50,0,0
54419,-100,4,2,1,55,0,0
54591,-100,4,2,1,60,0,0
54762,-100,4,2,1,65,0,0
54937,-83.3333333333333,4,2,3,60,0,1
55105,-83.3333333333333,4,2,2,60,0,1
63848,-66.6666666666667,4,2,2,70,0,1
64880,-83.3333333333333,4,2,2,50,0,0
65219,-83.3333333333333,4,1,1,50,0,0
65562,-83.3333333333333,4,1,1,60,0,0
65908,-83.3333333333333,4,2,3,60,0,1
66077,-83.3333333333333,4,2,2,60,0,1
76448,-83.3333333333333,4,1,1,40,0,1
76877,-83.3333333333333,4,2,2,50,0,1
77734,-133.333333333333,4,2,2,50,0,1
78248,-83.3333333333333,4,2,2,50,0,1
78937,346.820809248555,4,2,2,60,1,1
78937,-166.666666666667,4,2,2,60,0,1
79630,342.857142857143,4,2,1,50,1,0
79630,-100,4,2,1,50,0,0
83734,-100,4,2,1,60,0,0
84419,-100,4,1,1,50,0,0
84848,-100,4,2,1,5,0,0
84934,-100,4,2,1,60,0,0
87505,-100,4,2,1,5,0,0

[Colours]
Combo1 : 192,192,192
Combo2 : 158,62,255
Combo3 : 154,154,205
Combo4 : 206,176,238

[HitObjects]
80,120,1426,2,0,P|128:100|88:52,1,133.333333333333
47,192,2349,2,0,P|128:193|190:147,1,160
324,56,4195,5,0,0:0:0:0:
324,56,4656,1,2,0:0:0:0:
316,216,5118,2,0,P|324:256|360:292,2,80,0|2|0,0:0|0:0|0:0,0:0:0:0:
316,216,6502,1,2,0:0:0:0:
256,192,6601,12,0,8985,0:0:0:0:
156,128,9680,5,6,1:2:0:0:
356,164,9850,1,2,0:0:0:0:
168,148,10021,1,8,0:0:0:0:
448,139,10192,2,0,P|488:152|516:188,1,80,2|4,0:0|0:0,0:0:0:0:
331,256,10534,1,6,0:0:0:0:
288,96,10705,2,0,P|279:54|296:12,1,80,8|0,0:0|0:0,0:0:0:0:
316,16,10961,1,0,0:0:0:0:
340,20,11047,5,6,0:0:0:0:
179,127,11218,1,6,0:0:0:0:
332,256,11388,2,0,P|300:284|255:290,1,80,8|2,0:0|0:0,0:0:0:0:
72,216,11730,1,4,0:0:0:0:
96,220,11816,1,10,0:0:0:0:
120,228,11901,1,4,0:0:0:0:
140,240,11987,1,2,0:0:0:0:
160,256,12072,1,8,0:0:0:0:
20,292,12243,1,2,0:0:0:0:
151,119,12414,5,6,0:0:0:0:
344,120,12585,1,2,0:0:0:0:
324,280,12756,1,8,0:0:0:0:
304,32,12926,2,0,P|340:16|388:20,1,80,2|4,0:0|0:0,0:0:0:0:
287,198,13268,2,0,P|255:174|234:131,1,80,4|10,0:0|0:0,0:0:0:0:
440,130,13610,2,0,P|440:152|428:184,1,40
408,248,13781,5,4,0:0:0:0:
316,124,13952,1,6,0:0:0:0:
200,228,14123,2,0,L|112:216,1,80,8|0,0:0|0:0,0:0:0:0:
20,275,14379,6,0,L|60:268,1,40,10|4,0:0|0:0,0:0:0:0:
212,220,14635,1,6,0:0:0:0:
364,172,14806,2,0,L|240:128,1,120,8|0,0:0|0:0,0:0:0:0:
268,52,15148,5,6,0:0:0:0:
352,188,15319,1,6,0:0:0:0:
288,40,15490,1,8,0:0:0:0:
340,204,15661,2,0,L|420:192,1,80,6|0,0:0|0:0,0:0:0:0:
120,128,16002,1,6,0:0:0:0:
172,292,16173,2,0,P|236:280|292:304,1,120,8|0,0:0|0:0,0:0:0:0:
340,360,16515,5,6,0:0:0:0:
432,232,16690,1,6,0:0:0:0:
228,364,16866,1,8,0:0:0:0:
272,212,17042,2,0,P|268:172|228:124,1,80,6|0,0:0|0:0,0:0:0:0:
13,271,17394,2,0,P|34:290|84:304,1,80,6|8,0:0|0:0,0:0:0:0:
172,108,17746,2,0,P|164:128|164:152,1,40,4|4,0:0|0:0,0:0:0:0:
168,300,17922,5,2,0:0:0:0:
180,288,18093,1,0,0:0:0:0:
308,300,18264,5,2,0:0:0:0:
340,292,18436,1,0,0:0:0:0:
428,200,18607,5,2,0:0:0:0:
384,180,18779,1,0,0:0:0:0:
280,104,18950,5,2,0:0:0:0:
224,132,19122,1,0,0:0:0:0:
108,216,19293,5,0,0:0:0:0:
96,236,19379,1,0,0:0:0:0:
84,256,19464,1,0,0:0:0:0:
72,276,19550,1,0,0:0:0:0:
18,202,19636,5,0,0:0:0:0:
13,174,19722,1,0,0:0:0:0:
8,148,19807,1,0,0:0:0:0:
2,120,19893,1,0,0:0:0:0:
44,36,19979,6,0,L|148:100,1,120.000004577637,0|0,0:0|0:0,0:0:0:0:
304,192,20664,5,2,0:0:0:0:
396,216,20836,1,0,0:0:0:0:
328,284,21007,1,0,0:0:0:0:
280,100,21179,2,0,P|312:76|360:68,1,80,2|0,0:0|0:0,0:0:0:0:
260,352,22036,5,2,0:0:0:0:
260,352,22722,1,2,0:0:0:0:
92,260,23407,5,2,0:0:0:0:
172,208,23579,1,0,0:0:0:0:
200,116,23750,1,0,0:0:0:0:
172,24,23922,2,0,P|128:16|80:28,1,80,2|0,0:0|0:0,0:0:0:0:
72,116,24436,5,0,0:0:0:0:
265,186,24607,2,0,P|304:184|348:164,1,80,2|2,0:0|0:0,0:0:0:0:
400,92,25122,5,0,0:0:0:0:
240,92,25293,1,2,0:0:0:0:
192,244,25464,5,0,0:0:0:0:
220,88,25636,1,2,0:0:0:0:
240,328,25807,5,2,0:0:0:0:
144,160,25979,1,2,0:0:0:0:
260,324,26150,6,0,B|292:316|320:328|320:328|356:328|380:312,1,120,2|0,0:0|0:0,0:0:0:0:
456,260,26836,1,2,0:0:0:0:
456,260,27179,1,0,0:0:0:0:
400,76,27522,6,0,B|379:62|343:62|343:62|315:74|283:66,1,120,2|0,0:0|0:0,0:0:0:0:
164,36,28207,2,0,P|156:56|152:84,1,40,2|0,0:0|0:0,0:0:0:0:
44,176,28550,2,0,P|57:192|79:210,1,40,2|0,0:0|0:0,0:0:0:0:
212,364,28893,6,0,P|252:360|296:332,1,80,2|0,0:0|0:0,0:0:0:0:
140,300,29407,1,2,0:0:0:0:
140,300,29750,1,2,0:0:0:0:
140,300,30093,2,0,B|152:260|108:224|108:224|124:176|124:176|176:152|220:184,1,240,2|0,0:0|0:0,0:0:0:0:
220,183,31623,6,0,P|264:192|308:176,1,80,6|0,0:0|0:0,0:0:0:0:
160,84,31965,2,0,L|80:104,1,80,8|2,0:0|0:0,0:0:0:0:
28,184,32308,1,4,0:0:0:0:
144,296,32480,1,2,0:0:0:0:
304,312,32651,2,0,P|272:280|232:272,1,80,8|0,0:0|0:0,0:0:0:0:
68,364,32994,5,6,0:0:0:0:
28,184,33165,1,6,0:0:0:0:
144,296,33337,1,8,0:0:0:0:
136,112,33508,1,2,0:0:0:0:
244,280,33680,5,4,0:0:0:0:
344,300,33851,1,6,0:0:0:0:
420,372,34023,2,0,P|460:372|504:348,1,80,10|0,0:0|0:0,0:0:0:0:
504,332,34280,1,2,0:0:0:0:
508,308,34365,6,0,L|500:220,1,80,6|0,0:0|0:0,0:0:0:0:
448,148,34708,1,8,0:0:0:0:
272,104,34880,2,0,P|264:60|280:24,1,80,2|4,0:0|0:0,0:0:0:0:
372,16,35223,1,2,0:0:0:0:
276,200,35394,1,8,0:0:0:0:
192,244,35565,1,2,0:0:0:0:
172,256,35651,1,0,0:0:0:0:
152,268,35737,6,0,L|72:256,1,80,4|4,0:0|0:0,0:0:0:0:
316,340,36080,2,0,L|236:328,1,80,8|0,0:0|0:0,0:0:0:0:
148,364,36423,1,6,0:0:0:0:
328,352,36594,1,4,0:0:0:0:
344,332,36680,1,0,0:0:0:0:
352,308,36765,1,8,0:0:0:0:
352,284,36851,1,0,0:0:0:0:
344,260,36937,1,2,0:0:0:0:
215,151,37108,6,0,P|244:172|288:180,1,80,6|0,0:0|0:0,0:0:0:0:
472,96,37451,2,0,P|416:88|364:120,1,120,8|0,0:0|0:0,0:0:0:0:
436,240,37794,2,0,P|444:204|432:164,1,80,6|0,0:0|0:0,0:0:0:0:
312,52,38137,1,8,0:0:0:0:
228,96,38308,1,0,0:0:0:0:
184,180,38480,5,6,0:0:0:0:
231,353,38651,1,6,0:0:0:0:
358,226,38823,1,8,0:0:0:0:
228,96,38994,1,2,0:0:0:0:
274,270,39165,2,0,L|344:324,1,80,6|4,0:0|0:0,0:0:0:0:
432,344,39508,1,8,0:0:0:0:
380,184,39680,1,2,0:0:0:0:
368,204,39765,1,2,0:0:0:0:
358,226,39851,6,0,L|444:204,1,80,6|0,0:0|0:0,0:0:0:0:
272,136,40194,1,8,0:0:0:0:
208,312,40365,2,0,L|294:290,1,80,6|0,0:0|0:0,0:0:0:0:
108,120,40708,2,0,L|194:98,1,80,6|8,0:0|0:0,0:0:0:0:
40,320,41051,2,0,L|126:298,1,80,6|0,0:0|0:0,0:0:0:0:
340,340,41394,5,4,0:0:0:0:
316,336,41480,1,4,0:0:0:0:
292,332,41565,1,8,0:0:0:0:
432,328,41737,1,2,0:0:0:0:
376,152,41908,1,4,0:0:0:0:
220,240,42080,1,0,0:0:0:0:
252,236,42165,1,0,0:0:0:0:
284,232,42251,2,0,L|336:240,1,40,0|0,0:0|0:0,0:0:0:0:
256,148,42423,2,0,L|308:156,1,40
228,64,42594,6,0,L|164:72,1,60.0000022888184,4|0,0:0|0:0,0:0:0:0:
56,148,42937,2,0,B|40:176|40:176|48:212,1,60.0000022888184,4|0,0:0|0:0,0:0:0:0:
128,312,43280,2,0,L|192:304,1,60.0000022888184,4|0,0:0|0:0,0:0:0:0:
300,228,43623,2,0,B|316:200|316:200|308:164,1,60.0000022888184,4|0,0:0|0:0,0:0:0:0:
185,81,43965,6,0,L|128:110,1,60.0000022888184,4|0,0:0|0:0,0:0:0:0:
53,219,44308,2,0,B|47:250|47:250|67:281,1,60.0000022888184,4|0,0:0|0:0,0:0:0:0:
80,284,44565,1,0,0:0:0:0:
96,292,44651,1,4,0:0:0:0:
200,236,44823,1,4,0:0:0:0:
284,320,44994,2,0,L|352:328,1,60.0000022888184
508,232,45337,6,0,L|448:224,1,60.0000022888184,4|0,0:0|0:0,0:0:0:0:
332,136,45680,2,0,B|324:108|324:108|332:76,1,60.0000022888184,4|0,0:0|0:0,0:0:0:0:
504,48,46023,2,0,B|512:76|512:76|504:108,1,60.0000022888184,4|0,0:0|0:0,0:0:0:0:
328,232,46365,2,0,L|268:224,1,60.0000022888184,4|0,0:0|0:0,0:0:0:0:
224,80,46708,5,0,0:0:0:0:
152,212,46880,1,0,0:0:0:0:
148,188,46965,1,0,0:0:0:0:
144,164,47051,5,0,0:0:0:0:
120,132,47137,1,0,0:0:0:0:
84,120,47223,1,0,0:0:0:0:
44,120,47308,1,0,0:0:0:0:
68,200,47394,6,0,L|76:248,1,40,0|0,0:0|0:0,0:0:0:0:
228,180,47565,2,0,L|220:132,1,40,0|0,0:0|0:0,0:0:0:0:
286,35,47737,5,0,0:0:0:0:
292,74,47823,1,0,0:0:0:0:
298,113,47908,1,0,0:0:0:0:
304,152,47994,1,0,0:0:0:0:
376,124,48080,6,0,P|412:140|452:141,1,80,6|4,0:0|0:0,0:0:0:0:
340,240,48423,1,8,0:0:0:0:
206,356,48594,2,0,P|244:360|284:348,1,80,6|0,0:0|0:0,0:0:0:0:
152,248,48937,1,6,0:0:0:0:
9,183,49108,2,0,P|48:176|80:152,1,80,10|0,0:0|0:0,0:0:0:0:
212,28,49451,5,6,0:0:0:0:
300,64,49623,1,4,0:0:0:0:
368,132,49794,1,8,0:0:0:0:
508,44,49965,1,6,0:0:0:0:
508,44,50051,1,8,0:0:0:0:
508,44,50137,1,0,0:0:0:0:
412,220,50308,1,6,0:0:0:0:
424,316,50480,2,0,P|436:356|476:384,1,80,10|0,0:0|0:0,0:0:0:0:
256,348,50823,5,6,0:0:0:0:
256,348,51080,2,0,L|236:296,1,40,4|8,0:0|0:0,0:0:0:0:
176,240,51337,1,6,0:0:0:0:
28,356,51508,5,6,0:0:0:0:
28,356,51765,2,0,L|68:360,1,40,4|8,0:0|0:0,0:0:0:0:
160,336,52023,1,6,0:0:0:0:
272,252,52194,5,6,0:0:0:0:
272,252,52280,1,0,0:0:0:0:
272,252,52365,1,0,0:0:0:0:
272,252,52451,1,0,0:0:0:0:
292,240,52537,6,0,L|336:236,3,40
420,228,52880,5,6,0:0:0:0:
508,32,53108,1,4,0:0:0:0:
294,53,53337,1,6,0:0:0:0:
408,104,53565,6,0,L|448:104,3,40,6|0|0|0,0:0|0:0|0:0|0:0,0:0:0:0:
388,120,53908,5,0,0:0:0:0:
368,132,53994,1,0,0:0:0:0:
344,140,54080,1,0,0:0:0:0:
320,144,54165,1,0,0:0:0:0:
280,136,54251,5,0,0:0:0:0:
240,128,54337,1,0,0:0:0:0:
200,132,54423,1,0,0:0:0:0:
164,148,54508,1,0,0:0:0:0:
124,188,54594,5,0,0:0:0:0:
108,240,54680,1,0,0:0:0:0:
120,296,54765,1,0,0:0:0:0:
160,336,54851,1,0,0:0:0:0:
216,344,54937,6,0,L|416:328,1,191.999994140625,4|8,0:0|0:0,0:0:0:0:
472,176,55451,1,0,0:0:0:0:
440,184,55537,1,0,0:0:0:0:
408,192,55623,1,6,0:0:0:0:
512,256,55794,1,4,0:0:0:0:
400,100,55965,1,8,0:0:0:0:
328,240,56137,1,0,0:0:0:0:
480,56,56308,6,0,P|444:16|380:8,1,95.9999970703126,6|4,0:0|0:0,0:0:0:0:
308,24,56651,1,8,0:0:0:0:
172,160,56823,1,2,0:0:0:0:
172,160,56908,1,0,0:0:0:0:
172,160,56994,2,0,P|124:168|80:152,1,95.9999970703126,4|4,0:0|0:0,0:0:0:0:
232,84,57337,6,0,P|268:152|244:228,1,143.999995605469,10|0,0:0|0:0,0:0:0:0:
244,332,57680,2,0,P|225:289|233:241,1,95.9999970703126,6|0,0:0|0:0,0:0:0:0:
252,80,58023,5,8,0:0:0:0:
304,280,58194,1,0,0:0:0:0:
328,120,58365,5,6,0:0:0:0:
380,260,58537,1,4,0:0:0:0:
404,160,58708,5,10,0:0:0:0:
456,276,58880,1,0,0:0:0:0:
233,241,59051,6,0,P|225:289|244:332,1,95.9999970703126,6|4,0:0|0:0,0:0:0:0:
136,216,59394,1,8,0:0:0:0:
180,72,59565,1,6,0:0:0:0:
212,68,59651,1,8,0:0:0:0:
244,62,59737,2,0,P|235:110|204:144,1,95.9999970703126,4|6,0:0|0:0,0:0:0:0:
108,208,60080,5,8,0:0:0:0:
328,88,60251,1,0,0:0:0:0:
328,88,60337,1,0,0:0:0:0:
328,88,60423,5,6,0:0:0:0:
388,244,60594,1,4,0:0:0:0:
360,88,60765,1,8,0:0:0:0:
440,220,60937,1,6,0:0:0:0:
264,176,61108,6,0,L|208:172,2,47.9999985351563,0|10|4,0:0|0:0|0:0,0:0:0:0:
320,348,61451,1,10,0:0:0:0:
144,304,61623,1,4,0:0:0:0:
112,312,61708,1,8,0:0:0:0:
80,320,61794,5,6,0:0:0:0:
232,320,61965,1,4,0:0:0:0:
32,248,62137,1,8,0:0:0:0:
200,236,62308,1,6,0:0:0:0:
320,348,62480,6,0,P|340:364|368:372,2,47.9999985351563,0|10|0,0:0|0:0|0:0,0:0:0:0:
264,176,62823,1,10,0:0:0:0:
380,32,62994,1,8,0:0:0:0:
492,136,63165,6,0,P|416:160|320:96,1,191.999994140625,2|8,0:0|0:0,0:0:0:0:
224,52,63680,1,2,0:0:0:0:
120,100,63851,6,0,P|80:152|84:208,1,120.000004577637,4|0,0:0|0:0,0:0:0:0:
228,256,64108,2,0,P|202:195|152:170,1,120.000004577637,4|0,0:0|0:0,0:0:0:0:
38,271,64365,1,4,0:0:0:0:
38,271,64537,2,0,P|103:279|149:248,1,120.000004577637,4|0,0:0|0:0,0:0:0:0:
304,224,64880,5,8,0:0:0:0:
328,240,64965,1,0,0:0:0:0:
348,260,65051,1,0,0:0:0:0:
364,284,65137,1,0,0:0:0:0:
372,312,65223,5,0,0:0:0:0:
392,268,65308,1,0,0:0:0:0:
412,224,65394,1,0,0:0:0:0:
432,180,65480,1,0,0:0:0:0:
364,136,65565,5,0,0:0:0:0:
384,92,65651,1,0,0:0:0:0:
404,48,65737,1,0,0:0:0:0:
424,4,65823,1,0,0:0:0:0:
484,60,65908,6,0,L|264:68,1,191.999994140625,4|8,0:0|0:0,0:0:0:0:
96,116,66423,1,0,0:0:0:0:
64,128,66508,1,0,0:0:0:0:
32,140,66594,2,0,L|132:148,1,95.9999970703126,6|4,0:0|0:0,0:0:0:0:
212,224,66937,1,8,0:0:0:0:
216,72,67108,1,0,0:0:0:0:
176,332,67280,6,0,P|136:360|88:360,1,95.9999970703126,6|4,0:0|0:0,0:0:0:0:
16,272,67623,1,8,0:0:0:0:
96,116,67794,1,2,0:0:0:0:
64,128,67880,1,0,0:0:0:0:
32,140,67965,1,4,0:0:0:0:
112,280,68137,1,4,0:0:0:0:
172,148,68308,6,0,P|172:88|104:32,1,143.999995605469,10|0,0:0|0:0,0:0:0:0:
80,36,68651,2,0,P|128:52|184:40,1,95.9999970703126,6|0,0:0|0:0,0:0:0:0:
288,28,68994,1,8,0:0:0:0:
400,44,69165,1,0,0:0:0:0:
481,202,69337,6,0,P|500:160|492:112,1,95.9999970703126,6|4,0:0|0:0,0:0:0:0:
292,266,69680,2,0,P|336:280|384:268,1,95.9999970703126,10|0,0:0|0:0,0:0:0:0:
216,112,70023,6,0,L|192:268,1,143.999995605469,6|0,0:0|0:0,0:0:0:0:
194,254,70365,1,8,0:0:0:0:
124,120,70537,1,6,0:0:0:0:
120,88,70623,1,8,0:0:0:0:
116,56,70708,1,4,0:0:0:0:
64,188,70880,1,6,0:0:0:0:
244,124,71051,5,8,0:0:0:0:
24,28,71223,1,0,0:0:0:0:
24,28,71308,1,0,0:0:0:0:
24,28,71394,5,6,0:0:0:0:
204,24,71565,1,4,0:0:0:0:
44,168,71737,1,8,0:0:0:0:
192,204,71908,2,0,L|292:208,1,95.9999970703126,6|0,0:0|0:0,0:0:0:0:
328,284,72165,6,0,L|388:272,1,47.9999985351563,10|4,0:0|0:0,0:0:0:0:
492,144,72423,1,10,0:0:0:0:
336,68,72594,2,0,L|296:104,1,47.9999985351563,4|0,0:0|0:0,0:0:0:0:
216,192,72765,5,6,0:0:0:0:
232,44,72937,1,4,0:0:0:0:
64,192,73108,1,8,0:0:0:0:
48,16,73280,2,0,L|148:32,1,95.9999970703126,6|0,0:0|0:0,0:0:0:0:
216,192,73623,1,6,0:0:0:0:
232,44,73794,1,8,0:0:0:0:
336,152,73965,1,2,0:0:0:0:
400,76,74137,5,6,0:0:0:0:
456,196,74308,1,0,0:0:0:0:
364,292,74480,2,0,P|335:300|296:304,2,47.9999985351563,8|0|0,0:0|0:0|0:0,0:0:0:0:
292,180,74823,1,6,0:0:0:0:
160,212,74994,1,4,0:0:0:0:
88,324,75165,2,0,P|96:351|112:376,2,47.9999985351563,8|0|0,0:0|0:0|0:0,0:0:0:0:
40,240,75508,5,6,0:0:0:0:
64,148,75680,1,4,0:0:0:0:
132,80,75851,5,8,0:0:0:0:
160,212,76023,1,2,0:0:0:0:
224,52,76194,5,4,0:0:0:0:
256,200,76365,2,0,L|248:248,1,47.9999985351563,8|0,0:0|0:0,0:0:0:0:
244,280,76537,1,0,0:0:0:0:
252,312,76623,1,0,0:0:0:0:
272,336,76708,1,0,0:0:0:0:
304,352,76794,1,0,0:0:0:0:
336,352,76880,6,0,L|436:340,1,95.9999970703126,4|0,0:0|0:0,0:0:0:0:
512,168,77223,2,0,L|412:180,1,95.9999970703126,0|4,0:0|0:0,0:0:0:0:
324,272,77565,1,8,0:0:0:0:
431,340,77737,6,0,L|496:352,2,60.0000022888184,4|0|4,0:0|0:0|0:0,0:0:0:0:
332,184,78251,6,0,L|324:136,1,31.9999990234375,8|0,0:0|0:0,0:0:0:0:
164,36,78480,2,0,L|172:84,1,31.9999990234375,8|0,0:0|0:0,0:0:0:0:
48,228,78708,2,0,L|40:180,1,31.9999990234375,8|0,0:0|0:0,0:0:0:0:
56,160,78937,6,0,L|71:255,1,95.9999970703126,4|0,0:0|0:0,0:0:0:0:
56,348,79630,5,4,1:2:0:0:
240,268,79801,1,4,0:0:0:0:
284,184,79972,1,8,0:0:0:0:
328,100,80144,2,0,P|314:61|278:22,1,80,4|0,0:0|0:0,0:0:0:0:
190,188,80487,1,4,0:0:0:0:
240,268,80658,2,0,P|280:276|332:264,1,80,8|0,0:0|0:0,0:0:0:0:
340,260,80915,1,0,0:0:0:0:
360,244,81001,5,4,0:0:0:0:
236,76,81172,1,4,0:0:0:0:
144,52,81344,1,8,0:0:0:0:
52,28,81515,2,0,P|48:68|72:116,1,80,4|0,0:0|0:0,0:0:0:0:
112,224,81858,1,4,0:0:0:0:
137,315,82030,2,0,P|173:298|203:253,1,80,8|0,0:0|0:0,0:0:0:0:
236,76,82372,5,4,0:0:0:0:
288,256,82544,1,4,0:0:0:0:
328,100,82715,1,8,0:0:0:0:
380,280,82887,1,4,0:0:0:0:
380,280,82972,1,8,0:0:0:0:
380,280,83058,1,0,0:0:0:0:
420,124,83230,1,4,0:0:0:0:
472,304,83401,6,0,P|448:348|400:372,1,80,8|0,0:0|0:0,0:0:0:0:
112,328,83744,2,0,P|85:285|89:231,1,80,4|4,0:0|0:0,0:0:0:0:
116,132,84087,1,8,0:0:0:0:
271,8,84258,6,0,P|321:6|365:36,1,80,4|0,0:0|0:0,0:0:0:0:
400,80,84515,1,0,0:0:0:0:
444,148,84601,1,0,0:0:0:0:
472,224,84687,1,0,0:0:0:0:
472,304,84772,2,0,P|464:328|452:344,1,40
376,356,84944,1,2,0:0:0:0:
256,192,85030,12,0,87515,0:0:0:0:
