osu file format v9

[General]
AudioFilename: Be Starters!(TV Size).mp3
AudioLeadIn: 500
PreviewTime: -1
Countdown: 0
SampleSet: Normal
StackLeniency: 0.7
Mode: 0
LetterboxInBreaks: 1

[Editor]
Bookmarks: 58666
DistanceSpacing: 0.8
BeatDivisor: 4
GridSize: 16

[Metadata]
Title:Be Starters!(TV Size)
Artist:Kitamura Eri
Creator:hot493
Version:Normal
Source:Mayo chiki!
Tags:th_99 hot493

[Difficulty]
HPDrainRate:5
CircleSize:5
OverallDifficulty:5
ApproachRate:6
SliderMultiplier:2.2
SliderTickRate:4

[Events]
//Background and Video events
Video,0,"VIDEO.avi"
0,0,"bg.jpg"
//Break Periods
2,11262,23572
//Storyboard Layer 0 (Background)
//Storyboard Layer 1 (Fail)
//Storyboard Layer 2 (Pass)
//Storyboard Layer 3 (Foreground)
//Storyboard Sound Samples
//Background Colour Transformations
3,100,255,255,255

[TimingPoints]
1249,713.690971809207,4,1,0,100,1,0

[Colours]
Combo1 : 128,255,255
Combo2 : 5,240,5
Combo3 : 5,5,240
Combo4 : 255,0,0

[HitObjects]
256,64,1427,1,0
256,320,2497,1,0
256,193,2854,1,0
256,192,3033,1,0
255,62,3568,1,0
48,192,4282,5,0
258,193,4817,1,0
464,192,5174,1,0
464,192,5531,1,0
258,195,5887,1,0
258,195,6066,1,0
259,193,6423,1,0
256,304,7136,6,0,B|400:304|448:160,2,220
256,304,8921,1,0
256,304,9277,1,0
256,304,9634,1,0
256,64,9991,1,0
256,192,10883,1,0
256,192,11062,1,0
255,56,24622,5,0
256,192,25692,5,0
464,193,26049,1,0
466,193,26228,1,0
463,194,26584,1,0
256,192,26941,1,0
256,64,28190,5,0
256,96,29082,1,0
256,132,29439,1,0
257,134,29796,1,0
256,320,30688,5,0
128,192,31402,1,0
384,192,32116,1,0
256,192,32651,1,0
256,192,32829,1,0
256,192,33008,1,0
256,192,33365,1,0
256,96,34614,5,0
368,192,34970,1,0
128,192,35506,1,0
128,192,35862,2,0,B|256:320|400:160,3,275
368,192,39609,5,0
464,112,40501,1,0
464,272,40858,1,0
368,192,41215,1,0
256,96,42107,6,0,B|256:256,1,110
256,208,42821,5,0
256,208,43535,1,0
258,305,44070,1,0
257,305,44248,1,0
258,305,44427,1,0
257,198,44784,1,0
432,192,46033,5,0
400,192,46389,1,0
368,192,46568,1,0
304,192,47103,6,0,B|176:192,1,110
192,192,47817,1,0
96,192,48174,1,0
96,192,48352,1,0
256,96,49244,5,0
352,192,49958,1,0
256,272,50315,1,0
160,192,50672,1,0
256,192,51028,1,0
256,192,51385,1,0
256,192,51564,1,0
256,192,51742,1,0
256,192,51921,1,0
16,64,52634,6,0,B|272:208,1,275
240,48,54062,6,0,B|0:192,1,275
32,288,55311,5,0
32,288,55489,1,0
32,288,55667,2,0,B|240:288|368:176,1,330
256,112,57095,5,0
176,192,57452,1,0
333,193,57808,1,0
334,193,57987,1,0
259,265,58165,1,0
259,265,58344,2,0,B|261:44,2,220
260,79,61377,5,0
260,189,61734,1,0
261,189,61912,1,0
256,289,62269,1,0
161,190,62626,1,0
258,193,62983,1,0
257,193,63161,1,0
354,193,63518,1,0
256,301,64232,5,0
387,200,64767,1,0
257,98,65124,1,0
131,193,65481,1,0
255,196,65837,1,0
255,197,66016,1,0
256,197,66373,1,0
184,73,67265,6,0,B|348:73,1,165
345,74,68157,1,0
423,147,68335,1,0
423,149,68692,1,0
423,256,69228,1,0
352,323,69584,1,0
170,321,69941,1,0
171,321,70120,1,0
87,257,70298,1,0
86,257,70476,1,0
182,125,71725,5,0
319,120,72082,1,0
319,121,72261,1,0
189,252,72796,1,0
321,253,73331,1,0
189,129,73688,1,0
321,128,74045,1,0
190,129,74402,1,0
191,131,74580,1,0
259,198,74937,1,0
255,69,75651,5,0
411,74,76008,1,0
416,178,76186,1,0
416,179,76543,1,0
503,126,76900,1,0
512,238,77257,1,0
512,241,77435,1,0
432,319,77792,1,0
107,139,78149,6,0,B|269:251|420:129,1,330
392,92,80647,5,0
109,99,81003,1,0
397,272,81360,1,0
399,272,81539,1,0
113,269,81896,1,0
115,117,83144,5,0
396,113,83501,1,0
261,57,83858,2,0,B|261:351,2,275
259,149,86356,6,0,B|259:254,4,55
