osu file format v9

[General]
AudioFilename: Kitamura Eri - Be Starters!.mp3
AudioLeadIn: 0
PreviewTime: 61962
Countdown: 0
SampleSet: Normal
StackLeniency: 0.7
Mode: 0
LetterboxInBreaks: 1

[Editor]
DistanceSpacing: 0.8
BeatDivisor: 4
GridSize: 4

[Metadata]
Title:Be Starters!
Artist:Kitamura Eri
Creator:xsrsbsns
Version:Normal
Source:Mayo Chiki!
Tags:mekadon cRyo[iceeicee]

[Difficulty]
HPDrainRate:2
CircleSize:3
OverallDifficulty:1
ApproachRate:4
SliderMultiplier:1.12
SliderTickRate:2

[Events]
//Background and Video events
0,0,"bg_standard.jpg"
//Break Periods
2,13751,20802
2,88037,95088
//Storyboard Layer 0 (Background)
//Storyboard Layer 1 (Fail)
//Storyboard Layer 2 (Pass)
//Storyboard Layer 3 (Foreground)
//Storyboard Sound Samples
//Background Colour Transformations
3,100,163,162,255

[TimingPoints]
2123,357.142857142857,4,2,1,60,1,0
13551,-100,4,1,1,60,0,1
13640,-100,4,1,1,60,0,0
25158,-100,4,2,1,60,0,0
36230,-100,4,1,1,60,0,0
62122,-100,4,1,1,60,0,1
73462,-100,4,1,1,60,0,0
73551,-100,4,1,1,60,0,1
84980,-100,4,1,1,60,0,0
94980,-100,4,1,1,45,0,0
119087,-100,4,1,1,60,0,0
133551,-100,4,1,1,60,0,1
144890,-100,4,1,1,60,0,0
144980,-100,4,1,1,60,0,1
159265,-100,4,1,1,60,0,0

[Colours]
Combo1 : 255,255,62
Combo2 : 255,119,255
Combo3 : 0,255,255
Combo4 : 204,0,204

[HitObjects]
136,332,2123,2,0,B|260:312,1,112,2|0
284,336,2658,2,0,B|372:384|448:308,1,168,2|0
476,236,3551,1,2
348,112,4265,1,0
264,272,4980,6,0,B|140:292,1,112,2|0
108,280,5515,2,0,B|36:208|100:112,1,168,2|0
144,56,6408,1,2
228,92,6765,2,0,B|296:92|344:80,1,112,0|2
476,200,7837,6,0,B|460:276|348:316|284:272,1,224,2|2
128,212,9265,2,0,B|252:180,1,112,2|0
304,124,9980,1,0
256,48,10337,1,0
256,192,10694,12,4,13551
256,192,22122,12,0,24265
60,228,24980,5,4
120,300,25337,2,0,B|244:276,1,112,2|0
308,320,26051,1,0
388,280,26408,2,0,B|428:184|364:116,1,168,2|2
304,60,27301,1,0
224,96,27658,1,0
224,96,27837,2,0,B|40:72,2,168,2|2|0
296,148,29265,6,0,B|348:208|312:328|216:320,1,224,2|2
108,188,30694,1,0
236,60,31408,6,0,B|288:68|320:124|320:124|368:76|436:72,1,224,0|2
308,212,32837,2,0,B|256:204|224:148|224:148|176:196|108:200,1,224,0|2
72,28,34265,1,0
244,76,34980,1,2
412,136,35694,5,2
396,224,36051,1,2
376,312,36408,2,0,B|432:328|488:328,2,112,4|0|0
304,256,37480,1,0
240,320,37837,2,0,B|184:388|60:336|88:248,1,224
112,172,38908,1,0
196,200,39265,2,0,B|312:272|404:164,2,224
76,64,41408,5,0
12,124,41765,1,0
96,152,42122,1,4
268,104,42837,6,0,B|400:140|372:280,2,224
92,144,44980,2,0,B|88:84|32:48,2,112
160,200,46051,2,0,B|232:220,1,56,0|4
332,152,46765,2,0,B|372:112|356:44,2,112
256,204,47837,6,0,B|164:224|192:364|288:344,1,224,4|0
324,264,48908,1,0
324,264,49265,2,0,B|444:236,1,112
448,148,49980,2,0,B|328:176,1,112,0|0
252,156,50694,5,4
196,228,51051,1,0
168,144,51408,1,0
112,216,51765,1,0
84,132,52122,2,0,B|112:60,2,56
44,148,52658,6,0,B|-12:212|44:324|128:304,1,224,0|6
208,276,53730,1,2
208,276,53908,2,0,B|224:144,1,112,2|2
292,52,54801,1,6
372,88,55158,1,2
372,88,55337,2,0,B|436:84|484:72,2,112,2|2|0
292,52,56408,6,0,B|189:97|184:204|267:272|370:227,1,336,6|0
432,164,57837,2,0,B|384:64,1,112,2|2
292,52,58551,2,0,B|256:140|148:128,1,168,2|6
256,192,59176,12,0,60694
68,88,61765,5,4
148,132,62122,2,0,B|216:140|264:76,1,112,6|0
292,84,62658,2,0,B|344:108|404:84,2,112,2|2|2
160,68,63908,2,0,B|84:168,1,112,2|2
92,248,64622,1,0
168,292,64980,6,0,B|208:352|288:328,1,112,2|0
308,320,65515,2,0,B|376:340|432:288,1,112,2|2
480,240,66230,2,0,B|504:172|428:120|372:156,1,168,2|2
296,176,67122,1,2
216,332,67837,6,0,B|149:394|48:376|13:282,1,224,6|2
48,128,69265,2,0,B|115:66|216:84|251:178,1,224,6|2
284,328,70694,2,0,B|364:336|400:324,1,112,6|0
432,300,71230,2,0,B|496:244|480:136|392:112,1,224,2|4
284,56,72480,5,2
244,136,72837,2,0,B|288:200,1,56,2|2
252,316,73551,6,0,B|196:364|132:328,1,112,6|0
108,308,74087,2,0,B|80:200,1,112,2|2
144,136,74801,2,0,B|156:32|276:32,1,168,2|2
340,64,75694,1,2
480,176,76408,6,0,B|408:168|364:236,1,112,2|0
344,244,76944,2,0,B|288:200|220:232,1,112,2|2
164,276,77658,2,0,B|116:104,1,168,2|2
212,92,78551,1,2
300,72,78908,1,0
388,92,79265,6,0,B|468:144|428:244,1,168,6|2
404,276,79980,2,0,B|344:288|288:280,1,112,2|0
212,320,80694,2,0,B|140:380|52:332|40:272|56:228,1,224,2|2
96,172,81765,1,0
176,212,82122,5,6
176,212,82301,1,0
256,256,82658,2,0,B|344:272|400:172|356:104,1,224,2|4
228,136,83908,6,0,B|176:140|152:160,1,56
132,164,84265,2,0,B|64:152|64:76,2,112,0|0|4
256,192,85069,12,0,87837
92,308,96408,6,0,B|140:288|212:288,1,112,4|0
284,328,97122,1,0
344,264,97480,1,0
428,292,97837,2,0,B|484:256|480:120|372:96,1,224
324,56,98908,1,0
260,120,99265,6,0,B|268:188|284:244,2,112
196,56,100337,1,0
112,80,100694,2,0,B|28:100|52:256|156:232,2,224
268,168,102837,6,0,B|384:220|484:140,2,224
100,104,104980,1,0
76,280,105694,1,0
244,344,106408,1,0
364,212,107122,2,0,B|428:236|484:224,2,112,0|0|4
312,284,108194,5,0
224,300,108551,2,0,B|176:268|116:280,1,112
28,260,109265,2,0,B|84:44,1,224
172,28,110337,1,0
232,96,110694,6,0,B|348:156|456:52,1,224
472,244,112122,2,0,B|356:184|248:288,1,224
192,328,113194,1,0
276,364,113551,1,4
104,296,114265,6,0,B|24:204|80:72,2,224
220,156,116408,5,4
164,228,116765,1,0
252,240,117122,2,0,B|298:249|362:229,1,112
396,200,117658,2,0,B|436:108|356:48,1,168,4|0
276,88,118551,1,0
192,60,118908,1,0
104,84,119265,6,0,B|36:144|84:256|172:244,1,224,4|0
224,312,120337,1,0
224,312,120694,2,0,B|288:296|360:300,1,112
420,332,121408,1,0
484,268,121765,1,0
440,192,122122,6,0,B|440:128|468:80,2,112,4|0|0
380,260,123194,1,0
304,308,123551,2,0,B|216:348|144:284,1,168
68,132,124801,6,0,B|124:116|184:140,1,112,6|0
212,168,125337,2,0,B|280:172|304:108,1,112,2|2
424,64,126230,2,0,B|432:144|456:188,1,112,6|0
436,216,126765,2,0,B|364:240|328:288,1,112,2|2
284,340,127480,1,0
196,324,127837,6,0,B|93:368|10:300|15:193|118:148,1,336,6|0
188,92,129265,2,0,B|256:120|312:116,1,112,2|2
380,84,129980,2,0,B|472:132|432:244,1,168,2|6
256,192,130694,12,0,132122
36,268,133194,5,4
96,336,133551,2,0,B|156:348|224:324,1,112,6|0
236,296,134087,2,0,B|296:320|368:316,1,112,2|2
432,288,134801,2,0,B|488:252|492:180|444:128,1,168,2|2
392,76,135694,1,2
316,236,136409,5,2
252,296,136765,1,0
252,296,136944,2,0,B|188:276|116:280,1,112,2|2
56,256,137658,2,0,B|32:160|88:92,1,168,2|2
168,68,138551,1,2
260,224,139265,6,0,B|288:296|388:312|452:268,1,224,6|2
484,92,140694,2,0,B|456:20|356:4|292:48,1,224,2|2
232,112,141765,1,0
144,124,142122,2,0,B|100:88,2,56,2|0|0
144,168,142658,2,0,B|172:292|312:296,1,224,2|4
440,316,143909,5,2
432,228,144265,2,0,B|452:160,1,56,2|2
376,60,144980,6,0,B|316:44|264:72,1,112,6|0
236,104,145515,2,0,B|124:72,1,112,2|2
76,148,146230,2,0,B|260:200,1,168,2|2
316,152,147123,1,2
488,208,147837,6,0,B|472:264|464:320,1,112,2|0
428,340,148373,2,0,B|372:296|304:328,1,112,2|2
240,356,149087,2,0,B|140:392|88:304,1,168,2|2
104,224,149980,1,2
128,136,150337,1,0
172,60,150694,6,0,B|244:0|332:48|344:108|328:152,1,224,6|2
272,300,152122,2,0,B|200:360|112:312|100:252|116:208,1,224,2|2
180,168,153194,1,0
264,200,153551,6,0,B|332:232,1,56,6|2
360,300,154087,2,0,B|448:316|504:216|460:148,1,224,2|4
356,72,155337,6,0,B|388:16,2,56
268,96,156051,1,0
332,160,156408,1,4
256,192,156497,12,4,159265
