osu file format v9

[General]
AudioFilename: Kitamura Eri - Be Starters!.mp3
AudioLeadIn: 0
PreviewTime: 61962
Countdown: 0
SampleSet: Normal
StackLeniency: 0.7
Mode: 0
LetterboxInBreaks: 1

[Editor]
DistanceSpacing: 1.1
BeatDivisor: 4
GridSize: 4

[Metadata]
Title:Be Starters!
Artist:Kitamura Eri
Creator:xsrsbsns
Version:Hard
Source:Mayo Chiki!
Tags:mekadon cRyo[iceeicee]

[Difficulty]
HPDrainRate:5
CircleSize:4
OverallDifficulty:4
ApproachRate:7
SliderMultiplier:1.44
SliderTickRate:2

[Events]
//Background and Video events
0,0,"bg_standard.jpg"
//Break Periods
2,96608,104080
//Storyboard Layer 0 (Background)
//Storyboard Layer 1 (Fail)
//Storyboard Layer 2 (Pass)
//Storyboard Layer 3 (Foreground)
//Storyboard Sound Samples
//Background Colour Transformations
3,100,163,162,255

[TimingPoints]
2123,357.142857142857,4,2,1,60,1,0
7658,-133.333333333333,4,2,1,60,0,0
10515,-100,4,2,1,60,0,0
11944,-100,4,1,0,45,0,0
13551,-100,4,1,1,45,0,1
13640,-100,4,1,1,45,0,0
23105,-100,4,1,1,60,0,0
25158,-100,4,2,1,60,0,0
36319,-100,4,1,1,45,0,0
47569,-133.333333333333,4,1,1,45,0,0
52747,-100,4,1,1,45,0,0
62122,-100,4,1,1,45,0,1
73462,-100,4,1,1,45,0,0
73551,-100,4,1,1,45,0,1
84980,-100,4,1,1,45,0,0
118997,-133.333333333333,4,1,1,45,0,0
124176,-100,4,1,1,45,0,0
133551,-100,4,1,1,45,0,1
144890,-100,4,1,1,45,0,0
144980,-100,4,1,1,45,0,1
156230,-100,4,1,1,60,0,1
159265,-100,4,1,1,45,0,0

[Colours]
Combo1 : 255,255,62
Combo2 : 255,119,255
Combo3 : 0,255,255
Combo4 : 204,0,204

[HitObjects]
40,144,1944,1,0
116,124,2123,2,0,B|260:152,1,144,2|0
308,212,2658,2,0,B|388:248|452:184,1,144,2|0
328,308,3372,2,0,B|248:260|188:332,1,144,2|0
116,336,3908,2,0,B|68:200,1,144,2|2
244,40,4801,5,0
304,92,4980,2,0,B|456:56,1,144,2|0
500,120,5515,2,0,B|488:204,1,72,2|0
484,272,5872,2,0,B|400:264,1,72
356,204,6230,2,0,B|292:268|216:224,1,144,2|0
148,216,6765,2,0,B|68:184|15:244,1,144,2|2
292,336,7837,6,0,B|368:292|352:188|276:164,1,215.999993562699,2|2
156,224,8908,1,0
156,224,9087,2,0,B|88:244|52:136|112:104,1,161.999995172024,2|0
248,120,9980,1,2
156,224,10337,1,0
308,304,10694,6,0,B|344:288|384:292,1,72,2|0
308,216,11051,1,0
232,264,11230,2,0,B|156:308|88:252,1,144,2|0
56,192,11765,5,2
256,52,12122,1,0
456,192,12480,1,0
256,332,12837,2,0,B|256:376,4,36,0|0|0|0|8
436,288,13551,6,0,B|440:244|452:212,1,72,4|0
432,140,13908,1,8
360,172,14087,2,0,B|280:204|216:144,1,144
172,96,14622,1,8
148,172,14801,2,0,B|112:256|24:248,1,144
56,160,15337,1,8
212,244,15694,1,0
296,96,16051,1,8
452,172,16408,6,0,B|448:216|432:256,1,72
380,300,16765,1,8
304,280,16944,2,0,B|248:216|284:128,1,144
208,100,17480,1,8
164,168,17658,2,0,B|220:232|184:320,1,144
260,352,18194,5,8
352,204,18551,1,0
208,100,18908,1,8
116,252,19265,1,4
352,204,19980,6,0,B|424:188,1,72
364,112,20337,1,8
284,140,20515,2,0,B|232:200|272:312|376:288,1,216,0|8
168,168,21408,6,0,B|116:176|88:160,1,72
140,88,21765,2,0,B|192:80|220:96,1,72,8|0
284,140,22122,2,0,B|336:204|300:300,1,144,4|8
416,256,22658,2,0,B|364:192|400:96,1,144,4|8
324,52,23194,1,4
256,192,23283,12,4,24980
200,260,25337,6,0,B|144:204|52:228,2,144,2|0|2
200,260,26408,2,0,B|348:232,1,144,2|0
420,216,26944,2,0,B|452:168|436:116|380:92,1,144,2|0
308,112,27480,2,0,B|256:108|220:88,1,72,2|0
176,44,27837,1,2
52,140,28194,2,0,B|40:188|56:224,1,72,0|2
192,288,28730,2,0,B|204:240|188:204,1,72,0|2
308,108,29265,6,0,B|348:68|420:88|424:156,1,144,2|0
396,228,29801,2,0,B|356:268|284:248|280:180,1,144,2|0
228,136,30337,2,0,B|128:156,2,72,2|0|2
428,100,31408,5,0
360,288,32122,1,2
228,136,32837,1,0
256,192,33551,12,0,34980
256,64,35337,5,0
404,120,35694,1,0
348,268,36051,1,0
280,312,36230,1,0
204,292,36408,6,0,B|148:232|56:252,1,144
224,204,37122,2,0,B|280:264|372:244,1,144
396,92,37837,2,0,B|396:52|368:20,1,72
304,92,38194,1,0
352,168,38372,2,0,B|416:204|492:176,2,144
276,224,39265,6,0,B|216:300|128:252,1,144
88,116,39980,1,0
240,72,40337,1,0
276,224,40694,6,0,B|351:254|403:182,1,144
376,108,41230,2,0,B|300:77|248:149,1,144,0|8
200,208,41765,2,0,B|136:228|120:224,1,72,0|8
52,212,42122,1,0
176,112,42480,1,0
204,268,42837,6,0,B|216:316|284:344|340:292,1,144
400,324,43372,1,0
460,272,43551,2,0,B|468:188|440:104,1,144
272,72,44265,2,0,B|264:124|288:164,1,72
364,192,44622,2,0,B|372:140|348:100,1,72,0|8
288,228,44980,1,0
288,228,45158,2,0,B|228:296|132:256,2,144,0|0|8
364,192,46051,2,0,B|424:196|456:208,1,72,8|0
204,60,46765,5,8
148,120,46944,1,0
192,188,47122,1,8
156,260,47301,1,0
156,260,47837,6,0,B|252:332|380:272,1,215.999993562699,4|8
412,248,48730,1,0
432,192,48908,2,0,B|424:120,1,53.9999983906746
368,132,49265,2,0,B|360:60,1,53.9999983906746
304,60,49622,1,0
252,168,49980,1,8
180,76,50337,1,0
136,188,50694,6,0,B|120:252|168:308,1,107.999996781349,4|0
232,200,51408,2,0,B|248:136|200:80,1,107.999996781349,8|0
96,68,52122,2,0,B|68:64|36:68,2,53.9999983906746
124,140,52658,1,0
80,208,52837,2,0,B|40:220|0:216,2,72,8|0|8
136,264,53372,6,4,B|220:296|288:208,1,144,6|6
304,160,53908,1,10
304,160,54265,1,2
376,196,54444,1,0
432,140,54622,1,8
360,108,54801,6,0,B|284:96|224:144,1,144,2|0
152,180,55337,2,0,B|64:172|48:84,1,144,10|2
208,80,56051,2,0,B|252:64|288:68,1,72,10|0
352,100,56408,1,2
256,192,56497,12,0,57837
340,88,58194,5,8
172,88,58551,2,0,B|128:164,1,72
148,228,58908,1,8
224,260,59087,2,0,B|300:280|368:228,1,144,4|0
436,212,59622,6,0,B|464:284,1,72,8|0
360,232,59980,2,0,B|333:164,1,72,8|0
380,72,60337,2,0,B|408:144,1,72,8|0
256,192,60694,12,0,61765
380,236,61944,5,0
312,280,62122,2,0,B|232:320|160:244,1,144,2|8
120,204,62658,2,0,B|132:164|136:124,1,72,2|0
200,52,63015,2,0,B|204:96|220:136,1,72,2|0
280,176,63372,2,0,B|316:168|356:172,1,72,2|0
412,116,63730,1,0
340,68,63908,2,0,B|256:52|192:92,1,144,2|2
116,224,64622,1,8
188,264,64801,5,0
188,264,64980,2,0,B|264:292|332:220,1,144,2|8
400,232,65515,2,0,B|416:308,1,72,2|0
484,232,65872,2,0,B|496:148|432:92,1,144,2|2
380,48,66408,2,0,B|340:80|304:88,1,72
256,136,66765,1,10
400,232,67122,2,0,B|444:220|476:224,1,72,2|0
428,312,67480,2,0,B|384:324|352:320,1,72,8|0
268,304,67837,6,0,B|216:236|244:164,1,144,2|8
376,80,68551,2,0,B|428:148|400:220,1,144,2|8
380,292,69087,1,0
324,236,69265,1,2
488,184,69622,1,8
320,144,69980,1,2
480,92,70337,1,10
312,52,70694,6,0,B|272:64|236:68,1,72,2|0
156,48,71051,1,10
180,128,71230,2,0,B|192:212|124:260,1,144,2|0
156,336,71765,1,10
236,308,71944,2,0,B|224:224|292:176,1,144,2|0
364,168,72480,6,0,B|396:192|420:224,1,72,2|0
460,292,72837,1,10
460,292,73015,1,10
296,340,73372,5,0
296,340,73551,2,0,B|236:280|132:300,1,144,6|8
88,324,74087,2,0,B|84:284|64:248,1,72,2|0
144,216,74444,2,0,B|136:168|152:132,1,72,2|8
228,112,74801,2,0,B|304:144|364:88,1,144,2|0
420,36,75337,1,10
492,204,75694,2,0,B|428:148|344:196,1,144,2|8
288,236,76230,5,0
288,236,76408,2,0,B|224:292|136:248,1,144,2|8
84,220,76944,1,2
188,100,77301,1,2
332,164,77658,2,0,B|392:224|348:324,1,144,2|0
284,328,78194,2,0,B|232:332|200:328,1,72,10|0
144,248,78551,2,0,B|196:244|228:248,1,72,2|0
128,332,78908,2,0,B|76:336|44:332,1,72,8|0
20,260,79265,6,2,B|60:120,1,144,2|8
80,44,79801,1,2
136,100,79980,2,2,B|188:160|276:132,1,144,2|8
408,60,80694,6,2,B|384:232,1,144,2|8
380,280,81230,1,2
312,236,81408,2,2,B|240:200|164:236,1,144,2|8
44,324,82122,5,6
96,260,82301,2,0,B|60:116,2,144,10|8|8
168,300,83194,1,10
240,336,83372,2,0,B|316:364|376:296,1,144,6|0
412,236,83908,1,10
412,236,84087,1,0
444,164,84265,2,0,B|440:104|428:72,1,72,10|0
340,48,84622,2,0,B|344:108|356:140,1,72,10|0
328,196,84980,5,4
264,244,85158,1,0
252,164,85337,1,8
328,196,85515,2,0,B|384:252|476:228,1,144,0|0
496,304,86051,1,8
424,336,86230,2,0,B|368:280|276:304,1,144
220,336,86765,1,8
72,280,87122,1,0
92,124,87480,1,8
240,180,87837,5,0
304,132,88015,1,0
228,104,88194,1,8
240,180,88372,2,0,B|352:280,1,144
404,332,88908,1,8
428,256,89087,2,0,B|452:116,1,144
392,56,89622,2,0,B|344:116|256:92,2,144,8|0|8
452,114,90515,6,0,B|516:132,2,36,0|0|0
424,268,91051,1,8
276,324,91408,2,0,B|236:304|176:304,1,72
128,316,91765,1,8
52,292,91944,2,0,B|4:224|40:148,1,144
36,155,92480,1,8
220,184,92837,6,0,B|256:176|292:148,1,72
360,128,93194,2,0,B|396:160|412:188,1,72,8|0
452,248,93551,1,4
292,332,93908,2,0,B|248:340|212:332,1,72,8|4
60,216,94444,2,0,B|100:208|148:216,1,72,8|4
256,192,94712,12,4,96408
256,192,104980,12,0,106408
316,72,106765,5,0
420,192,107122,1,0
320,316,107480,2,0,B|268:296|224:296,1,72
172,280,107837,5,4
152,124,108194,1,0
308,104,108551,1,0
336,260,108908,1,0
480,180,109265,6,0,B|488:124|472:88,1,72
420,52,109622,1,0
352,92,109801,2,0,B|280:120|200:72,2,144
420,132,110694,5,0
392,288,111051,1,0
300,160,111408,1,0
276,316,111765,1,0
184,188,112122,6,0,B|148:168|96:160,2,72
244,240,112658,1,0
324,252,112837,2,0,B|368:232|376:200,1,72
456,220,113194,2,0,B|472:184|468:136,1,72
428,80,113551,5,4
272,48,113908,1,0
240,204,114265,1,0
396,236,114622,5,0
428,308,114801,1,0
360,348,114980,2,0,B|276:380|212:312,1,144
180,264,115515,1,0
240,204,115694,2,0,B|272:216|320:216,1,72
272,128,116051,2,0,B|240:116|192:116,1,72
128,160,116408,5,4
64,208,116587,2,0,B|24:280|72:372,2,144,8|8|8
128,160,117480,1,8
204,184,117658,2,0,B|268:224|352:184,1,144,8|0
436,208,118194,5,8
500,140,118372,1,0
408,116,118551,1,8
408,116,118730,1,0
360,288,119265,6,0,B|264:356|152:280,1,215.999993562699,12|0
108,252,120158,2,0,B|72:264|44:264,2,53.9999983906746
164,232,120694,2,0,B|180:208|176:172,1,53.9999983906746
232,156,121051,2,0,B|212:128|216:96,1,53.9999983906746
244,60,121408,2,0,B|308:68|348:20,1,107.999996781349,8|0
432,104,122122,6,0,B|456:232,1,107.999996781349
352,272,122837,2,0,B|328:144,1,107.999996781349,8|0
228,104,123551,2,0,B|248:56,2,53.9999983906746
164,152,124087,1,0
104,204,124265,2,0,B|56:196|36:180,1,72,8|0
84,112,124622,1,8
164,152,124801,6,0,B|228:208|244:276,1,144,6|0
276,352,125337,1,10
276,352,125694,2,0,B|312:336|352:336,1,72,2|0
344,244,126051,1,8
253,264,126230,6,0,B|196:320|108:304,1,144,2|2
64,248,126765,2,0,B|64:200|48:168,1,72,10|0
100,52,127122,2,0,B|100:100|116:132,1,72,10|0
176,176,127480,1,10
252,196,127658,1,0
280,124,127837,1,6
256,192,127926,12,0,129265
144,256,129622,6,0,B|200:204|296:232,1,144,8|0
348,268,130158,1,0
412,220,130337,1,8
468,168,130515,2,0,B|452:76|352:52,1,144
304,64,131051,6,0,B|220:76,1,72,8|0
208,164,131408,2,0,B|129:132,1,72,8|0
80,212,131765,2,0,B|27:145,1,72,8|0
256,192,132122,12,0,133194
88,248,133372,5,0
88,248,133551,2,0,B|164:280|232:220,1,144,6|8
304,212,134087,2,0,B|344:220|376:240,1,72,2|0
364,148,134444,2,0,B|376:104|400:80,1,72,2|8
300,88,134801,2,0,B|264:84|228:64,1,72,2|0
152,56,135158,1,0
96,116,135337,2,0,B|88:200|4:216,2,144,10|2|8
152,56,136230,5,0
224,92,136408,2,0,B|296:132|376:76,1,144,2|8
476,104,136944,2,0,B|436:120|408:156,1,72,2|0
416,248,137301,2,0,B|456:232|484:196,1,72,2|8
348,200,137658,1,2
308,272,137837,2,0,B|280:252|236:248,1,72
164,268,138194,2,0,B|96:228|108:136,1,144,10|2
120,60,138730,5,0
107,145,138908,2,0,B|64:128|32:140,1,72,10|0
184,116,139265,2,0,B|260:168|332:108,1,144,6|8
440,220,139980,2,0,B|364:168|292:228,1,144,2|8
252,276,140515,1,0
192,328,140694,2,0,B|144:336|112:324,1,72,2|0
48,288,141051,1,8
92,136,141408,2,0,B|176:168|232:92,1,144,2|8
222,104,142122,6,0,B|264:116|296:144,1,72,2|0
336,204,142480,1,10
376,128,142658,2,0,B|380:88|412:60,1,72
484,112,143015,1,10
484,112,143194,1,10
448,196,143372,2,0,B|380:256|284:196,1,144,6|0
228,204,143908,6,0,B|192:232|188:276,1,72,10|0
160,344,144265,1,10
160,344,144444,1,2
144,184,144801,5,0
228,204,144980,2,0,B|300:228|372:172,1,144,6|8
384,100,145515,2,0,B|368:64|376:24,1,72,2|0
448,148,145872,2,0,B|464:184|456:224,1,72,2|8
416,292,146230,6,0,B|332:260|264:304,1,144,2|0
200,336,146765,2,0,B|164:300|168:260,1,72,10|0
136,196,147122,1,2
272,88,147480,1,8
340,152,147658,5,0
340,152,147837,2,0,B|296:220|212:204,1,144,2|8
136,196,148372,2,0,B|104:104,1,72,2|0
16,132,148730,2,0,B|40:88|40:40,1,72,2|8
112,127,149087,6,0,B|192:148|256:92,1,144,2|2
324,60,149622,2,0,B|348:144,1,72,10|0
444,136,149980,2,0,B|408:215,1,72,2|0
484,276,150337,2,0,B|405:314,1,72,10|0
324,340,150694,6,0,B|276:272|168:304,1,144,2|8
112,324,151230,1,2
112,324,151408,2,0,B|64:312|40:240|100:196,1,144,2|8
220,120,152122,2,0,B|268:132|292:204|232:248,1,144,2|8
172,192,152658,1,0
220,120,152837,5,6
372,252,153194,1,14
160,316,153551,1,2
160,316,153730,2,0,B|120:312|88:276,1,72,2|8
168,224,154087,2,0,B|248:240|296:296,1,144,2|8
360,340,154622,1,10
416,284,154801,2,0,B|448:212|412:128,1,144,6|0
376,60,155337,5,8
296,92,155515,1,0
328,172,155694,2,0,B|304:232,4,36,8|0|0|0|8
160,84,156408,5,4
256,192,156497,12,0,159265
