osu file format v9

[General]
AudioFilename: Be Starters!.mp3
AudioLeadIn: 1000
PreviewTime: 61142
Countdown: 0
SampleSet: Soft
StackLeniency: 0.7
Mode: 0
LetterboxInBreaks: 0

[Editor]
DistanceSpacing: 1.2
BeatDivisor: 4
GridSize: 8

[Metadata]
Title:Be Starters! (TV Size)
Artist:Kitamura Eri
Creator:Ryafuka
Version:Insane
Source:Mayo Chiki!
Tags:opening sorda s_o_r_d_a cocowet

[Difficulty]
HPDrainRate:7
CircleSize:4
OverallDifficulty:7
ApproachRate:8
SliderMultiplier:1.6
SliderTickRate:2

[Events]
//Background and Video events
0,0,"BG.jpg"
Video,0,"Be Starters!.AVI"
//Break Periods
//Storyboard Layer 0 (Background)
//Storyboard Layer 1 (Fail)
//Storyboard Layer 2 (Pass)
//Storyboard Layer 3 (Foreground)
//Storyboard Sound Samples
//Background Colour Transformations
3,100,163,162,255

[TimingPoints]
76,357.142857142857,4,2,1,65,1,0
6772,-100,4,1,0,50,0,0
6950,-100,4,2,0,70,0,0
12843,-100,4,2,0,90,0,0
13021,-100,4,2,1,70,0,0
21949,-100,4,2,1,65,0,0
22128,-100,4,2,1,70,0,0
24628,-100,4,2,1,60,0,0
29984,-100,4,2,1,70,0,0
30163,-100,4,2,1,60,0,0
31413,-100,4,2,1,70,0,0
31591,-100,4,2,1,60,0,0
32841,-100,4,2,1,70,0,0
33020,-100,4,2,1,60,0,0
34270,-100,4,2,1,75,0,0
34448,-100,4,2,1,60,0,0
35698,-100,4,2,1,80,0,0
35877,-100,4,2,1,70,0,0
46055,-100,4,2,1,80,0,0
46233,-100,4,2,1,70,0,0
46412,-100,4,2,1,80,0,0
46591,-100,4,2,1,70,0,0
46680,-100,4,2,1,80,0,0
46769,-100,4,2,1,70,0,0
47218,-100,4,2,1,80,0,0
47305,-100,4,2,1,60,0,0
47841,-100,4,2,1,70,0,0
48376,-133.333333333333,4,2,1,60,0,0
49269,-133.333333333333,4,2,1,75,0,0
49448,-133.333333333333,4,2,1,60,0,0
49983,-133.333333333333,4,2,1,75,0,0
50162,-133.333333333333,4,2,1,60,0,0
50697,-133.333333333333,4,2,1,75,0,0
50876,-133.333333333333,4,2,1,60,0,0
51233,-100,4,2,1,75,0,0
51769,-100,4,2,1,60,0,0
52126,-100,4,2,1,70,0,0
52662,-100,4,2,1,75,0,0
52840,-100,4,2,1,65,0,0
54090,-100,4,2,1,80,0,0
54269,-100,4,2,1,70,0,0
55697,-100,4,2,1,85,0,0
55876,-100,4,2,1,75,0,0
57215,-100,4,2,1,90,0,0
57304,-100,4,2,1,80,0,0
57840,-100,4,2,1,95,0,0
58018,-100,4,2,1,85,0,0
58376,-100,4,2,1,50,0,0
58733,-100,4,2,1,60,0,0
59090,-100,4,2,1,70,0,0
59447,-100,4,2,1,80,0,0
59983,-100,4,2,1,90,0,0
60161,-100,4,2,0,60,0,0
60429,-100,4,2,0,90,0,0
60518,-100,4,2,0,60,0,0
60786,-100,4,2,0,90,0,0
60875,-100,4,2,0,60,0,0
60965,-100,4,2,0,90,0,0
61054,-100,4,2,0,60,0,0
61143,-100,4,2,0,90,0,0
61233,-100,4,2,0,60,0,0
61322,-100,4,2,0,60,0,0
61504,-100,4,2,0,90,0,1
61590,-100,4,2,1,85,0,1
72660,-100,4,2,1,80,0,1
72754,-100,4,2,1,80,0,0
72933,-100,4,2,1,90,0,1
73018,-100,4,2,1,80,0,1
87040,-100,4,2,0,80,0,0

[Colours]
Combo1 : 255,255,0
Combo2 : 5,240,5
Combo3 : 5,5,240

[HitObjects]
63,271,1326,1,0
63,271,1504,2,0,B|119:331|215:306,1,160,2|0
287,248,2040,1,2
197,213,2218,1,0
211,308,2397,2,0,B|232:216|312:186,1,160,2|0
448,320,2933,5,0
448,321,3111,2,0,B|489:241,2,80,0|2|0
378,254,3647,2,0,B|313:197|217:232,1,160,0|2
229,324,4183,1,0
324,319,4361,6,0,B|406:279|421:192,1,160,2|0
420,198,4897,1,2
66,51,5254,2,0,B|90:115|190:144,1,160,0|2
239,226,5790,1,0
282,139,5968,2,0,B|350:81,2,80,0|2|0
337,217,6504,2,0,B|389:237|437:197|497:223,2,160,2|0|2
133,332,7576,5,0
133,332,7933,2,0,B|176:256|143:172,1,160,2|0
68,119,8468,2,0,B|110:70|181:112|214:55,1,160,2|0
211,60,9004,1,2
452,80,9361,5,0
452,80,9718,1,2
152,319,10076,5,2
238,259,10254,1,0
238,153,10433,1,2
151,94,10611,1,0
64,153,10790,1,2
64,258,10968,1,0
151,319,11147,1,2
256,192,11325,12,8,12575
368,336,12933,5,4
444,278,13111,1,0
385,201,13290,1,8
306,256,13468,2,0,B|264:313|172:340,1,160,2|0
80,304,14004,1,8
29,211,14183,6,0,B|78:151|166:130,1,160,2|0
188,223,14718,2,0,B|256:163,1,80,10|0
234,74,15075,2,0,B|275:52|352:104|397:68,1,160,2|10
409,65,15522,1,0
427,58,15611,1,0
448,176,15790,5,2
429,270,15968,1,0
357,206,16147,1,8
291,276,16325,2,0,B|237:335,2,80,2|0|0
291,276,16861,1,8
221,209,17040,6,0,B|154:196|68:245,1,160,2|0
16,326,17575,2,0,B|75:171,1,160,10|2
81,158,18022,1,0
89,139,18111,1,0
296,317,18290,1,10
239,84,18647,6,0,B|284:56|347:86|400:42,1,160,2|8
465,225,19361,1,2
405,300,19540,1,0
314,333,19718,1,8
218,332,19897,2,0,B|128:352|136:192|24:208,1,240,2|8
393,70,20790,5,2
324,138,20968,1,0
256,70,21147,1,10
187,138,21325,1,0
119,70,21504,5,6
258,322,22040,1,6
394,71,22575,1,6
256,192,22754,12,4,24361
448,96,24718,6,0,B|387:40|297:47,1,160,0|2
247,126,25254,1,0
342,133,25433,2,0,B|361:174|332:221,2,80,0|0|0
424,182,25968,1,0
398,274,26147,1,0
303,290,26325,1,0
256,206,26504,1,2
245,110,26683,2,0,B|199:116|176:160,1,80
172,249,27040,2,0,B|171:299|130:321,1,80,0|0
33,47,27575,5,0
106,224,27933,1,2
238,85,28290,2,0,B|282:117|335:61|395:100,2,160,0|0|0
201,174,29183,1,0
201,174,29272,1,0
201,174,29361,1,2
201,174,29540,2,0,B|201:252,2,80,0|0|0
298,158,30075,2,0,B|311:237|402:277,1,160,2|0
472,216,30611,5,0
468,312,30790,2,0,B|419:374|314:359,1,160,2|0
269,280,31325,1,0
205,208,31504,2,0,B|122:199|53:265,1,160,2|0
90,350,32040,1,0
186,350,32218,2,0,B|274:349,2,80,2|0|0
186,350,32754,1,0
173,141,32933,5,2
173,141,33022,1,0
173,141,33111,2,0,B|240:144|240:64|308:54,1,160
329,148,33647,1,2
425,145,33825,1,0
382,230,34004,1,0
477,243,34183,1,0
414,315,34361,2,0,B|387:344|344:350,1,80,2|0
247,354,34718,5,2
227,354,34808,1,0
207,354,34897,1,0
187,354,34986,1,0
166,354,35075,1,2
146,354,35165,1,0
126,354,35254,1,0
105,354,35343,1,0
85,354,35433,2,2,B|28:292|69:196,1,160,2|4
353,65,36147,6,0,B|444:72|498:149,1,160,8|0
395,159,36683,1,0
395,159,36772,1,0
395,159,36861,2,0,B|402:213|346:250|336:312,1,160,8|0
432,316,37397,1,0
461,224,37576,5,8
460,224,37754,2,0,B|417:249|348:227|285:254,1,160
246,325,38290,2,0,B|199:300|190:231|119:204,1,160,8|0
65,277,38826,1,0
139,336,39004,2,0,B|194:266|199:162,1,160,8|0
100,190,39540,1,0
149,107,39718,5,8
149,107,39808,1,0
149,107,39897,1,0
149,107,39986,1,0
149,107,40076,2,0,B|184:72|228:81,1,80
407,130,40433,2,0,B|378:172|328:160,1,80,8|0
242,161,40790,6,0,B|204:180|205:249,1,80,0|0
355,350,41147,2,0,B|384:318|382:274,1,80,8|0
394,85,41504,2,0,B|328:142|312:254,1,160,0|8
319,242,41951,1,0
322,261,42040,1,0
395,323,42218,2,0,B|343:363|287:335|232:364,1,160,0|8
147,351,42754,5,0
147,351,42933,2,0,B|104:360|70:317,2,80,0|0|8
117,193,43468,1,0
117,193,43647,2,0,B|156:214|146:263,2,80,0|0|8
21,202,44183,6,0,B|12:152|47:106,1,80
103,58,44540,2,0,B|143:30|197:62,1,80,0|8
241,186,44897,2,0,B|198:188|175:148,1,80
264,24,45254,2,0,B|280:63|252:103,1,80,0|8
342,154,45611,2,0,B|359:202|418:214,1,80,4|0
492,228,45968,1,0
416,286,46147,5,4
416,286,46236,1,0
416,286,46326,1,0
475,103,46504,1,4
455,106,46593,1,0
436,113,46683,1,0
419,123,46772,1,0
403,136,46861,1,0
389,150,46951,1,0
377,166,47040,1,0
371,185,47129,1,0
365,204,47218,6,0,B|267:204,1,80,4|0
285,204,47576,1,0
99,327,47933,1,8
56,215,48111,1,8
173,240,48290,1,0
133,126,48468,2,0,B|179:81|265:95|299:52,1,179.999994635582,8|2
439,54,49361,6,0,B|461:98|416:146|428:199,1,119.999996423721,8|0
416,314,50076,2,0,B|373:316|348:264|291:262,1,119.999996423721,8|0
269,125,50790,2,0,B|256:174|212:177|188:241,1,119.999996423721,8|0
69,77,51504,5,8
67,173,51683,1,8
156,138,51861,1,0
205,220,52040,1,0
115,255,52218,1,8
112,266,52308,1,0
108,277,52397,1,8
104,288,52486,1,0
100,299,52576,1,8
260,322,52754,6,0,B|297:343|355:334,1,80,4|0
422,290,53111,2,0,B|442:243|477:215,1,80,0|8
479,128,53468,2,0,B|490:85|470:42,2,80,0|0|8
479,128,54004,1,8
388,95,54183,6,0,B|307:59|216:70,1,160,4|0
139,41,54718,2,0,B|140:136|74:199,1,160,8|0
157,251,55254,1,0
20,345,55433,2,0,B|36:305|78:290,1,80,8|0
156,250,55790,6,0,B|247:277|308:207,1,160,4|8
276,122,56326,2,0,B|311:92|363:95,1,80,0|0
433,141,56683,2,0,B|437:192|483:228,1,80,0|8
408,289,57040,5,0
408,289,57129,1,0
408,289,57218,2,0,B|354:289|306:326|241:310,1,160,4|8
173,330,57754,1,0
173,330,57933,1,4
95,273,58111,1,0
95,273,58290,1,8
126,116,58468,6,0,B|122:72|82:48,1,80,0|12
180,35,58826,2,0,B|209:70|258:67,1,80,0|8
204,152,59183,2,0,B|248:168|265:225,1,80,0|12
238,301,59540,2,0,B|255:340|308:349,1,80,0|8
319,347,59808,1,0
338,347,59897,1,0
431,322,60076,5,2
443,306,60165,1,0
452,288,60254,1,0
457,268,60343,1,0
462,248,60433,1,2
464,228,60522,1,0
461,208,60611,1,0
456,188,60701,1,0
448,169,60790,1,2
439,150,60879,1,0
429,131,60968,1,2
420,113,61058,1,0
408,96,61147,1,2
328,41,61326,6,0,B|233:41,1,80,0|4
227,135,61683,1,0
281,213,61861,2,0,B|365:249,1,80,8|0
336,149,62218,1,0
245,95,62397,2,0,B|157:60,1,80,0|8
93,30,62754,2,0,B|66:82|104:146|77:201,1,160
32,269,63290,2,0,B|79:338|181:349,1,160,8|0
252,304,63826,2,0,B|294:274|343:286,1,80,0|8
405,339,64183,5,0
405,339,64272,1,0
405,339,64361,2,0,B|459:266|449:166,1,160,4|8
355,171,64897,2,0,B|316:151|307:98,1,80,0|0
389,55,65254,2,0,B|317:96|220:78,1,160,8|8
193,167,65790,1,0
105,207,65968,1,0
47,130,66147,1,8
104,52,66326,1,0
200,72,66504,2,0,B|294:72,2,80,0|0|8
62,343,67218,6,0,B|127:299|240:320,1,160,4|8
309,337,67754,1,0
309,337,67933,2,0,B|363:343|408:283|468:286,1,160,0|8
417,198,68468,1,0
417,198,68647,2,0,B|417:111|316:70,1,160,0|8
272,153,69183,1,0
272,153,69361,2,0,B|218:147|200:70|117:66,1,160,0|8
118,69,69808,1,0
100,77,69897,1,0
53,264,70076,6,0,B|93:294|146:301,1,80,4|0
147,178,70433,1,8
147,178,70611,1,4
238,255,70790,2,0,B|275:280|287:328,1,80,0|0
401,346,71147,1,8
401,346,71326,1,4
453,238,71504,2,0,B|490:217|492:161,1,80,0|0
398,94,71861,5,4
398,94,71951,1,0
398,94,72040,1,0
398,94,72129,1,0
398,94,72218,2,0,B|398:14,2,80,4|4|8
240,71,72754,6,0,B|225:106|182:130,1,80,0|4
93,100,73111,1,0
93,100,73290,2,0,B|49:106|22:158,2,80,8|0|0
120,192,73826,2,0,B|155:226|138:291,1,80,0|8
49,289,74183,2,0,B|131:272|206:322,1,160,0|0
219,328,74629,1,0
237,335,74718,2,0,B|340:335|403:276,1,160,8|0
460,228,75254,1,2
460,228,75433,1,8
371,191,75611,6,0,B|371:106,2,80,0|0|0
217,77,76147,2,0,B|258:145,2,80,8|0|0
285,257,76683,2,0,B|243:232|176:254|118:200,1,160,8|8
134,213,77218,1,0
30,52,77397,2,0,B|61:93|48:153,1,80,0|8
50,147,77665,1,0
45,166,77754,1,0
136,298,77933,5,8
377,302,78290,1,4
509,162,78647,2,0,B|449:223,1,80,4|0
292,220,79004,2,0,B|348:164,1,80,8|0
302,79,79361,2,0,B|264:95|203:70|137:79,1,160,0|8
47,245,80076,6,0,B|132:274|217:224|304:253,1,240,2|0
285,268,80701,1,0
285,287,80790,2,0,B|355:341|449:324,1,160,0|8
489,246,81326,1,0
395,226,81504,5,0
395,226,81593,1,0
395,226,81683,1,0
395,226,81861,2,0,B|368:189|381:139,1,80,8|0
461,31,82218,2,0,B|485:67|474:110,1,80,0|0
291,52,82576,2,0,B|245:61|206:124,1,80,8|0
199,238,82933,2,0,B|251:232|268:182,1,80,0|0
123,63,83290,2,0,B|127:121|69:156|79:236,1,160,8|0
79,234,83736,1,0
84,253,83826,1,0
221,335,84004,6,0,B|276:274|379:274,1,160,8|2
459,288,84540,1,2
381,345,84718,2,0,B|370:255|434:189,1,160,8|0
395,106,85254,1,0
487,134,85433,2,0,B|420:171|312:141,1,160,8|2
293,57,85968,1,0
230,129,86147,2,0,B|194:99|135:113,1,80,8|0
48,269,86504,5,2
48,269,86593,1,0
48,269,86683,1,2
48,269,86772,1,0
48,269,86861,2,0,B|81:305|133:284,1,80,8|4
