osu file format v9

[General]
AudioFilename: Be Starters! (TV Size).mp3
AudioLeadIn: 1500
PreviewTime: 61042
Countdown: 0
SampleSet: Soft
StackLeniency: 0.7
Mode: 0
LetterboxInBreaks: 1

[Editor]
Bookmarks: 85570
DistanceSpacing: 0.9
BeatDivisor: 4
GridSize: 4

[Metadata]
Title:Be Starters! (TV Size)
Artist:Kitamura Eri
Creator:Kenezz
Version:Normal
Source:Mayo Chiki!
Tags:opening kenezzedward vicho-kun climbb65588

[Difficulty]
HPDrainRate:3
CircleSize:3
OverallDifficulty:3
ApproachRate:3
SliderMultiplier:1
SliderTickRate:1

[Events]
//Background and Video events
0,0,"BGmoemoe.jpg"
Video,0,"Mayo Chiki! OP.avi"
//Break Periods
2,12738,19869
//Storyboard Layer 0 (Background)
//Storyboard Layer 1 (Fail)
//Storyboard Layer 2 (Pass)
//Storyboard Layer 3 (Foreground)
//Storyboard Sound Samples
//Background Colour Transformations
3,100,163,162,255

[TimingPoints]
1310,357.142857142857,4,2,1,60,1,0
7024,-100,4,2,1,70,0,0
11309,-100,4,2,1,80,0,0
12381,-100,4,2,1,100,0,0
24167,-100,4,2,1,60,0,0
29881,-100,4,2,1,70,0,0
34167,-100,4,2,1,80,0,0
35595,-100,4,2,1,100,0,0
61309,-100,4,2,1,100,0,1
72649,-100,4,2,1,100,0,0
72738,-100,4,2,1,100,0,1
84167,-100,4,2,1,100,0,0
86934,-100,4,2,1,5,0,0

[Colours]
Combo1 : 120,81,54
Combo2 : 0,128,255
Combo3 : 255,255,128
Combo4 : 0,255,128
Combo5 : 255,128,0

[HitObjects]
420,128,1310,2,0,B|464:192|440:272,2,150,2|2|0
340,168,2738,2,0,B|260:236|256:344,1,200,2|2
92,256,4167,6,0,B|48:192|71:113,2,150,2|2|0
172,216,5595,2,0,B|252:148|256:40,1,200,2|2
255,41,6667,1,0
344,48,7024,6,0,B|380:108|380:108|452:84|488:152,2,200,2|0|2
276,104,8809,1,0
256,192,9167,1,2
236,280,9524,1,0
168,336,9881,2,0,B|132:276|132:276|60:300|24:232,1,200,2|0
256,192,11131,12,4,12381
184,184,21309,6,0,B|256:148|328:184,1,150,4|4
352,316,22381,2,0,B|256:364|160:316,2,200,4|2|2
300,240,24167,5,4
212,240,24524,1,2
208,152,24881,2,0,B|256:132|304:152,1,100,0|2
352,76,25595,2,0,B|256:28|160:76,1,200,2|0
76,112,26667,1,0
44,196,27024,6,0,B|148:208|204:304,1,200,2|0
256,228,28095,1,2
308,303,28452,2,0,B|364:208|468:196,1,200,2|0
420,120,29524,2,0,B|388:80|332:76,1,100,2|2
332,256,30595,6,0,B|276:260|256:312|256:312|236:260|180:256,2,200,2|2|2
180,156,32738,6,0,B|188:108|256:80|324:108|332:156,2,200,2|2|4
208,240,34524,2,0,B|256:260|304:240,1,100,2|0
392,224,35238,1,2
392,180,35417,1,0
368,144,35595,1,4
304,84,35952,6,0,B|340:48|396:56,2,100,0|2|0
208,84,37024,2,0,B|172:48|116:56,2,100,2|0|2
256,160,38095,5,0
184,216,38452,2,0,B|196:272|256:296|316:272|328:216,1,200,2|0
256,160,39524,1,2
304,84,39881,6,0,B|256:64|208:84,1,100,2|0
128,132,40595,2,0,B|96:168,4,50,2|2|0|0|2
208,172,41667,1,0
200,260,42024,6,2,B|204:316|256:336|256:336|308:316|312:260,1,200,2|0
304,172,43095,1,0
356,96,43452,1,8
388,128,43631,1,8
400,172,43809,1,0
368,256,44167,6,0,B|396:296|452:312,2,100,2|0|2
280,280,45238,1,8
232,280,45417,1,2
256,148,45952,2,0,B|256:96,3,50,8|0|2|0
136,164,47024,6,0,B|112:268|204:340,1,200,4|8
256,268,48095,1,0
308,339,48452,2,0,B|400:268|376:164,1,200,2|8
436,96,49524,1,0
363,41,49881,6,0,B|320:68|299:116,1,100,2|2
212,116,50595,2,0,B|192:68|148:41,1,100,8|0
100,116,51309,2,0,B|176:188|124:300,1,200,2|8
200,348,52381,1,8
256,276,52738,6,0,B|256:176,2,100,2|8|0
312,348,53809,1,8
387,299,54167,2,0,B|336:188|412:116,1,200,2|2
392,28,55238,1,8
356,56,55417,1,0
324,88,55595,6,0,B|272:64|256:16|256:16|240:64|188:88,1,200,2|0
168,176,56667,1,8
208,256,57024,2,0,B|256:276|304:256,1,100,2|8
344,176,57738,2,0,B|396:176,3,50,2|0|8|2
256,192,58452,12,2,60952
196,212,61309,6,0,B|144:284|196:352,1,150,4|0
256,284,62202,1,0
317,350,62559,2,0,B|367:283|315:211,1,150,2|8
256,148,63452,1,2
120,152,63988,6,0,B|152:112,1,50,0|2
208,40,64524,1,8
208,40,64702,2,0,B|256:60|304:40,1,100,2|0
376,96,65417,1,2
300,144,65774,5,2
300,144,65952,1,8
212,144,66309,1,2
256,224,66667,1,8
316,292,67024,6,0,B|312:344|256:364|256:364|200:344|196:292,1,200,4|0
116,336,68095,1,8
64,264,68452,1,0
92,180,68809,2,0,B|72:132|20:116,2,100,8|2|8
156,116,69881,5,2
156,116,70059,1,0
156,116,70238,2,0,B|156:36|256:-20|356:36|356:116,1,300,8|0
300,188,71667,5,8
212,188,72024,1,2
212,188,72202,1,2
176,268,72559,1,2
176,268,72738,6,0,B|124:288|124:344,1,100,4|8
212,364,73452,1,0
300,364,73809,1,8
388,345,74167,2,0,B|388:288|336:268,2,100,2|8|2
464,296,75238,5,8
456,208,75595,2,0,B|436:104|336:56,1,200,2|0
256,96,76667,1,8
296,176,77024,5,2
256,196,77202,1,0
216,176,77381,1,8
256,96,77738,1,2
256,96,78095,1,8
176,56,78452,6,0,B|77:103|57:207,1,200,2|0
176,344,79881,2,0,B|240:356|256:300|256:300|272:356|336:344,1,200,2|0
336,256,80952,1,8
256,216,81309,5,2
256,172,81488,1,0
320,108,81845,2,0,B|320:48|256:20|192:48|192:108,1,200,2|2
72,168,83095,5,8
56,212,83274,1,0
76,252,83452,1,2
144,312,83809,1,8
160,272,83988,1,0
180,232,84167,6,0,B|212:188|212:188|256:212|300:188|300:188|332:232,1,200,4|2
420,228,85238,1,8
384,144,85595,2,0,B|388:88|340:60,1,100,2|8
256,96,86309,2,0,B|256:248,1,150,2|4
256,192,87024,12,0,88095
