osu file format v12

[General]
AudioFilename: be starters192.mp3
AudioLeadIn: 0
PreviewTime: -1
Countdown: 1
SampleSet: Soft
StackLeniency: 0.7
Mode: 0
LetterboxInBreaks: 1
WidescreenStoryboard: 0

[Editor]
DistanceSpacing: 0.9
BeatDivisor: 4
GridSize: 4

[Metadata]
Title:Be Starters!
TitleUnicode:Be Starters!
Artist:Kitamura Eri
ArtistUnicode:喜多村 英梨
Creator:FreeSongs
Version:Insane
Source:Mayo Chiki!
Tags:
BeatmapID:350253
BeatmapSetID:140176

[Difficulty]
HPDrainRate:8
CircleSize:4
OverallDifficulty:8
ApproachRate:9
SliderMultiplier:2
SliderTickRate:1

[Events]
//Background and Video events
0,0,"bg12.jpg",0,0
//Break Periods
//Storyboard Layer 0 (Background)
//Storyboard Layer 1 (Fail)
//Storyboard Layer 2 (Pass)
//Storyboard Layer 3 (Foreground)
//Storyboard Sound Samples
//Background Colour Transformations
3,100,163,162,255

[TimingPoints]
-110,357.142857142857,4,1,0,100,1,0
1139,-300,4,2,0,100,0,0
7032,-166.666666666667,4,2,0,100,0,0
7747,-125,4,2,0,100,0,0
8461,-100,4,2,0,100,0,0
10425,-166.666666666667,4,2,0,100,0,0
12032,-100,4,2,0,100,0,0
13997,-125,4,2,0,100,0,0
16139,-100,4,2,0,100,0,0
16854,-125,4,2,0,100,0,0
17389,-100,4,2,0,100,0,0
18461,-100,4,2,0,100,0,0
24175,-125,4,2,0,100,0,0
35961,-100,4,2,0,100,0,0
46764,-125,4,2,0,100,0,0
52568,-100,4,2,0,100,0,0
61318,-100,4,2,0,100,0,1
84175,-100,4,2,0,100,0,0
86854,-100,4,2,0,100,0,1
86943,-100,4,2,0,100,0,0

[HitObjects]
408,12,1139,1,0,0:0:0:0:
480,120,1318,2,0,L|452:192,1,66.6666666666667
400,344,1854,2,0,L|364:288,1,66.6666666666667
272,112,2568,1,0,0:0:0:0:
240,224,2747,6,0,L|228:264,2,33.3333333333333
260,112,3282,1,0,0:0:0:0:
192,40,3461,1,0,0:0:0:0:
100,48,3639,1,0,0:0:0:0:
44,100,3818,1,0,0:0:0:0:
32,172,3997,1,0,0:0:0:0:
48,228,4175,6,0,P|88:244|124:236,1,66.6666666666667
300,296,4711,2,0,L|272:236,1,66.6666666666667
192,40,5425,1,0,0:0:0:0:
316,60,5604,6,0,L|339:28,1,33.3333333333333
236,152,5961,2,0,L|252:188,1,33.3333333333333
300,296,6318,1,0,0:0:0:0:
300,296,7032,6,0,L|364:328,1,59.9999981689454
376,204,7389,1,0,0:0:0:0:
300,168,7568,1,0,0:0:0:0:
255,283,7747,6,0,L|304:360,1,80
389,233,8104,1,0,0:0:0:0:
324,136,8283,1,0,0:0:0:0:
160,248,8461,6,0,L|260:284,1,100
476,160,8818,1,0,0:0:0:0:
344,108,8997,1,0,0:0:0:0:
120,136,9175,6,0,L|234:133,1,100
432,20,9532,2,0,L|292:48,1,100
52,208,9889,5,0,0:0:0:0:
128,60,10068,1,0,0:0:0:0:
244,192,10247,1,0,0:0:0:0:
328,40,10425,2,0,L|392:152,1,119.999996337891
404,176,10961,6,0,L|384:299,1,119.999996337891
376,313,11407,1,0,0:0:0:0:
360,331,11497,1,0,0:0:0:0:
334,340,11586,1,0,0:0:0:0:
304,334,11675,1,0,0:0:0:0:
280,311,11764,1,0,0:0:0:0:
271,278,11854,1,0,0:0:0:0:
277,242,11943,1,0,0:0:0:0:
312,223,12032,2,0,L|328:287,1,50
160,180,12211,2,0,L|144:112,1,50
252,0,12389,1,0,0:0:0:0:
252,0,12747,5,0,0:0:0:0:
284,180,12925,1,0,0:0:0:0:
212,12,13104,1,0,0:0:0:0:
320,168,13282,2,0,P|368:148|384:92,1,100
392,4,13639,1,0,0:0:0:0:
400,220,13818,1,0,0:0:0:0:
424,232,13907,1,0,0:0:0:0:
448,248,13997,2,0,L|324:348,1,160
124,360,14532,2,0,L|212:288,1,80
128,236,14889,2,0,L|216:164,1,80
160,148,15157,1,0,0:0:0:0:
132,108,15247,2,0,L|99:131,1,40
248,24,15425,2,0,L|280:0,1,40
132,108,15604,5,0,0:0:0:0:
280,64,15782,1,0,0:0:0:0:
160,148,15961,1,0,0:0:0:0:
312,100,16139,2,0,L|380:176,1,100
484,264,16497,1,0,0:0:0:0:
300,252,16675,2,0,L|360:256,1,50
372,336,16854,2,0,P|328:364|220:332,1,160
116,276,17389,1,0,0:0:0:0:
28,244,17568,1,0,0:0:0:0:
160,152,17747,1,0,0:0:0:0:
200,52,17925,1,0,0:0:0:0:
208,36,18014,1,0,0:0:0:0:
216,20,18104,1,0,0:0:0:0:
356,116,18282,1,0,0:0:0:0:
368,148,18372,1,0,0:0:0:0:
380,180,18461,6,0,B|396:228|396:228|368:300,1,100
300,372,18818,1,0,0:0:0:0:
220,176,18997,1,0,0:0:0:0:
220,176,19086,1,0,0:0:0:0:
220,176,19175,1,0,0:0:0:0:
80,304,19354,1,0,0:0:0:0:
252,192,19532,1,0,0:0:0:0:
116,320,19711,2,0,L|64:364,1,50
40,188,19889,2,0,P|72:108|120:88,1,100
172,256,20247,1,0,0:0:0:0:
164,52,20425,1,0,0:0:0:0:
140,264,20604,1,0,0:0:0:0:
196,44,20782,5,0,0:0:0:0:
231,44,20872,1,0,0:0:0:0:
261,61,20961,1,0,0:0:0:0:
278,90,21050,1,0,0:0:0:0:
284,124,21139,1,0,0:0:0:0:
273,157,21229,1,0,0:0:0:0:
256,187,21318,2,0,L|256:299,1,100
256,384,21675,1,0,0:0:0:0:
348,104,21854,2,0,L|348:232,1,100
348,356,22211,1,0,0:0:0:0:
448,16,22389,1,0,0:0:0:0:
348,276,22747,5,0,0:0:0:0:
348,276,22836,1,0,0:0:0:0:
348,276,22925,1,0,0:0:0:0:
76,204,23104,2,0,L|100:148,1,50
80,240,23282,1,0,0:0:0:0:
96,268,23372,1,0,0:0:0:0:
124,284,23461,1,0,0:0:0:0:
244,32,23639,1,0,0:0:0:0:
264,208,23818,1,0,0:0:0:0:
296,200,23907,1,0,0:0:0:0:
324,184,23997,1,0,0:0:0:0:
348,160,24086,1,0,0:0:0:0:
364,132,24175,6,0,L|428:216,1,80
476,276,24532,1,0,0:0:0:0:
364,96,24711,2,0,L|232:196,1,160
120,276,25247,1,0,0:0:0:0:
200,132,25425,1,0,0:0:0:0:
208,316,25604,2,0,P|264:336|372:308,1,160
468,224,26139,1,0,0:0:0:0:
336,216,26318,1,0,0:0:0:0:
344,80,26497,1,0,0:0:0:0:
236,164,26675,1,0,0:0:0:0:
184,48,26854,1,0,0:0:0:0:
68,4,27032,6,0,P|20:48|0:140,1,160
96,92,27568,2,0,P|140:124|192:116,1,80
316,76,27925,1,0,0:0:0:0:
416,156,28104,1,0,0:0:0:0:
392,24,28282,1,0,0:0:0:0:
488,108,28461,2,0,P|504:176|428:244,1,160
272,40,28997,1,0,0:0:0:0:
156,92,29175,1,0,0:0:0:0:
100,172,29354,1,0,0:0:0:0:
100,276,29532,1,0,0:0:0:0:
116,288,29622,1,0,0:0:0:0:
136,300,29711,1,0,0:0:0:0:
156,316,29800,1,0,0:0:0:0:
176,328,29889,6,0,L|284:328,1,80
304,192,30247,1,0,0:0:0:0:
324,332,30425,1,0,0:0:0:0:
448,228,30604,1,0,0:0:0:0:
460,192,30693,1,0,0:0:0:0:
456,160,30782,1,0,0:0:0:0:
436,128,30872,1,0,0:0:0:0:
408,112,30961,2,0,L|304:112,1,80
132,112,31318,5,0,0:0:0:0:
296,64,31497,1,0,0:0:0:0:
288,40,31586,1,0,0:0:0:0:
280,20,31675,1,0,0:0:0:0:
240,204,31854,1,0,0:0:0:0:
380,272,32032,1,0,0:0:0:0:
216,320,32211,1,0,0:0:0:0:
224,344,32300,1,0,0:0:0:0:
232,364,32389,1,0,0:0:0:0:
272,180,32568,1,0,0:0:0:0:
56,176,32747,5,0,0:0:0:0:
304,288,32925,1,0,0:0:0:0:
160,104,33104,1,0,0:0:0:0:
48,304,33282,1,0,0:0:0:0:
176,260,33461,2,0,L|144:225,1,40
172,268,33639,2,0,L|124:256,1,40
168,276,33818,2,0,L|120:288,1,40
164,288,33997,2,0,L|116:332,1,40
256,192,34175,1,0,0:0:0:0:
256,192,35604,5,0,0:0:0:0:
200,96,35782,1,0,0:0:0:0:
172,48,35872,1,0,0:0:0:0:
120,48,35961,2,0,L|20:48,1,100
284,48,36318,2,0,L|408:48,1,100
140,172,36675,2,0,L|36:204,1,100
280,124,37032,5,0,0:0:0:0:
380,208,37211,1,0,0:0:0:0:
412,196,37300,1,0,0:0:0:0:
444,184,37389,1,0,0:0:0:0:
256,228,37568,1,0,0:0:0:0:
316,120,37747,2,0,L|224:40,1,100
256,228,38104,1,0,0:0:0:0:
280,252,38193,1,0,0:0:0:0:
304,276,38282,1,0,0:0:0:0:
328,300,38372,1,0,0:0:0:0:
352,324,38461,6,0,L|440:248,1,100
472,28,38818,2,0,L|396:93,1,100
236,200,39175,2,0,L|236:80,1,100
232,340,39532,1,0,0:0:0:0:
232,340,39889,6,0,P|188:272|144:260,1,100
92,128,40247,2,0,P|160:88|176:48,1,100
284,24,40604,1,0,0:0:0:0:
424,80,40782,1,0,0:0:0:0:
436,52,40872,1,0,0:0:0:0:
448,24,40961,1,0,0:0:0:0:
392,208,41139,1,0,0:0:0:0:
392,208,41318,6,0,P|452:244|512:248,1,100
320,112,41675,1,0,0:0:0:0:
200,116,41854,1,0,0:0:0:0:
88,184,42032,2,0,P|28:220|-32:224,1,100
168,80,42389,1,0,0:0:0:0:
292,80,42568,1,0,0:0:0:0:
380,156,42747,6,0,P|436:104|440:52,1,100
276,160,43104,1,0,0:0:0:0:
204,252,43282,1,0,0:0:0:0:
236,360,43461,2,0,P|188:384|124:376,1,100
320,176,43818,1,0,0:0:0:0:
376,296,43997,1,0,0:0:0:0:
392,320,44086,1,0,0:0:0:0:
408,348,44175,5,0,0:0:0:0:
416,120,44354,1,0,0:0:0:0:
248,104,44532,2,0,L|332:188,1,100
392,256,44889,1,0,0:0:0:0:
416,120,45068,1,0,0:0:0:0:
276,40,45247,2,0,L|212:24,1,50
212,188,45425,2,0,P|240:224|128:280,1,200
112,276,45872,1,0,0:0:0:0:
80,256,45961,6,0,L|48:332,1,50
40,176,46139,2,0,L|8:112,1,50
92,88,46318,2,0,L|104:32,1,50
188,60,46497,2,0,L|232:24,1,50
288,92,46675,1,0,0:0:0:0:
308,124,46764,1,0,0:0:0:0:
314,162,46854,1,0,0:0:0:0:
300,197,46943,1,0,0:0:0:0:
276,227,47032,6,0,P|364:260|416:216,1,160
424,124,47568,1,0,0:0:0:0:
344,44,47747,2,0,L|264:-8,2,80
424,124,48282,1,0,0:0:0:0:
424,232,48461,1,0,0:0:0:0:
352,312,48639,2,0,L|376:348,2,40
228,308,48997,1,0,0:0:0:0:
228,308,49175,6,0,L|188:232,1,80
80,224,49532,2,0,L|44:148,1,80
128,72,49889,2,0,L|88:-8,1,80
192,176,50247,1,0,0:0:0:0:
236,60,50425,1,0,0:0:0:0:
236,60,50514,1,0,0:0:0:0:
236,60,50604,6,0,P|300:92|392:44,1,160
488,0,51139,1,0,0:0:0:0:
512,168,51318,2,0,L|428:168,1,80
364,272,51675,2,0,L|444:272,1,80
244,348,52032,1,0,0:0:0:0:
216,342,52122,1,0,0:0:0:0:
191,329,52211,1,0,0:0:0:0:
171,308,52300,1,0,0:0:0:0:
159,282,52389,2,0,L|137:223,1,40
60,152,52568,6,0,P|104:96|152:80,1,100
240,188,52925,1,0,0:0:0:0:
240,36,53104,2,0,L|332:96,1,100
184,164,53461,1,0,0:0:0:0:
380,64,53639,1,0,0:0:0:0:
396,100,53729,1,0,0:0:0:0:
412,136,53818,1,0,0:0:0:0:
452,232,53997,6,0,P|408:288|360:304,1,100
260,316,54354,1,0,0:0:0:0:
396,100,54532,2,0,L|352:220,1,100
348,312,54889,1,0,0:0:0:0:
296,116,55068,1,0,0:0:0:0:
284,88,55157,1,0,0:0:0:0:
264,64,55247,1,0,0:0:0:0:
236,48,55336,1,0,0:0:0:0:
204,44,55425,1,0,0:0:0:0:
172,48,55514,1,0,0:0:0:0:
140,64,55604,6,0,L|60:0,1,100
184,200,55961,2,0,P|248:192|284:148,1,100
48,168,56318,1,0,0:0:0:0:
204,120,56497,1,0,0:0:0:0:
56,300,56675,1,0,0:0:0:0:
80,324,56764,1,0,0:0:0:0:
108,340,56854,1,0,0:0:0:0:
140,348,56943,1,0,0:0:0:0:
172,344,57032,6,0,P|244:324|300:340,1,100
436,364,57389,2,0,L|456:232,1,100
460,220,57657,1,0,0:0:0:0:
468,172,57747,2,0,L|392:168,1,50
384,92,57925,2,0,L|324:116,1,50
260,68,58104,2,0,L|232:124,1,50
144,108,58282,5,0,0:0:0:0:
144,108,58372,1,0,0:0:0:0:
144,108,58461,1,0,0:0:0:0:
96,224,58639,1,0,0:0:0:0:
112,220,58729,1,0,0:0:0:0:
128,216,58818,1,0,0:0:0:0:
140,340,58997,1,0,0:0:0:0:
124,356,59086,1,0,0:0:0:0:
108,376,59175,1,0,0:0:0:0:
264,384,59354,1,0,0:0:0:0:
264,352,59443,1,0,0:0:0:0:
264,320,59532,1,0,0:0:0:0:
400,316,59711,1,0,0:0:0:0:
440,344,59800,1,0,0:0:0:0:
484,368,59889,5,0,0:0:0:0:
497,340,59979,1,0,0:0:0:0:
491,310,60068,1,0,0:0:0:0:
474,284,60157,1,0,0:0:0:0:
465,255,60247,1,0,0:0:0:0:
466,225,60336,1,0,0:0:0:0:
478,197,60425,1,0,0:0:0:0:
485,167,60514,1,0,0:0:0:0:
481,136,60604,1,0,0:0:0:0:
445,109,60693,1,0,0:0:0:0:
406,77,60782,1,0,0:0:0:0:
362,43,60872,1,0,0:0:0:0:
313,8,60961,1,0,0:0:0:0:
140,168,61139,1,0,0:0:0:0:
344,156,61318,6,0,L|236:64,1,100
200,20,61675,1,0,0:0:0:0:
128,256,61854,1,0,0:0:0:0:
128,256,61943,1,0,0:0:0:0:
128,256,62032,2,0,P|192:240|224:192,1,100
312,8,62389,1,0,0:0:0:0:
312,8,62747,2,0,L|404:80,1,100
424,280,63104,2,0,L|345:218,1,100
256,136,63461,1,0,0:0:0:0:
172,20,63639,1,0,0:0:0:0:
132,44,63729,1,0,0:0:0:0:
116,84,63818,1,0,0:0:0:0:
160,284,63997,1,0,0:0:0:0:
264,304,64175,6,0,P|244:360|200:380,1,100
224,176,64532,1,0,0:0:0:0:
272,52,64711,1,0,0:0:0:0:
272,52,64800,1,0,0:0:0:0:
272,52,64889,1,0,0:0:0:0:
464,92,65068,1,0,0:0:0:0:
308,148,65247,1,0,0:0:0:0:
424,0,65425,1,0,0:0:0:0:
456,184,65604,2,0,L|348:204,1,100
280,292,65961,2,0,L|181:309,1,100
92,384,66318,1,0,0:0:0:0:
16,272,66497,1,0,0:0:0:0:
60,152,66675,1,0,0:0:0:0:
76,132,66764,1,0,0:0:0:0:
96,112,66854,1,0,0:0:0:0:
116,96,66943,1,0,0:0:0:0:
136,76,67032,6,0,L|252:76,1,100
512,76,67389,1,0,0:0:0:0:
368,184,67568,1,0,0:0:0:0:
216,28,67747,2,0,L|316:86,1,100
512,216,68104,1,0,0:0:0:0:
424,40,68282,1,0,0:0:0:0:
512,216,68461,2,0,P|468:284|424:304,1,100
280,360,68818,1,0,0:0:0:0:
368,184,68997,1,0,0:0:0:0:
280,360,69175,2,0,P|208:368|160:340,1,100
72,232,69532,1,0,0:0:0:0:
256,192,69711,1,0,0:0:0:0:
176,272,69889,5,0,0:0:0:0:
336,272,70068,1,0,0:0:0:0:
336,112,70247,1,0,0:0:0:0:
176,112,70425,1,0,0:0:0:0:
176,112,70514,1,0,0:0:0:0:
176,112,70604,1,0,0:0:0:0:
220,305,70782,1,0,0:0:0:0:
414,261,70961,1,0,0:0:0:0:
369,67,71139,1,0,0:0:0:0:
320,324,71497,5,0,0:0:0:0:
320,324,71675,2,0,L|420:324,1,100
256,104,72032,1,0,0:0:0:0:
208,216,72211,2,0,L|135:230,1,50
31,247,72389,2,0,L|62:169,1,50
96,82,72568,2,0,L|143:136,1,50
275,290,72747,6,0,L|208:216,1,100
216,48,73104,1,0,0:0:0:0:
208,216,73282,1,0,0:0:0:0:
208,216,73372,1,0,0:0:0:0:
208,216,73461,2,0,P|172:260|104:268,1,100
268,92,73818,1,0,0:0:0:0:
268,92,74175,2,0,L|384:64,1,100
512,40,74532,1,0,0:0:0:0:
460,176,74711,1,0,0:0:0:0:
440,204,74800,1,0,0:0:0:0:
436,236,74889,1,0,0:0:0:0:
332,144,75068,1,0,0:0:0:0:
444,268,75247,1,0,0:0:0:0:
416,108,75425,1,0,0:0:0:0:
364,316,75604,6,0,P|324:356|268:360,1,100
240,136,75961,1,0,0:0:0:0:
88,264,76139,1,0,0:0:0:0:
88,264,76229,1,0,0:0:0:0:
88,264,76318,1,0,0:0:0:0:
172,84,76497,1,0,0:0:0:0:
188,284,76675,1,0,0:0:0:0:
200,52,76854,1,0,0:0:0:0:
188,284,77032,6,0,L|280:240,1,100
488,136,77389,2,0,L|364:88,1,100
228,20,77747,1,0,0:0:0:0:
396,100,77925,1,0,0:0:0:0:
240,192,78104,1,0,0:0:0:0:
216,212,78193,1,0,0:0:0:0:
192,232,78282,1,0,0:0:0:0:
172,252,78372,1,0,0:0:0:0:
148,272,78461,6,0,P|208:324|244:328,1,100
144,144,78818,2,0,P|88:156|40:204,1,100
36,224,79086,1,0,0:0:0:0:
36,224,79175,2,0,L|52:110,1,100
216,120,79532,1,0,0:0:0:0:
250,149,79622,1,0,0:0:0:0:
294,154,79711,1,0,0:0:0:0:
333,133,79800,1,0,0:0:0:0:
353,92,79889,6,0,P|325:17|296:-3,1,100
305,201,80246,2,0,P|359:217|425:198,1,100
436,184,80514,1,0,0:0:0:0:
436,184,80604,2,0,L|391:273,1,100
252,276,80961,2,0,L|207:365,1,100
207,365,81229,1,0,0:0:0:0:
207,365,81318,5,0,0:0:0:0:
128,220,81497,1,0,0:0:0:0:
352,284,81675,1,0,0:0:0:0:
264,120,81854,1,0,0:0:0:0:
208,368,82032,1,0,0:0:0:0:
380,100,82211,1,0,0:0:0:0:
352,284,82389,1,0,0:0:0:0:
120,56,82568,1,0,0:0:0:0:
120,56,82925,5,0,0:0:0:0:
100,72,83014,1,0,0:0:0:0:
80,92,83104,1,0,0:0:0:0:
216,144,83282,1,0,0:0:0:0:
248,172,83372,1,0,0:0:0:0:
280,200,83461,2,0,L|332:240,3,50
224,316,83818,2,0,L|176:364,1,50
112,268,83997,2,0,L|68:220,1,50
160,156,84175,6,0,P|192:112|256:96,1,100
392,100,84532,1,0,0:0:0:0:
428,296,84711,1,0,0:0:0:0:
420,332,84800,1,0,0:0:0:0:
412,368,84889,1,0,0:0:0:0:
268,320,85068,1,0,0:0:0:0:
232,340,85157,1,0,0:0:0:0:
200,360,85247,2,0,P|128:348|88:308,1,100
224,176,85604,6,0,P|220:236|176:276,2,100
116,72,86139,1,0,0:0:0:0:
72,52,86229,1,0,0:0:0:0:
28,32,86318,1,0,0:0:0:0:
412,16,86497,1,0,0:0:0:0:
256,256,86854,5,0,0:0:0:0:
256,192,86943,12,0,88104,0:0:0:0:
