osu file format v6

[General]
AudioFilename: Agressive zone.mp3
AudioLeadIn: 1507
PreviewTime: 17203
Countdown: 1
SampleSet: Normal
StackLeniency: 0.7
Mode: 0
LetterboxInBreaks: 1

[Editor]
DistanceSpacing: 0.910000026226044
BeatDivisor: 4
GridSize: 32

[Metadata]
Title:Agressive zone (TV Size)
Artist:Kitamura Eri & Endou Ayu & Gotou Saori & Makino Yui & Katou Emiri
Creator:ElxBeta
Version:Normal+
Source:
Tags:Needless kitamura eri

[Difficulty]
HPDrainRate:2
CircleSize:4
OverallDifficulty:7
SliderMultiplier:1
SliderTickRate:1

[Events]
//Background and Video events
Video,0,"video.flv"
0,0,";D.jpg"
//Break Periods
2,10697,17145
//Storyboard Layer 0 (Background)
//Storyboard Layer 1 (Fail)
//Storyboard Layer 2 (Pass)
//Storyboard Layer 3 (Foreground)
//Storyboard Sound Samples
//Background Colour Transformations
3,100,163,162,255

[TimingPoints]
9.12097917603011,317.124735729387,4,1,0,53,1,0
9.64291449765914,318.403735937168,4,1,0,53,1,0
17203,318.403735937168,4,1,0,53,1,0
18954,-200,4,1,0,53,0,0
19962,318.403735937168,4,1,0,53,1,0
21341,318.403735937168,4,1,0,53,1,0
21447,-50,4,1,0,53,0,0
23331,-200,4,1,0,53,0,0
24286,-100,4,1,0,53,0,0
40684,-200,4,1,0,53,0,0
41559,-200,4,1,0,53,0,0
43788,-100,4,1,0,53,0,0
67270,-100,4,1,0,36,0,0

[Colours]
Combo1 : 128,255,128
Combo2 : 0,128,255
Combo3 : 255,128,192
Combo4 : 255,255,128

[HitObjects]
256,32,328,1,0
192,96,646,1,0
128,160,964,1,0
128,256,1283,1,0
224,256,1601,1,0
320,256,1920,2,0,B|384:256,1,50
320,160,2397,2,0,B|384:160,3,50
320,224,3184,1,0
384,224,3343,1,0
192,288,4012,6,0,L|310:289,1,100
160,352,4607,1,0
256,352,4924,1,0
320,352,5083,1,0
320,224,5422,6,0,L|384:128,1,100,0|0
320,96,6034,2,0,L|256:192,1,100
384,224,6668,1,0
288,224,6985,1,0
224,224,7144,1,0
224,128,7492,5,0
288,128,7620,2,0,L|352:128,5,50
256,192,8928,12,0,10497
256,64,18045,5,0
160,192,18521,5,0
384,192,18965,6,0,B|256:288,1,150
220,290,20121,5,0
128,224,20387,5,0
192,224,20598,1,0
288,224,20865,1,0
288,160,21076,1,0
288,64,21501,6,0,B|393:63,1,100
448,256,21977,5,0
352,256,22296,1,0
288,256,22455,1,0
192,192,22826,5,0
288,192,23092,1,0
288,128,23251,1,0
288,64,23410,1,0
352,64,23569,1,0
224,128,23888,5,0
160,128,24206,1,0
160,192,24525,2,0,B|128:192|128:192|96:192|96:256,2,100,0|0|0
192,288,25639,5,0
288,288,25957,2,0,B|352:288,3,50
384,224,26753,1,0
320,160,27072,1,0
256,160,27231,1,0
160,160,27549,2,0,B|41:161,1,100
89,44,28186,2,0,B|148:44,6,50
256,45,29380,5,0
326,115,29699,1,0
297,211,30017,1,0
198,211,30335,1,0
162,116,30654,1,0
256,192,30972,12,0,31609
128,128,32087,5,0
192,128,32246,1,0
256,128,32405,1,0
320,128,32564,1,0
320,192,32723,2,0,B|320:256,1,50
192,256,33201,6,0,B|256:256,1,50
320,256,33679,2,0,B|384:256,2,50
320,192,34315,1,0
320,64,34634,5,0
230,64,34952,1,0
139,64,35271,1,0
96,128,35589,1,0
96,192,35748,2,0,B|128:256|160:288|192:288|224:256|224:224|224:192,1,250,0|0
288,160,36863,1,0
352,160,37181,2,0,B|416:160,1,50
384,224,37579,2,0,B|256:224,1,125
160,224,38295,6,0,B|96:224,3,50
160,128,39092,1,0
192,64,39251,1,0
256,96,39410,1,0
160,192,40126,5,0
224,192,40445,1,0
288,192,40763,2,0,B|416:192,1,125
416,288,41878,2,0,B|384:288,1,25
320,256,42355,1,0
256,224,42674,1,0
192,192,42992,1,0
128,192,43310,2,0,B|96:192|96:160|128:128,1,75
121,135,44106,1,0
121,135,44266,1,0
192,64,44743,5,0
256,64,45062,2,0,B|320:64,3,50
288,160,45858,5,0
224,160,46176,2,0,B|160:160,1,50
128,160,46654,1,0
128,256,46972,1,0
224,256,47370,1,0
352,256,47688,1,0
352,160,48007,1,0
416,64,48325,5,0
256,64,48803,1,0
64,64,49280,1,0
64,160,49758,2,0,B|128:160,1,50,0|0
128,256,50236,6,0,B|192:256,2,50
64,320,50872,2,0,B|224:320,1,150
320,320,51748,1,0
320,256,51987,1,0
224,256,52305,1,0
160,256,52464,1,0
160,128,52783,2,0,B|224:128,3,50
256,128,53420,1,0
352,96,53738,1,0
384,128,53897,1,0
352,224,54216,1,0
256,192,54454,12,0,55967
256,192,56524,5,0
192,192,56763,1,0
128,192,57002,1,0
128,64,57479,1,0
224,64,57798,1,0
416,128,58435,6,0,B|416:288,1,150
288,256,59549,1,0
160,256,59867,2,0,B|224:192,1,75
288,128,60345,1,0
160,128,60663,1,0
32,64,60982,1,0
32,128,61300,2,0,B|32:241,1,100,0|0
32,224,61937,1,0
224,224,62812,5,0
224,128,62971,1,0
288,128,63130,1,0
288,224,63290,1,0
384,224,63529,1,0
416,160,63847,1,0
352,160,64007,2,0,B|352:64|288:192|288:64|192:160|192:64,1,200,0|0
128,96,64962,2,0,B|128:160,1,50
64,224,65439,1,0
160,224,65758,1,0
320,160,66076,5,0
320,160,66235,1,0
256,160,66395,2,0,B|192:160,1,50,0|0
143,158,66793,1,0
143,158,66952,1,0
128,288,67270,5,2
192,288,67589,1,2
256,288,67907,1,2
320,288,68225,1,2
320,96,68544,5,0
257,95,68862,2,0,B|192:96,5,50
