osu file format v12

[General]
AudioFilename: TV size.mp3
AudioLeadIn: 1500
PreviewTime: 56646
Countdown: 0
SampleSet: Normal
StackLeniency: 0.7
Mode: 0
LetterboxInBreaks: 1
WidescreenStoryboard: 0

[Editor]
Bookmarks: 24308,34567,44204
DistanceSpacing: 1
BeatDivisor: 2
GridSize: 8
TimelineZoom: 1

[Metadata]
Title:Sekai no Hate ni Kimi ga Itemo (TV Size)
TitleUnicode:世界の果てに君がいても (TV Size)
Artist:Kita Shuuhei
ArtistUnicode:喜多修平
Creator:F D Flourite
Version:Normal
Source:Sekai Ichi Hatsukoi
Tags:yf_bmp 世界一初恋 Onodera Ritsu Takano Masamune Opening Kita Ponn BL Yaoi
BeatmapID:386904
BeatmapSetID:158142

[Difficulty]
HPDrainRate:3
CircleSize:3
OverallDifficulty:3
ApproachRate:5
SliderMultiplier:0.999999999999999
SliderTickRate:1

[Events]
//Background and Video events
0,0,"1-1210220TK7.jpg",0,0
Video,-193,"Sekai no Hate ni Kimi ga Itemo~1.flv"
//Break Periods
2,14412,17986
//Storyboard Layer 0 (Background)
//Storyboard Layer 1 (Fail)
//Storyboard Layer 2 (Pass)
//Storyboard Layer 3 (Foreground)
//Storyboard Sound Samples
//Background Colour Transformations
3,100,163,162,255

[TimingPoints]
689,310.880829015544,4,1,1,70,1,0
3176,-100,4,1,1,30,0,0
3486,-100,4,1,1,40,0,0
3797,-100,4,1,1,50,0,0
4108,-100,4,1,1,60,0,0
4419,-100,4,1,1,70,0,0
14212,310.880829015544,4,2,1,50,1,0
24315,310.880829015544,4,1,1,50,1,0
24315,-100,4,2,1,50,0,0
33175,-100,4,1,1,55,0,0
34574,-100,4,1,1,65,0,0
43434,-100,4,1,1,45,0,0
44211,-100,4,1,1,70,0,0
51050,-100,4,1,1,80,0,0
51672,-100,4,1,1,65,0,0
55403,-100,4,2,1,5,0,0
55558,-100,4,1,1,65,0,0
56646,-100,4,1,1,85,0,1
78097,-100,4,2,1,75,0,1
78252,-100,4,1,1,85,0,1
81361,310.880829015544,4,1,1,50,1,0
81361,-100,4,1,1,80,0,0
83226,-100,4,2,1,80,0,0
83381,-100,4,1,1,80,0,0
85091,-100,4,1,1,90,0,0
86645,-100,4,1,1,80,0,0
86956,-100,4,1,1,70,0,0
87267,-100,4,1,1,60,0,0
87578,-100,4,1,1,50,0,0
87889,-100,4,1,1,40,0,0
88200,-100,4,1,1,30,0,0
88355,-100,4,2,1,5,0,0

[Colours]
Combo1 : 255,245,117
Combo2 : 131,95,207
Combo3 : 188,255,121
Combo4 : 132,220,253

[HitObjects]
368,160,689,6,0,P|304:104|232:120,1,150,4|0,0:0|0:0,0:0:0:0:
144,224,1622,2,0,P|208:280|280:264,1,150,0|0,0:0|0:0,0:0:0:0:
368,160,2554,2,0,L|268:160,1,99.9999999999999
176,112,3176,6,0,P|240:40|496:120,1,400,0|4,0:0|0:0,0:0:0:0:
464,208,4731,6,0,P|408:168|400:136,1,99.9999999999999,0|0,0:0|0:0,0:0:0:0:
494,117,5351,1,0,0:0:0:0:
424,48,5663,2,0,P|352:56|304:168,1,200,4|0,0:0|0:0,0:0:0:0:
120,240,6907,6,0,B|120:136|120:136|104:72|8:64,1,200,4|0,0:0|0:0,0:0:0:0:
16,168,7839,1,0,0:0:0:0:
11,265,8150,2,0,P|99:353|227:233,1,300
227,168,9394,1,4,0:0:0:0:
424,184,10016,6,0,L|424:72,1,99.9999999999999
330,48,10637,2,0,P|234:68|142:7,2,200,4|0|4,0:0|0:0|0:0,0:0:0:0:
424,84,12192,2,0,L|424:251,1,150
424,336,12969,1,0,0:0:0:0:
256,192,13124,12,4,14212,0:0:0:0:
64,136,19186,6,0,P|112:208|224:184,1,200,4|0,0:0|0:0,0:0:0:0:
400,128,20429,2,0,P|456:192|408:304,1,200,4|0,0:0|0:0,0:0:0:0:
320,304,21362,1,8,0:0:0:0:
232,264,21672,2,0,P|144:248|34:266,1,200,4|0,0:0|0:0,0:0:0:0:
80,70,22916,6,0,P|151:76|198:65,1,99.9999999999999,4|8,0:0|0:0,0:0:0:0:
256,136,23538,2,0,P|262:207|251:254,1,99.9999999999999,0|8,0:0|0:0,0:0:0:0:
376,144,24315,5,4,0:0:0:0:
320,72,24625,2,0,P|272:48|200:64,1,99.9999999999999,8|0,0:0|0:0,0:0:0:0:
152,120,25247,1,8,0:0:0:0:
256,136,25558,2,0,B|240:208|176:224|176:224|88:224,2,200,2|2|2,0:0|0:0|0:0,0:0:0:0:
326,65,27112,1,8,0:0:0:0:
440,224,27734,5,8,0:0:0:0:
352,272,28045,2,0,P|240:312|176:264,2,200,0|0|0,0:0|0:0|0:0,0:0:0:0:
440,224,29599,1,8,0:0:0:0:
288,88,30221,5,8,0:0:0:0:
200,48,30532,2,0,P|128:48|40:200,1,250,0|2,0:0|0:0,0:0:0:0:
40,280,31620,1,2,0:0:0:0:
256,192,31776,12,4,33175,0:0:0:0:
400,344,34574,6,0,B|360:312|360:312|288:312,1,99.9999999999999,2|0,0:0|0:0,0:0:0:0:
210,301,35196,1,2,0:0:0:0:
112,280,35507,2,0,P|176:208|280:232,2,200,0|0|6,0:0|0:0|0:0,0:0:0:0:
12,277,37061,2,0,B|28:197|104:136|104:136,1,150,8|2,0:0|0:0,0:0:0:0:
176,104,37838,1,0,0:0:0:0:
432,56,38616,6,0,P|384:32|328:40,1,99.9999999999999,0|8,0:0|0:0,0:0:0:0:
368,128,39236,2,0,L|328:296,1,150,2|0,0:0|0:0,0:0:0:0:
312,368,40014,1,2,0:0:0:0:
240,304,40325,2,0,P|160:288|112:312,1,99.9999999999999,0|2,0:0|0:0,0:0:0:0:
96,376,40947,2,0,P|56:328|104:208,1,200,0|2,0:0|0:0,0:0:0:0:
256,192,41724,12,0,43434,0:0:0:0:
244,215,44211,5,4,0:0:0:0:
172,143,44522,2,0,P|188:55|276:15,1,150
268,119,45300,2,0,P|332:167|332:247,1,150,2|0,0:0|0:0,0:0:0:0:
144,240,46388,6,0,L|176:128,1,99.9999999999999,8|0,0:0|0:0,0:0:0:0:
240,72,47010,2,0,B|272:112|272:112|323:82|386:116,1,150,10|0,0:0|0:0,0:0:0:0:
324,195,47787,1,0,0:0:0:0:
386,273,48097,2,0,P|314:297|264:264,2,99.9999999999999,2|0|2,0:0|0:0|0:0,0:0:0:0:
416,176,49030,2,0,P|368:112|280:112,1,150,2|0,0:0|0:0,0:0:0:0:
304,256,49962,6,0,B|240:304|240:304|136:304,1,150,2|0,0:0|0:0,0:0:0:0:
192,208,50740,2,0,B|136:208|136:208|64:272|64:272|-16:272,1,200,10|0,0:0|0:0,0:0:0:0:
32,176,51673,6,0,L|136:80,1,99.9999999999999,4|8,0:0|0:0,0:0:0:0:
192,56,52294,2,0,P|288:56|336:168,2,200,0|4|0,0:0|0:0|0:0,0:0:0:0:
240,144,53849,1,8,0:0:0:0:
256,192,54160,12,0,55404,0:0:0:0:
352,120,56025,6,0,B|432:176|432:176|440:296,1,200,0|4,0:0|0:0,0:0:0:0:
352,224,56958,6,0,L|240:280,1,99.9999999999999,10|0,0:0|0:0,0:0:0:0:
168,248,57579,1,10,0:0:0:0:
72,224,57890,2,0,P|144:152|240:184,1,200,4|0,0:0|0:0,0:0:0:0:
432,184,59134,6,0,P|472:128|400:8,1,200,4|0,0:0|0:0,0:0:0:0:
376,104,60066,1,10,0:0:0:0:
272,104,60377,2,8,L|160:104,1,99.9999999999999,4|8,0:0|0:0,0:0:0:0:
120,192,60999,2,0,L|220:192,2,99.9999999999999,2|8|4,0:0|0:0|0:2,0:0:0:0:
272,320,62243,6,0,P|192:296|128:336,1,150,2|0,0:0|0:0,0:0:0:0:
48,288,63019,1,0,0:0:0:0:
127,227,63330,2,0,B|88:182|29:190|29:190|22:131,1,150,2|0,0:0|0:0,0:0:0:0:
24,40,64108,6,0,P|128:64|200:40,1,150,2|0,0:0|0:0,0:0:0:0:
264,40,64885,1,2,0:0:0:0:
360,56,65196,1,2,0:0:0:0:
368,240,66595,6,0,B|368:200|368:200|304:216|264:160|264:160|224:208,2,200,4|0|0,0:0|0:0|0:0,0:0:0:0:
440,168,68149,2,0,P|408:128|328:136,1,99.9999999999999,10|0,0:0|0:0,0:0:0:0:
176,184,69082,6,0,B|120:136|120:136|200:120|208:40,1,200,4|0,0:0|0:0,0:0:0:0:
107,35,70015,2,0,L|-5:35,1,99.9999999999999,8|4,0:0|0:0,0:0:0:0:
0,136,70636,2,0,B|80:208|80:208|104:264|16:304,1,200,8|8,0:0|0:0,0:0:0:0:
120,360,71569,1,0,0:0:0:0:
216,184,72191,6,0,P|288:152|384:216,2,200,0|4|0,0:0|0:0|0:0,0:0:0:0:
344,328,74055,6,0,B|288:336|256:296|256:296|200:320,1,150,6|2,0:0|0:0,0:0:0:0:
112,288,74833,2,0,P|64:232|93:126,1,150,2|6,0:0|0:0,0:0:0:0:
160,200,75610,2,0,P|232:168|336:208,1,150,10|0,0:0|0:0,0:0:0:0:
384,232,76387,1,2,0:0:0:0:
256,192,76542,12,0,78097,0:0:0:0:
273,313,79030,6,0,B|349:248|349:248|415:263,1,150,6|2,0:0|0:0,0:0:0:0:
456,176,79807,2,0,L|280:136,1,150,2|2,0:0|0:0,0:0:0:0:
216,179,80584,2,0,P|185:263|102:287,1,150,2|0,0:0|0:0,0:0:0:0:
117,187,81361,1,2,0:0:0:0:
256,192,81516,12,0,83226,0:0:0:0:
288,104,83847,6,0,P|376:104|456:200,1,200
288,296,85091,5,6,0:0:0:0:
192,265,85402,1,6,0:0:0:0:
192,165,85713,1,6,0:0:0:0:
288,134,86023,1,6,0:0:0:0:
346,215,86334,1,6,0:0:0:0:
256,192,86490,12,0,88355,0:0:0:0:
