osu file format v12

[General]
AudioFilename: TV size.mp3
AudioLeadIn: 1500
PreviewTime: 56646
Countdown: 0
SampleSet: Normal
StackLeniency: 0.7
Mode: 0
LetterboxInBreaks: 1
WidescreenStoryboard: 0

[Editor]
Bookmarks: 24308,34567,44204
DistanceSpacing: 1.3
BeatDivisor: 4
GridSize: 8
TimelineZoom: 1

[Metadata]
Title:Sekai no Hate ni Kimi ga Itemo (TV Size)
TitleUnicode:世界の果てに君がいても (TV Size)
Artist:Kita Shuuhei
ArtistUnicode:喜多修平
Creator:F D Flourite
Version:Insane
Source:Sekai Ichi Hatsukoi
Tags:yf_bmp 世界一初恋 Onodera Ritsu Takano Masamune Opening Kita Ponn BL Yaoi
BeatmapID:386903
BeatmapSetID:158142

[Difficulty]
HPDrainRate:7
CircleSize:4
OverallDifficulty:8
ApproachRate:9
SliderMultiplier:1.8
SliderTickRate:1

[Events]
//Background and Video events
0,0,"1-1210220TK7.jpg",0,0
Video,-193,"Sekai no Hate ni Kimi ga Itemo~1.flv"
//Break Periods
//Storyboard Layer 0 (Background)
//Storyboard Layer 1 (Fail)
//Storyboard Layer 2 (Pass)
//Storyboard Layer 3 (Foreground)
//Storyboard Sound Samples
//Background Colour Transformations
3,100,163,162,255

[TimingPoints]
689,310.880829015544,4,1,1,70,1,0
3176,-100,4,1,1,30,0,0
3797,-100,4,1,1,60,0,0
4108,-100,4,1,1,90,0,0
14212,310.880829015544,4,1,1,50,1,0
14212,-133.333333333333,4,1,1,70,0,0
24315,310.880829015544,4,1,1,50,1,0
24315,-100,4,2,1,70,0,0
32397,-100,4,1,1,80,0,0
34574,-100,4,1,1,85,0,0
44211,-133.333333333333,4,1,1,70,0,0
51050,-133.333333333333,4,1,1,80,0,0
51672,-100,4,1,1,85,0,0
56646,-100,4,1,1,95,0,1
81361,310.880829015544,4,1,1,50,1,0
81361,-133.333333333333,4,1,1,80,0,0
85091,-80,4,1,1,100,0,0
88044,-100,4,2,1,5,0,0
88200,-100,4,1,1,50,0,0

[Colours]
Combo1 : 255,245,117
Combo2 : 131,95,207
Combo3 : 188,255,121
Combo4 : 132,220,253

[HitObjects]
29,181,689,6,0,P|93:197|141:181,1,90,6|0,0:2|0:0,0:0:0:0:
85,109,1000,1,8,0:0:0:0:
5,53,1156,2,0,P|109:21|181:85,1,180,2|0,0:2|0:0,0:0:0:0:
229,197,1622,6,0,B|277:205|277:205|325:173,1,90,2|0,0:2|0:0,0:0:0:0:
253,109,1933,1,8,0:0:0:0:
208,280,2088,2,0,B|293:293|293:293|373:245,1,180,2|0,0:2|0:0,0:0:0:0:
496,296,2555,6,0,B|472:352|472:352|424:376,1,90,2|0,0:2|0:0,0:0:0:0:
358,276,2865,2,0,B|382:220|382:220|430:196,1,90,10|0,0:2|0:0,0:0:0:0:
440,112,3176,5,0,0:0:0:0:
424,104,3254,1,0,0:0:0:0:
408,96,3332,1,0,0:0:0:0:
392,88,3409,1,0,0:0:0:0:
376,80,3487,1,0,0:0:0:0:
360,72,3565,1,0,0:0:0:0:
344,64,3643,1,0,0:0:0:0:
328,56,3720,1,0,0:0:0:0:
296,48,3798,5,4,0:0:0:0:
248,56,3876,1,0,0:0:0:0:
208,80,3953,1,0,0:0:0:0:
184,120,4031,1,0,0:0:0:0:
160,168,4109,1,0,0:0:0:0:
128,208,4187,1,0,0:0:0:0:
80,216,4264,1,0,0:0:0:0:
32,200,4342,1,0,0:0:0:0:
16,144,4420,6,0,P|48:88|160:128,1,180,4|10,0:0|0:0,0:0:0:0:
139,323,5042,2,0,P|96:232|96:128,1,180,2|0,0:0|0:0,0:0:0:0:
166,103,5508,1,0,0:0:0:0:
240,152,5663,2,0,B|312:216|416:168,1,180,6|8,0:0|0:0,0:0:0:0:
480,48,6285,1,2,0:0:0:0:
504,136,6440,1,0,0:0:0:0:
448,304,6596,5,8,0:0:0:0:
392,232,6751,1,0,0:0:0:0:
320,288,6907,2,0,B|264:280|256:232|256:232|248:280|192:288,1,180,6|8,0:0|0:0,0:0:0:0:
64,104,7529,2,0,P|160:152|184:216,1,180,2|8,0:0|0:0,0:0:0:0:
40,248,7995,1,0,0:0:0:0:
104,184,8150,5,4,0:0:0:0:
112,176,8228,1,0,0:0:0:0:
120,168,8306,1,0,0:0:0:0:
128,160,8384,1,0,0:0:0:0:
136,152,8461,1,10,0:0:0:0:
144,144,8539,1,0,0:0:0:0:
152,136,8617,1,0,0:0:0:0:
160,128,8694,1,0,0:0:0:0:
184,104,8772,5,0,0:0:0:0:
224,120,8850,1,0,0:0:0:0:
272,128,8928,1,0,0:0:0:0:
320,120,9005,1,0,0:0:0:0:
352,88,9083,1,10,0:0:0:0:
408,80,9161,1,0,0:0:0:0:
440,120,9238,1,0,0:0:0:0:
432,168,9316,1,0,0:0:0:0:
408,208,9394,6,0,B|320:248|320:248|216:248,1,180,6|8,0:0|0:0,0:0:0:0:
144,248,9860,1,0,0:0:0:0:
96,328,10016,6,0,P|144:344|208:312,1,90,2|0,0:0|0:0,0:0:0:0:
240,264,10327,1,8,0:0:0:0:
328,224,10482,2,0,B|376:200|416:232|416:232|424:296|480:312,2,180,2|2|2,0:0|0:0|0:0,0:0:0:0:
320,320,11259,1,0,0:0:0:0:
240,264,11415,1,0,0:0:0:0:
328,224,11570,1,8,0:0:0:0:
472,160,11725,1,0,0:0:0:0:
472,160,11803,1,0,0:0:0:0:
472,160,11881,6,0,B|440:88|368:88|368:88|312:72,1,180,6|8,0:0|0:0,0:0:0:0:
100,88,12347,2,0,B|108:136|148:152|148:152|228:176|228:176|252:176|268:176,1,180,2|2,0:0|0:0,0:0:0:0:
440,240,12814,1,8,0:0:0:0:
240,176,12969,6,2,P|136:144|64:216,1,180,2|0,0:0|0:0,0:0:0:0:
152,328,13435,2,0,P|160:280|160:224,1,90,8|0,0:0|0:0,0:0:0:0:
120,88,13746,1,0,0:0:0:0:
144,56,13824,1,0,0:0:0:0:
184,32,13902,1,0,0:0:0:0:
222,26,13979,1,0,0:0:0:0:
264,32,14057,1,0,0:0:0:0:
296,56,14135,1,0,0:0:0:0:
328,88,14212,6,0,B|360:112|368:160|368:160|424:128,1,135.000005149842,6|0,0:0|0:0,0:0:0:0:
392,16,14679,1,8,0:0:0:0:
232,192,14834,2,0,P|168:192|120:144,1,135.000005149842,2|0,0:0|0:0,0:0:0:0:
32,120,15300,1,8,0:0:0:0:
184,80,15456,6,0,L|320:64,2,135.000005149842,6|2|2,0:0|0:0|0:0,0:0:0:0:
288,288,16233,2,0,P|296:232|288:200,1,67.5000025749208,2|0,0:0|0:0,0:0:0:0:
192,152,16544,1,8,0:0:0:0:
72,248,16699,6,0,P|120:288|216:296,1,135.000005149842,6|0,0:0|0:0,0:0:0:0:
296,224,17166,1,8,0:0:0:0:
312,88,17321,2,0,B|256:48|256:48|200:88,1,135.000005149842,2|0,0:0|0:0,0:0:0:0:
256,184,17787,1,8,0:0:0:0:
256,184,17943,2,0,L|256:40,1,135.000005149842,6|6,0:0|0:0,0:0:0:0:
256,48,18408,1,0,0:0:0:0:
200,264,18565,2,0,P|288:288|320:248,1,135.000005149842,6|6,0:0|0:0,0:0:0:0:
440,200,19031,5,8,0:0:0:0:
456,192,19109,1,0,0:0:0:0:
472,184,19186,2,0,B|448:152|472:120|496:96|456:40,1,135.000005149842,6|0,0:0|0:0,0:0:0:0:
339,140,19653,1,8,0:0:0:0:
200,104,19808,2,0,P|128:104|112:176,1,135.000005149842,2|0,0:0|0:0,0:0:0:0:
72,296,20274,1,8,0:0:0:0:
232,336,20430,2,0,B|296:344|296:344|376:304,1,135.000005149842,2|0,0:0|0:0,0:0:0:0:
504,232,20895,5,8,0:0:0:0:
443,95,21052,1,0,0:0:0:0:
320,192,21207,2,0,P|296:144|296:112,1,67.5000025749208,2|0,0:0|0:0,0:0:0:0:
256,8,21518,1,8,0:0:0:0:
176,144,21673,6,0,P|104:192|56:152,1,135.000005149842,2|0,0:0|0:0,0:0:0:0:
96,56,22140,1,8,0:0:0:0:
104,288,22294,2,0,B|136:328|136:328|168:280|240:304,1,135.000005149842,2|0,0:0|0:0,0:0:0:0:
344,288,22761,1,8,0:0:0:0:
456,176,22917,6,0,B|496:136|496:136|496:56,1,135.000005149842,6|6,0:0|0:0,0:0:0:0:
96,56,23539,2,0,B|56:96|56:96|56:176,1,135.000005149842,6|6,0:0|0:0,0:0:0:0:
176,344,24315,6,0,P|128:296|128:240,1,90,4|0,0:0|0:0,0:0:0:0:
152,184,24626,2,0,P|200:232|200:288,1,90,8|0,0:0|0:0,0:0:0:0:
264,176,24937,2,0,B|352:160|352:160|448:176,1,180,2|8,0:0|0:0,0:0:0:0:
88,272,25403,6,0,B|64:224|136:144|80:80,1,180,2|0,0:0|0:0,0:0:0:0:
88,272,25870,1,8,0:0:0:0:
264,200,26025,2,0,P|328:168|416:256,1,180,2|2,0:0|0:0,0:0:0:0:
356,335,26491,2,0,P|332:279|340:231,1,90,8|0,0:0|0:0,0:0:0:0:
304,80,26802,5,4,0:0:0:0:
208,128,26958,1,0,0:0:0:0:
296,88,27113,1,8,0:0:0:0:
200,136,27269,1,0,0:0:0:0:
152,304,27424,2,0,B|216:336|272:296|272:296|360:304,1,180,2|8,0:0|0:0,0:0:0:0:
400,112,27890,6,0,B|344:80|304:128|304:128|312:176|272:208,1,180,2|2,0:0|0:0,0:0:0:0:
152,304,28357,1,8,0:0:0:0:
48,120,28512,2,0,L|232:144,1,180,2|2,0:0|0:0,0:0:0:0:
352,192,28978,1,8,0:0:0:0:
256,264,29134,1,0,0:0:0:0:
352,192,29289,5,4,0:0:0:0:
352,192,29445,1,2,0:0:0:0:
320,96,29600,1,8,0:0:0:0:
320,96,29756,1,0,0:0:0:0:
256,264,29911,6,0,B|192:224|192:224|264:184|216:104,1,180,2|8,0:0|0:0,0:0:0:0:
168,48,30377,1,2,0:0:0:0:
16,112,30533,6,0,P|72:160|120:152,1,90,4|2,0:0|0:0,0:0:0:0:
168,48,30844,2,0,P|98:72|81:118,1,90,8|2,0:0|0:0,0:0:0:0:
152,216,31155,2,0,P|165:143|134:105,1,90,2|2,0:0|0:0,0:0:0:0:
16,24,31465,1,8,0:0:0:0:
32,168,31621,2,0,L|304:168,1,270,2|8,0:0|0:0,0:0:0:0:
96,304,32398,6,0,B|120:264|120:264|176:240,1,90
272,368,32709,2,0,P|200:352|176:312,1,90
96,80,33175,6,0,L|-8:104,2,90
232,40,33641,1,0,0:0:0:0:
208,176,33796,1,0,0:0:0:0:
96,80,33952,1,0,0:0:0:0:
232,40,34107,1,0,0:0:0:0:
208,176,34263,1,0,0:0:0:0:
208,176,34574,5,0,0:0:0:0:
232,40,34730,2,0,P|272:144|352:144,1,180,2|0,0:0|0:0,0:0:0:0:
392,48,35196,2,0,P|328:56|304:88,1,90,10|0,0:0|0:0,0:0:0:0:
216,192,35507,2,0,P|224:248|272:288,1,90,0|0,0:0|0:0,0:0:0:0:
312,208,35818,2,0,L|136:272,1,180,10|0,0:0|0:0,0:0:0:0:
80,200,36284,2,0,P|88:136|80:96,1,90,0|8,0:0|0:0,0:0:0:0:
176,56,36595,1,0,0:0:0:0:
176,64,36673,1,0,0:0:0:0:
176,72,36750,6,0,P|172:116|180:160,1,90,6|0,0:0|0:0,0:0:0:0:
272,192,37061,1,8,0:0:0:0:
272,192,37215,2,0,L|360:208,1,90,2|0,0:0|0:0,0:0:0:0:
240,352,37528,1,2,0:0:0:0:
272,192,37682,1,0,0:0:0:0:
104,160,37839,1,2,0:0:0:0:
56,232,37994,6,0,P|24:192|24:136,1,90,4|0,0:0|0:0,0:0:0:0:
80,72,38305,2,0,L|272:104,1,180,8|0,0:0|0:0,0:0:0:0:
312,184,38771,2,0,B|328:216|328:248|328:248|360:232,1,90,0|8,0:0|0:0,0:0:0:0:
456,168,39082,5,0,0:0:0:0:
448,160,39160,1,0,0:0:0:0:
440,152,39238,2,0,P|432:96|440:56,1,90,6|0,0:0|0:0,0:0:0:0:
259,103,39548,2,0,B|283:95|283:95|315:103|315:103|347:95,1,90,8|2,0:0|0:0,0:0:0:0:
248,248,39859,1,0,0:0:0:0:
104,304,40015,1,0,0:0:0:0:
112,152,40169,1,0,0:0:0:0:
259,102,40326,1,2,0:0:0:0:
259,102,40481,6,0,P|323:86|363:102,1,90,0|0,0:0|0:0,0:0:0:0:
352,224,40792,2,0,P|288:240|248:224,1,90,8|0,0:0|0:0,0:0:0:0:
160,176,41103,1,0,0:0:0:0:
80,232,41258,1,0,0:0:0:0:
0,184,41414,1,8,0:0:0:0:
266,235,41569,5,6,0:0:0:0:
256,192,41647,12,0,43900,0:0:0:0:
304,136,44212,6,0,P|352:144|392:120,1,67.5000025749208,6|0,0:0|0:0,0:0:0:0:
392,48,44522,2,0,P|440:80|448:176,1,135.000005149842,10|0,0:0|0:0,0:0:0:0:
416,240,44989,2,0,P|368:232|328:240,1,67.5000025749208,0|8,0:0|0:0,0:0:0:0:
376,312,45300,1,2,0:0:0:0:
360,312,45611,1,0,0:0:0:0:
360,312,45766,2,0,P|280:328|216:296,1,135.000005149842,10|0,0:0|0:0,0:0:0:0:
272,176,46386,6,0,P|296:216|296:248,1,67.5000025749208,8|0,0:0|0:0,0:0:0:0:
202,118,46698,1,4,0:0:0:0:
376,160,47010,2,0,P|457:194|505:173,1,135.000005149842,8|0,0:0|0:0,0:0:0:0:
450,80,47476,2,0,L|445:113,2,33.7500012874604
336,72,47787,2,0,P|288:120|288:192,1,135.000005149842,2|0,0:0|0:0,0:0:0:0:
152,272,48253,2,0,L|72:288,1,67.5000025749208,10|0,0:0|0:0,0:0:0:0:
227,280,48564,2,0,L|160:293,1,67.5000025749208,2|0,0:0|0:0,0:0:0:0:
304,288,48875,1,0,0:0:0:0:
304,288,49030,2,0,L|92:323,1,202.500007724762,2|0,0:0|0:0,0:0:0:0:
160,96,49807,6,0,B|152:64|152:64|160:8,1,67.5000025749208
232,64,50118,2,0,B|240:96|240:96|232:152,1,67.5000025749208,8|0,0:0|0:0,0:0:0:0:
240,296,50429,2,0,P|312:304|392:296,1,135.000005149842,6|0,0:0|0:0,0:0:0:0:
448,240,50896,1,2,0:0:0:0:
408,152,51051,1,0,0:0:0:0:
376,144,51129,1,0,0:0:0:0:
344,136,51206,1,0,0:0:0:0:
232,64,51362,2,0,P|208:96|216:136,1,67.5000025749208,8|0,0:0|0:0,0:0:0:0:
216,272,51673,6,0,B|144:288|144:288|112:280,1,90,6|0,0:0|0:0,0:0:0:0:
152,144,51984,1,0,0:0:0:0:
216,272,52139,1,0,0:0:0:0:
88,208,52294,1,2,0:0:0:0:
232,184,52450,1,0,0:0:0:0:
232,184,52528,1,0,0:0:0:0:
232,184,52605,1,0,0:0:0:0:
336,256,52761,5,0,0:0:0:0:
336,256,52839,1,0,0:0:0:0:
336,256,52916,2,0,P|400:216|408:168,1,90,6|0,0:0|0:0,0:0:0:0:
328,96,53226,1,0,0:0:0:0:
208,64,53381,1,0,0:0:0:0:
128,251,53537,6,0,L|215:271,1,90,2|0,0:0|0:0,0:0:0:0:
336,256,53849,2,0,L|423:276,1,90
328,96,54159,5,4,0:0:0:0:
256,192,54237,12,4,55403,2:0:0:0:
80,72,56025,5,0,0:0:0:0:
88,80,56103,1,0,0:0:0:0:
96,88,56181,1,0,0:0:0:0:
104,96,56258,1,0,0:0:0:0:
112,104,56336,1,0,0:0:0:0:
120,112,56414,1,0,0:0:0:0:
128,120,56491,1,0,0:0:0:0:
136,128,56569,1,0,0:0:0:0:
144,136,56647,6,0,P|208:128|240:136,1,90,6|0,0:0|0:0,0:0:0:0:
272,208,56958,2,0,P|264:272|272:328,1,90,8|0,0:0|0:0,0:0:0:0:
440,168,57269,2,0,P|376:176|344:168,1,90,6|0,0:0|0:0,0:0:0:0:
328,152,57502,1,0,0:0:0:0:
324,121,57579,2,0,P|332:57|324:1,1,90,8|0,0:0|0:0,0:0:0:0:
224,72,57890,6,0,P|152:64|24:80,2,180,6|10|2,0:0|0:0|0:0,0:0:0:0:
272,208,58668,1,0,0:0:0:0:
136,344,58823,1,8,0:0:0:0:
104,336,58901,1,0,0:0:0:0:
80,312,58978,1,0,0:0:0:0:
72,280,59056,1,0,0:0:0:0:
80,248,59134,6,0,P|72:184|56:168,1,90,6|0,0:0|0:0,0:0:0:0:
144,32,59445,1,8,0:0:0:0:
56,168,59600,1,0,0:0:0:0:
200,280,59756,2,0,P|240:301|284:312,1,90,2|0,0:0|0:0,0:0:0:0:
288,128,60066,1,10,0:0:0:0:
200,280,60221,1,0,0:0:0:0:
32,120,60377,6,0,P|53:80|91:57,1,90,2|0,0:0|0:0,0:0:0:0:
90,57,60610,1,0,0:0:0:0:
90,57,60688,1,10,0:0:0:0:
280,96,60844,1,0,0:0:0:0:
280,96,60921,1,0,0:0:0:0:
280,96,60999,2,0,P|344:104|384:88,1,90,2|0,0:0|0:0,0:0:0:0:
200,120,61309,2,0,L|104:136,1,90,10|0,0:0|0:0,0:0:0:0:
216,208,61621,6,0,P|264:176|264:56,1,180,6|8,0:0|0:0,0:0:0:0:
200,120,62087,1,0,0:0:0:0:
216,296,62243,6,0,P|224:344|208:392,2,90,2|0|8,0:0|0:0|0:0,0:0:0:0:
80,184,62709,2,0,B|168:192|168:192|256:152,1,180,2|0,0:0|0:0,0:0:0:0:
328,32,63175,2,0,P|376:80|384:128,1,90,8|0,0:0|0:0,0:0:0:0:
360,288,63486,1,0,0:0:0:0:
352,304,63564,1,0,0:0:0:0:
344,320,63642,1,0,0:0:0:0:
336,336,63719,1,0,0:0:0:0:
328,352,63797,1,0,0:0:0:0:
176,296,63953,1,0,0:0:0:0:
176,296,64030,1,0,0:0:0:0:
176,296,64108,6,0,B|136:272|136:272|56:272,1,90,6|0,0:0|0:0,0:0:0:0:
104,368,64418,1,10,0:0:0:0:
184,120,64574,1,0,0:0:0:0:
184,120,64885,1,2,0:0:0:0:
488,296,65196,6,0,P|440:344|328:320,1,180,6|0,0:0|0:0,0:0:0:0:
296,168,65662,1,8,0:0:0:0:
448,120,65817,1,0,0:0:0:0:
376,240,65973,5,0,0:0:0:0:
368,248,66051,1,0,0:0:0:0:
360,256,66129,1,0,0:0:0:0:
352,264,66206,1,0,0:0:0:0:
320,288,66284,5,0,0:0:0:0:
280,296,66362,1,0,0:0:0:0:
232,288,66440,1,0,0:0:0:0:
200,264,66517,1,0,0:0:0:0:
192,224,66595,6,0,P|208:160|240:128,1,90,6|0,0:0|0:0,0:0:0:0:
384,56,66906,1,8,0:0:0:0:
376,240,67061,1,0,0:0:0:0:
112,184,67216,2,8,P|120:112|104:64,1,90,2|0,0:0|0:0,0:0:0:0:
384,56,67527,2,8,P|376:128|392:176,1,90,8|0,0:0|0:0,0:0:0:0:
240,296,67839,6,0,P|160:280|136:288,1,90,2|0,0:0|0:0,0:0:0:0:
120,72,68149,2,0,P|161:88|206:86,1,90,10|0,0:0|0:0,0:0:0:0:
112,184,68460,1,2,0:0:0:0:
400,216,68771,5,8,0:0:0:0:
416,248,68849,1,0,0:0:0:0:
416,288,68927,1,0,0:0:0:0:
400,320,69004,1,0,0:0:0:0:
376,344,69082,2,0,P|312:352|272:312,2,90,6|0|8,0:0|0:0|0:0,0:0:0:0:
304,200,69548,1,0,0:0:0:0:
304,200,69626,1,0,0:0:0:0:
304,200,69704,2,0,L|200:224,1,90,2|0,0:0|0:0,0:0:0:0:
232,96,70015,2,0,L|344:72,1,90,8|0,0:0|0:0,0:0:0:0:
152,288,70326,6,0,B|128:248|128:248|120:192,1,90,6|0,0:0|0:0,0:0:0:0:
360,96,70636,2,0,B|384:136|384:136|392:192,1,90,10|0,0:0|0:0,0:0:0:0:
147,106,70947,5,2,0:0:0:0:
163,106,71025,1,0,0:0:0:0:
179,106,71103,1,0,0:0:0:0:
195,106,71181,1,0,0:0:0:0:
240,112,71258,5,10,0:0:0:0:
280,136,71336,1,0,0:0:0:0:
304,176,71414,1,0,0:0:0:0:
312,224,71491,1,0,0:0:0:0:
304,272,71569,6,0,B|288:360|288:360|193:286,1,180,6|8,0:0|0:0,0:0:0:0:
126,251,72035,1,0,0:0:0:0:
108,100,72191,2,0,P|131:60|129:7,1,90,2|0,0:0|0:0,0:0:0:0:
52,41,72502,1,8,0:0:0:0:
239,73,72657,2,0,P|329:87|410:141,2,180,2|2|2,0:0|0:0|0:0,0:0:0:0:
126,251,73434,5,0,0:0:0:0:
152,272,73512,1,0,0:0:0:0:
192,280,73590,1,0,0:0:0:0:
232,264,73668,1,0,0:0:0:0:
256,240,73745,1,0,0:0:0:0:
280,216,73823,1,0,0:0:0:0:
312,192,73901,1,0,0:0:0:0:
352,192,73978,1,0,0:0:0:0:
392,200,74056,6,0,B|480:184|480:184|528:88,1,180,6|8,0:0|0:0,0:0:0:0:
336,64,74522,2,0,B|248:80|248:80|200:176,1,180,2|0,0:0|0:0,0:0:0:0:
232,320,74989,2,0,P|176:320|136:296,1,90,10|4,0:0|0:0,0:0:0:0:
176,72,75300,6,0,B|208:160|208:160|200:248,1,180,6|8,0:0|0:0,0:0:0:0:
72,192,75766,1,2,0:0:0:0:
176,72,75921,1,0,0:0:0:0:
216,64,75999,1,0,0:0:0:0:
256,56,76077,1,0,0:0:0:0:
296,48,76155,1,0,0:0:0:0:
336,56,76232,1,8,0:0:0:0:
376,64,76310,1,0,0:0:0:0:
416,72,76388,6,0,P|432:136|408:256,1,180,6|0,0:0|0:0,0:0:0:0:
248,192,76854,2,0,L|352:192,1,90,8|0,0:0|0:0,0:0:0:0:
256,296,77165,2,0,L|152:296,1,90
320,80,77476,2,0,L|440:80,1,90,8|0,0:0|0:0,0:0:0:0:
160,240,77787,6,0,P|144:168|152:136,1,90
368,152,78098,2,0,P|384:224|376:256,1,90,8|0,0:0|0:0,0:0:0:0:
112,240,78408,2,0,P|96:168|104:136,1,90
320,80,78719,1,8,0:0:0:0:
464,96,78875,1,0,0:0:0:0:
392,264,79030,6,0,P|333:271|287:253,2,90,6|0|0,0:0|0:0|0:0,0:0:0:0:
343,144,79497,2,0,P|300:136|256:144,2,90,2|0|0,0:0|0:0|0:0,0:0:0:0:
336,344,79963,2,0,B|304:368|304:368|224:368,1,90,2|4,0:0|0:0,0:0:0:0:
208,216,80274,2,0,B|176:168|176:168|160:96|232:64,1,180,2|8,0:0|0:0,0:0:0:0:
208,216,80740,1,2,0:0:0:0:
120,80,80896,5,0,0:0:0:0:
152,48,80973,1,0,0:0:0:0:
184,32,81051,1,0,0:0:0:0:
232,24,81129,1,0,0:0:0:0:
272,32,81206,1,0,0:0:0:0:
312,48,81284,1,0,0:0:0:0:
336,80,81361,6,0,B|328:128|368:168|368:168|312:184,1,135.000005149842,6|0,0:0|0:0,0:0:0:0:
248,152,81828,1,8,0:0:0:0:
168,72,81983,2,0,P|115:111|49:104,1,135.000005149842,2|0,0:0|0:0,0:0:0:0:
48,224,82449,1,8,0:0:0:0:
240,312,82605,6,0,P|304:304|384:320,1,135.000005149842,2|0,0:0|0:0,0:0:0:0:
432,240,83071,1,8,0:0:0:0:
432,240,83149,1,0,0:0:0:0:
432,240,83227,2,0,P|440:168|432:144,1,67.5000025749208,2|0,0:0|0:0,0:0:0:0:
152,264,83536,2,0,P|144:336|152:360,1,67.5000025749208,2|0,0:0|0:0,0:0:0:0:
312,144,83848,6,0,P|240:152|168:136,1,135.000005149842,2|0,0:0|0:0,0:0:0:0:
152,128,84237,1,0,0:0:0:0:
120,120,84315,2,0,P|56:120|32:136,1,67.5000025749208,8|2,0:0|0:0,0:0:0:0:
352,216,84781,2,0,P|392:168|392:144,1,67.5000025749208,0|8,0:0|0:0,0:0:0:0:
364,59,85092,6,0,B|256:24|256:24|136:64,1,225,6|6,0:0|0:0,0:0:0:0:
148,325,85713,2,0,B|256:360|256:360|376:320,2,225,6|6|6,0:0|0:0|0:0,0:0:0:0:
256,192,86413,12,0,88045,0:0:0:0:
256,280,88201,5,0,0:0:0:0:
256,296,88278,1,0,0:0:0:0:
256,312,88356,1,0,0:0:0:0:
