osu file format v12

[General]
AudioFilename: TV size.mp3
AudioLeadIn: 1500
PreviewTime: 56646
Countdown: 0
SampleSet: Normal
StackLeniency: 0.7
Mode: 0
LetterboxInBreaks: 1
WidescreenStoryboard: 0

[Editor]
Bookmarks: 24308,34567,44204,75765
DistanceSpacing: 1
BeatDivisor: 4
GridSize: 8
TimelineZoom: 1

[Metadata]
Title:Sekai no Hate ni Kimi ga Itemo (TV Size)
TitleUnicode:世界の果てに君がいても (TV Size)
Artist:Kita Shuuhei
ArtistUnicode:喜多修平
Creator:F D Flourite
Version:Hard
Source:Sekai Ichi Hatsukoi
Tags:yf_bmp 世界一初恋 Onodera Ritsu Takano Masamune Opening Kita Ponn BL Yaoi
BeatmapID:386902
BeatmapSetID:158142

[Difficulty]
HPDrainRate:5
CircleSize:4
OverallDifficulty:6
ApproachRate:8
SliderMultiplier:1.4
SliderTickRate:2

[Events]
//Background and Video events
0,0,"1-1210220TK7.jpg",0,0
Video,-193,"Sekai no Hate ni Kimi ga Itemo~1.flv"
//Break Periods
//Storyboard Layer 0 (Background)
//Storyboard Layer 1 (Fail)
//Storyboard Layer 2 (Pass)
//Storyboard Layer 3 (Foreground)
//Storyboard Sound Samples
//Background Colour Transformations
3,100,163,162,255

[TimingPoints]
689,310.880829015544,4,1,1,70,1,0
3176,-100,4,1,1,30,0,0
3797,-100,4,1,1,60,0,0
4108,-100,4,1,1,90,0,0
14212,310.880829015544,4,1,1,50,1,0
14212,-133.333333333333,4,1,1,80,0,0
24315,310.880829015544,4,1,1,50,1,0
24315,-100,4,2,1,70,0,0
32397,-100,4,1,1,50,0,0
33175,-200,4,1,1,70,0,0
34574,-100,4,1,1,80,0,0
44211,-133.333333333333,4,1,1,65,0,0
51672,-100,4,1,1,75,0,0
55403,-100,4,2,1,5,0,0
55558,-100,4,1,1,75,0,0
56646,-100,4,1,1,85,0,1
81361,310.880829015544,4,1,1,50,1,0
81361,-133.333333333333,4,1,1,70,0,0
85091,-83.3333333333333,4,1,1,85,0,0
86645,-83.3333333333333,4,1,1,75,0,0
86956,-83.3333333333333,4,1,1,65,0,0
87267,-83.3333333333333,4,1,1,55,0,0
87578,-83.3333333333333,4,1,1,45,0,0
87889,-83.3333333333333,4,1,1,35,0,0
88200,-83.3333333333333,4,2,1,5,0,0

[Colours]
Combo1 : 255,245,117
Combo2 : 131,95,207
Combo3 : 188,255,121
Combo4 : 132,220,253

[HitObjects]
176,120,689,6,0,L|232:168,1,70,6|0,0:2|0:0,0:0:0:0:
240,240,999,1,0,0:0:0:0:
176,280,1155,2,0,P|248:320|304:280,1,140,2|0,0:2|0:0,0:0:0:0:
336,216,1621,6,0,P|336:160|368:128,1,70,2|0,0:2|0:0,0:0:0:0:
408,192,1932,1,0,0:0:0:0:
448,256,2087,2,0,P|480:176|448:128,1,140,2|0,0:2|0:0,0:0:0:0:
400,64,2554,6,0,L|320:48,2,70,2|0|0,0:2|0:0|0:0,0:0:0:0:
232,80,3176,6,0,L|216:120,3,35
184,112,3486,2,0,L|168:152,3,35
152,168,3797,2,0,L|104:176,3,35
112,208,4108,2,0,L|56:216,3,35
48,248,4419,6,0,P|40:320|80:392,1,140,4|8,0:0|0:0,0:0:0:0:
152,304,5041,2,0,L|296:272,1,140,2|8,0:0|0:0,0:0:0:0:
360,304,5507,1,0,0:0:0:0:
432,192,5663,6,0,P|352:160|296:192,1,140,6|8,0:0|0:0,0:0:0:0:
104,208,6284,2,0,P|184:240|240:208,1,140,2|8,0:0|0:0,0:0:0:0:
272,88,6906,6,0,L|304:232,1,140,4|8,0:0|0:0,0:0:0:0:
232,320,7528,2,0,L|304:304,1,70,2|0,0:0|0:0,0:0:0:0:
192,240,7839,2,0,L|168:144,1,70,8|0,0:0|0:0,0:0:0:0:
120,80,8150,6,0,P|184:64|232:80,1,105,6|0,0:0|0:0,0:0:0:0:
240,96,8461,2,0,L|256:168,1,70,8|0,0:0|0:0,0:0:0:0:
328,256,8771,2,0,P|379:265|428:249,1,105,2|0,0:0|0:0,0:0:0:0:
448,232,9082,2,0,L|432:163,1,70,8|0,0:0|0:0,0:0:0:0:
320,40,9393,6,0,L|352:192,1,140,6|8,0:0|0:0,0:0:0:0:
328,256,9859,1,0,0:0:0:0:
256,328,10015,6,0,P|208:288|208:256,1,70,2|0,0:0|0:0,0:0:0:0:
216,208,10326,1,8,0:0:0:0:
184,136,10481,2,0,P|96:144|32:176,2,140,2|2|2,0:0|0:0|0:0,0:0:0:0:
259,111,11258,2,0,P|347:119|411:151,1,140,0|8,0:0|0:0,0:0:0:0:
432,208,11725,1,0,0:0:0:0:
384,280,11880,6,0,P|320:256|264:272,1,105,6|0,0:0|0:0,0:0:0:0:
256,272,12191,2,0,L|232:360,1,70,8|0,0:0|0:0,0:0:0:0:
210,171,12657,1,0,0:0:0:0:
72,104,12968,6,2,P|112:40|192:32,1,140,4|0,0:0|0:0,0:0:0:0:
248,0,13435,2,0,P|248:48|224:88,1,70,8|0,0:0|0:0,0:0:0:0:
288,128,13745,2,0,P|336:136|376:112,1,70
320,56,14056,1,8,0:0:0:0:
320,56,14212,6,0,L|320:184,1,105.000004005432,6|0,0:0|0:0,0:0:0:0:
336,232,14678,1,8,0:0:0:0:
267,211,14834,2,0,P|211:219|147:203,1,105.000004005432,2|0,0:0|0:0,0:0:0:0:
98,240,15300,1,8,0:0:0:0:
84,315,15455,2,0,P|140:307|204:323,1,105.000004005432,2|0,0:0|0:0,0:0:0:0:
251,282,15922,2,0,P|276:286|316:265,1,52.5000020027161,8|0,0:0|0:0,0:0:0:0:
266,160,16232,2,0,P|262:185|268:211,1,52.5000020027161,0|0,0:0|0:0,0:0:0:0:
341,182,16543,1,8,0:0:0:0:
400,96,16699,6,0,B|352:72|352:72|288:80,1,105.000004005432,2|0,0:0|0:0,0:0:0:0:
224,88,17165,1,8,0:0:0:0:
152,120,17321,2,0,B|96:120|96:120|56:88,1,105.000004005432,2|0,0:0|0:0,0:0:0:0:
128,32,17787,1,8,0:0:0:0:
192,184,17942,6,0,P|216:216|200:288,1,105.000004005432,2|2,0:0|0:0,0:0:0:0:
392,176,18564,2,0,P|368:144|384:72,1,105.000004005432,2|2,0:0|0:0,0:0:0:0:
336,328,19186,6,0,P|280:312|224:344,1,105.000004005432,2|0,0:0|0:0,0:0:0:0:
168,352,19652,1,8,0:0:0:0:
104,320,19808,2,0,P|55:337|6:320,1,105.000004005432,2|0,0:0|0:0,0:0:0:0:
56,152,20274,1,8,0:0:0:0:
56,152,20429,2,0,L|56:272,1,105.000004005432,2|0,0:0|0:0,0:0:0:0:
136,248,20896,2,0,L|200:248,1,52.5000020027161,8|0,0:0|0:0,0:0:0:0:
242,173,21207,2,0,L|178:173,1,52.5000020027161,2|0,0:0|0:0,0:0:0:0:
152,96,21518,1,8,0:0:0:0:
152,96,21673,6,0,L|264:96,1,105.000004005432,2|0,0:0|0:0,0:0:0:0:
320,48,22139,1,8,0:0:0:0:
389,7,22295,2,0,P|399:58|376:103,1,105.000004005432,2|0,0:0|0:0,0:0:0:0:
376,103,22761,1,8,0:0:0:0:
256,184,22916,6,0,B|256:240|256:240|304:288,1,105.000004005432,6|2,0:0|0:0,0:0:0:0:
488,200,23538,2,0,B|488:144|488:144|440:96,1,105.000004005432,2|2,0:0|0:0,0:0:0:0:
144,168,24315,6,0,L|168:96,1,70,4|2,0:0|0:0,0:0:0:0:
144,32,24626,2,0,P|212:46|224:64,1,70,8|2,0:0|0:0,0:0:0:0:
240,112,24937,2,0,P|304:144|376:104,1,140,2|8,0:0|0:0,0:0:0:0:
304,64,25404,2,0,L|288:208,1,140,2|2,0:0|0:0,0:0:0:0:
304,280,25870,1,8,0:0:0:0:
232,256,26025,2,0,P|176:240|80:264,1,140,2|2,0:0|0:0,0:0:0:0:
40,312,26492,2,0,P|96:336|128:320,1,70,8|2,0:0|0:0,0:0:0:0:
176,328,26802,6,0,L|256:328,1,70,4|2,0:0|0:0,0:0:0:0:
302,256,27113,2,0,L|232:256,1,70,8|2,0:0|0:0,0:0:0:0:
360,304,27424,2,0,P|376:248|320:184,1,140,2|8,0:0|0:0,0:0:0:0:
288,120,27891,6,0,B|240:104|240:104|192:136|128:96,1,140,2|2,0:0|0:0,0:0:0:0:
192,40,28357,1,8,0:0:0:0:
264,16,28512,2,0,L|400:64,2,140,2|2|2,0:0|0:0|0:0,0:0:0:0:
192,40,29290,2,0,L|176:120,1,70,4|2,0:0|0:0,0:0:0:0:
97,127,29600,2,0,L|113:47,1,70,8|2,0:0|0:0,0:0:0:0:
30,171,29911,2,0,P|70:202|168:163,1,140,2|8,0:0|0:0,0:0:0:0:
224,128,30378,6,0,P|292:127|338:178,1,140,2|2,0:0|0:0,0:0:0:0:
312,248,30844,1,8,0:0:0:0:
240,256,30999,2,0,P|256:200|264:192,1,70,2|0,0:0|0:0,0:0:0:0:
384,240,31309,2,0,P|368:296|360:304,1,70,2|8,0:0|0:0,0:0:0:0:
320,368,31621,1,2,0:0:0:0:
256,192,31698,12,0,32864,0:0:0:0:
216,120,33175,6,0,P|176:147|107:138,1,105,4|0,0:0|0:0,0:0:0:0:
149,55,33797,2,0,P|189:28|258:37,1,105,0|4,0:0|0:0,0:0:0:0:
392,96,34575,5,8,0:0:0:0:
352,160,34730,2,0,P|304:208|224:184,1,140,2|0,0:0|0:0,0:0:0:0:
278,133,35196,2,0,L|190:93,1,70,8|0,0:0|0:0,0:0:0:0:
136,96,35507,2,0,P|152:152|184:176,1,70,6|0,0:0|0:0,0:0:0:0:
184,232,35818,1,8,0:0:0:0:
217,303,35973,2,0,P|149:303|108:250,1,140,2|0,0:0|0:0,0:0:0:0:
184,232,36439,2,0,P|232:224|272:256,1,70,8|0,0:0|0:0,0:0:0:0:
408,240,36751,6,0,B|424:200|424:200|456:136|408:88,1,140,6|8,0:0|0:0,0:0:0:0:
304,24,37217,2,2,B|288:64|288:64|256:128|304:176,1,140,2|0,0:0|0:0,0:0:0:0:
352,112,37683,1,8,0:0:0:0:
352,112,37839,6,0,P|288:104|184:120,1,140,2|0,0:0|0:0,0:0:0:0:
152,160,38305,2,0,L|136:248,1,70,8|0,0:0|0:0,0:0:0:0:
208,264,38616,2,0,L|224:176,1,70,2|0,0:0|0:0,0:0:0:0:
152,160,38927,1,8,0:0:0:0:
64,240,39081,6,0,P|32:184|48:96,1,140,2|0,0:0|0:0,0:0:0:0:
72,40,39549,1,8,0:0:0:0:
144,16,39703,2,0,P|212:7|272:40,1,140,2|0,0:0|0:0,0:0:0:0:
440,128,40326,2,0,B|392:176|392:176|312:176,1,140,2|2,0:0|0:0,0:0:0:0:
240,176,40792,1,8,0:0:0:0:
256,256,40948,2,0,B|221:267|189:243|189:243|157:267|120:256,1,140,2|2,0:0|0:0,0:0:0:0:
136,176,41414,1,8,0:0:0:0:
192,88,41569,1,4,0:2:0:0:
256,192,41647,12,0,42657,0:0:0:0:
360,176,42968,6,0,L|512:224,1,140
496,296,43435,2,0,L|344:248,1,140
296,296,43901,1,0,0:0:0:0:
264,224,44056,1,0,0:0:0:0:
264,224,44212,6,0,L|216:184,1,52.5000020027161,4|0,0:0|0:0,0:0:0:0:
320,176,44523,2,0,P|339:223|322:272,1,105.000004005432,10|0,0:0|0:0,0:0:0:0:
308,353,44989,2,0,B|256:370|256:370|208:354,1,105.000004005432,2|2,0:0|0:0,0:0:0:0:
384,232,45610,5,0,0:0:0:0:
448,184,45766,2,0,L|497:165,1,52.5000020027161,8|0,0:0|0:0,0:0:0:0:
424,112,46077,2,0,L|440:56,1,52.5000020027161,0|0,0:0|0:0,0:0:0:0:
360,160,46387,2,0,L|320:120,1,52.5000020027161,8|0,0:0|0:0,0:0:0:0:
384,232,46698,1,0,0:0:0:0:
256,216,47010,5,8,0:0:0:0:
256,216,47165,2,0,P|176:237|160:229,1,105.000004005432,2|0,0:0|0:0,0:0:0:0:
192,109,47631,2,0,L|200:173,1,52.5000020027161,8|0,0:0|0:0,0:0:0:0:
271,323,48098,6,0,B|321:337|321:337|372:321,2,105.000004005432,2|0|0,0:0|0:0|0:0,0:0:0:0:
255,215,49030,2,0,P|318:174|381:215,1,157.500006008148,2|8,0:0|0:0,0:0:0:0:
48,200,49807,5,0,0:0:0:0:
116,162,49962,2,0,P|102:140|80:128,2,52.5000020027161,0|8|0,0:0|0:0|0:0,0:0:0:0:
184,192,50429,2,0,B|208:144|208:144|280:120,1,105.000004005432,6|8,0:0|0:0,0:0:0:0:
264,208,50896,2,0,B|240:256|240:256|168:280,1,105.000004005432,2|0,0:0|0:0,0:0:0:0:
64,264,51362,2,0,P|104:264|128:272,1,52.5000020027161,8|0,0:0|0:0,0:0:0:0:
214,362,51673,6,0,P|302:362|334:306,1,140,6|8,0:0|0:0,0:0:0:0:
350,250,52139,1,0,0:0:0:0:
340,172,52295,2,0,L|260:116,1,70
206,170,52606,2,0,L|278:218,1,70,8|0,0:0|0:0,0:0:0:0:
222,90,52916,2,0,P|166:98|126:186,1,140,6|8,0:0|0:0,0:0:0:0:
126,242,53382,5,0,0:0:0:0:
157,313,53538,2,0,P|117:321|85:305,1,70,0|0,0:0|0:0,0:0:0:0:
48,248,53848,1,8,0:0:0:0:
256,312,54159,1,4,0:0:0:0:
256,192,54237,12,0,55403,0:0:0:0:
384,288,56025,6,0,L|360:248,3,35
352,232,56336,2,0,L|320:176,3,35
320,176,56647,6,0,P|272:120|208:128,1,140,6|8,0:0|0:0,0:0:0:0:
248,192,57113,1,0,0:0:0:0:
208,256,57269,2,0,P|152:264|104:232,1,105,2|0,0:0|0:0,0:0:0:0:
96,216,57580,2,0,L|80:128,1,70,8|0,0:0|0:0,0:0:0:0:
136,24,57891,2,0,B|216:16|216:16|264:24|280:48,1,140,6|8,0:0|0:0,0:0:0:0:
216,96,58356,1,0,0:0:0:0:
216,96,58511,2,0,L|146:102,1,70,2|0,0:0|0:0,0:0:0:0:
296,64,58823,6,0,L|360:56,3,35,8|0|0|0,0:0|0:0|0:0|0:0,0:0:0:0:
352,72,59134,2,0,P|416:104|432:176,1,140,6|8,0:0|0:0,0:0:0:0:
419,243,59600,1,0,0:0:0:0:
344,248,59756,2,0,P|336:208|376:136,1,105,2|0,0:0|0:0,0:0:0:0:
359,150,60067,2,0,L|272:152,1,70,8|0,0:0|0:0,0:0:0:0:
160,200,60378,6,0,P|144:248|160:288,1,70,2|0,0:0|0:0,0:0:0:0:
248,288,60689,2,0,P|264:240|248:200,1,70,8|0,0:0|0:0,0:0:0:0:
136,192,60999,6,0,P|120:240|136:280,1,70,2|0,0:0|0:0,0:0:0:0:
224,280,61310,2,0,P|240:232|224:192,1,70,8|0,0:0|0:0,0:0:0:0:
144,328,61621,2,0,P|200:368|296:336,1,140,2|8,0:0|0:0,0:0:0:0:
344,352,62087,1,0,0:0:0:0:
456,280,62243,6,0,B|488:224|440:176,1,105,2|0,0:0|0:0,0:0:0:0:
439,172,62554,1,8,0:0:0:0:
408,104,62709,2,0,B|352:64|352:64|280:88,2,140,2|2|2,0:0|0:0|0:0,0:0:0:0:
336,152,63486,2,0,L|240:184,1,70
200,120,63797,2,0,L|120:88,1,70,8|0,0:0|0:0,0:0:0:0:
8,64,64108,6,0,P|40:128|16:184,1,105,6|0,0:0|0:0,0:0:0:0:
24,176,64419,2,0,P|62:210|110:202,1,70,8|0,0:0|0:0,0:0:0:0:
256,248,64885,1,2,0:0:0:0:
432,211,65195,1,6,0:0:0:0:
256,192,65274,12,0,66284,0:0:0:0:
416,328,66595,6,0,L|336:304,1,70,4|0,0:0|0:0,0:0:0:0:
296,256,66906,2,0,P|200:224|160:256,1,140,10|0,0:0|0:0,0:0:0:0:
208,368,67372,2,0,P|228:317|228:285,1,70,0|8,0:0|0:0,0:0:0:0:
152,312,67683,2,0,L|72:312,1,70,0|6,0:0|0:0,0:0:0:0:
64,160,68150,2,0,B|96:112|160:128|160:128|192:168,1,140,14|6,0:0|0:0,0:0:0:0:
328,160,68771,6,0,L|376:168,3,35,8|0|0|0,0:0|0:0|0:0|0:0,0:0:0:0:
400,168,69082,2,0,P|448:168|488:176,1,70,4|0,0:0|0:0,0:0:0:0:
488,88,69393,2,0,P|416:88|360:72,1,105,10|0,0:0|0:0,0:0:0:0:
352,72,69704,2,0,P|325:94|312:126,1,70,0|0,0:0|0:0,0:0:0:0:
304,201,70015,2,0,P|290:233|264:256,1,70,10|0,0:0|0:0,0:0:0:0:
192,280,70325,5,4,0:0:0:0:
184,120,70637,2,0,B|144:80|96:112|96:112|64:160,1,140,14|6,0:0|0:0,0:0:0:0:
64,272,71258,2,0,P|112:320|184:304,2,140,14|6|8,0:0|0:0|0:0,0:0:0:0:
288,240,72191,6,0,B|352:224|352:224|408:240|448:200,1,140,2|8,0:0|0:0,0:0:0:0:
384,152,72657,2,0,P|352:112|376:16,1,140,2|0,0:0|0:0,0:0:0:0:
432,80,73124,1,8,0:0:0:0:
432,80,73279,2,0,L|288:104,1,140,2|0,0:0|0:0,0:0:0:0:
232,152,73745,1,8,0:0:0:0:
176,88,73901,1,0,0:0:0:0:
128,208,74056,5,6,0:0:0:0:
128,208,74367,1,8,0:0:0:0:
184,272,74523,1,2,0:0:0:0:
424,272,74834,1,0,0:0:0:0:
352,240,74989,2,0,P|319:228|297:201,1,70,10|0,0:0|0:0,0:0:0:0:
365,164,75300,2,0,P|337:133|235:153,1,140,6|8,0:0|0:0,0:0:0:0:
184,288,75765,6,0,P|212:319|314:299,1,140,2|0,0:0|0:0,0:0:0:0:
251,250,76232,2,0,L|256:208,2,35,8|0|4,0:0|0:0|0:0,0:0:0:0:
256,192,76466,12,0,78409,0:0:0:0:
224,32,79029,6,0,P|176:64|88:56,1,140,6|8,0:0|0:0,0:0:0:0:
96,152,79496,2,0,P|164:145|223:180,1,140,2|0,0:0|0:0,0:0:0:0:
296,144,79962,2,0,L|296:72,1,70,8|0,0:0|0:0,0:0:0:0:
368,32,80274,2,0,P|416:64|504:56,1,140,6|8,0:0|0:0,0:0:0:0:
496,152,80740,2,0,P|427:145|368:180,1,140,2|0,0:0|0:0,0:0:0:0:
336,248,81207,1,8,0:0:0:0:
208,312,81361,6,0,P|136:328|104:304,1,105.000004005432,2|0,0:0|0:0,0:0:0:0:
160,154,81828,1,8,0:0:0:0:
159,154,81983,2,0,P|149:204|160:255,1,105.000004005432,2|0,0:0|0:0,0:0:0:0:
208,312,82449,1,8,0:0:0:0:
256,256,82604,2,0,P|267:205|256:154,1,105.000004005432,2|0,0:0|0:0,0:0:0:0:
240,80,83071,1,8,0:0:0:0:
240,80,83227,2,0,L|288:56,1,52.5000020027161,2|0,0:0|0:0,0:0:0:0:
368,96,83537,2,0,L|320:120,1,52.5000020027161,0|8,0:0|0:0,0:0:0:0:
416,32,83848,6,0,P|448:88|440:128,1,105.000004005432,2|0,0:0|0:0,0:0:0:0:
384,184,84315,1,8,0:0:0:0:
384,184,84470,2,0,L|272:184,1,105.000004005432,2|0,0:0|0:0,0:0:0:0:
208,184,84936,1,8,0:0:0:0:
96,176,85092,6,0,P|120:256|240:280,1,167.999994873047,6|6,0:0|0:0,0:0:0:0:
416,208,85713,2,0,P|392:128|272:104,2,167.999994873047,6|6|6,0:0|0:0|0:0,0:0:0:0:
256,192,86491,12,0,88356,0:0:0:0:
