osu file format v9

[General]
AudioFilename: isseinose.mp3
AudioLeadIn: 0
PreviewTime: 51375
Countdown: 0
SampleSet: Soft
StackLeniency: 0.7
Mode: 0
LetterboxInBreaks: 1

[Editor]
Bookmarks: 51571
DistanceSpacing: 1
BeatDivisor: 4
GridSize: 8

[Metadata]
Title:Issei no Sei (TV Size)
Artist:Kita Shuuhei
Creator:Suzully
Version:Normal
Source:Natsume Yuujinchou
Tags:opening

[Difficulty]
HPDrainRate:3
CircleSize:3
OverallDifficulty:3
ApproachRate:4
SliderMultiplier:1
SliderTickRate:1

[Events]
//Background and Video events
0,0,"natsume.jpg"
Video,100,"natsume.avi"
//Break Periods
//Storyboard Layer 0 (Background)
//Storyboard Layer 1 (Fail)
//Storyboard Layer 2 (Pass)
//Storyboard Layer 3 (Foreground)
//Storyboard Sound Samples
//Background Colour Transformations
3,100,163,162,255

[TimingPoints]
4850,491.803278688525,4,2,1,70,1,0
35587,-100,4,2,1,80,0,0
52063,-100,4,2,1,85,0,1
83538,-100,4,2,1,5,0,0

[Colours]
Combo1 : 0,128,128
Combo2 : 0,128,255
Combo3 : 0,81,162
Combo4 : 0,187,94

[HitObjects]
120,288,4849,2,0,B|232:288|304:216,1,200,4|2
440,64,6817,1,0
440,168,7309,1,2
440,272,7800,2,0,B|328:272,1,100,0|2
240,272,8784,6,0,B|240:160|144:96,1,200,0|2
72,280,10751,1,0
176,280,11243,1,2
280,280,11735,2,0,B|280:168,1,100,0|2
280,80,12718,6,0,B|160:80|104:176,1,200,0|0
136,264,14194,1,2
208,336,14686,2,0,B|328:336|384:240,1,200,0|0
328,160,16161,1,2
240,104,16653,5,0
240,208,17145,1,2
168,280,17636,1,0
240,352,18128,1,2
344,352,18620,2,0,B|336:296|368:240,1,100,0|2
440,320,19604,2,0,B|464:272|456:216,1,100,0|4
448,120,20587,5,0
348,120,21079,1,2
248,120,21571,1,0
376,272,22554,1,0
376,168,23046,1,2
376,64,23538,2,0,B|272:64,1,100,0|8
176,64,24522,5,0
112,140,25013,1,2
48,216,25505,1,0
248,216,26489,1,0
200,304,26981,1,2
296,304,27472,2,0,B|400:304,1,100,0|8
456,224,28456,5,0
256,224,29440,1,2
392,80,30423,2,0,B|288:80,1,100,0|2
240,168,31407,2,0,B|352:168,1,100,0|8
256,192,32390,12,8,35341
120,96,35833,5,8
120,96,36079,2,0,B|128:152|200:176,1,100,0|2
280,176,37063,2,0,B|280:112,2,50,0|0|2
384,176,38046,2,0,B|384:232|336:280,1,100,0|8
272,328,39030,2,0,B|312:384,2,50,0|0|2
216,248,40013,6,0,B|312:184,1,100,0|8
280,96,40997,2,0,B|184:160,1,100,0|2
104,200,41981,1,0
104,200,42472,2,0,B|104:264,2,50,2|0|8
104,48,43702,5,8
104,48,43948,2,0,B|224:48,1,100,0|2
304,48,44931,2,0,B|304:112|352:152,1,100,0|2
400,216,45915,2,0,B|448:176,2,50,0|0|8
312,272,46899,1,0
216,272,47390,1,2
256,192,47882,12,4,50833
440,88,52063,6,0,B|440:144|400:192,1,100,4|8
312,200,53046,2,0,B|312:144|352:96,1,100,0|8
440,88,54030,1,0
440,88,54522,2,0,B|440:200,1,100,8|0
440,288,55505,1,8
336,288,55997,6,0,B|336:216|304:176,1,100,0|8
264,104,56981,2,0,B|328:72,2,50,0|0|8
176,152,57964,2,0,B|152:104|88:88,1,100,0|8
80,192,58948,2,0,B|104:240|168:256,1,100,0|8
256,264,59931,5,4
360,264,60423,1,8
464,264,60915,1,0
464,264,61407,2,0,B|464:328,2,50,8|0|0
464,160,62390,2,0,B|464:112,2,50,8|0|0
464,264,63374,1,8
464,160,63866,6,0,B|360:160,1,100,0|8
384,64,64849,2,0,B|272:64,1,100,0|8
184,64,65833,1,0
112,136,66325,1,8
112,240,66817,1,0
184,312,67309,1,8
280,312,67800,6,0,B|384:312,1,100,4|8
432,224,68784,2,0,B|328:224,1,100,0|8
232,224,69768,1,0
160,152,70259,1,8
232,80,70751,2,0,B|232:16,2,50,0|0|8
304,152,71735,5,0
376,80,72227,1,8
448,152,72718,1,0
376,224,73210,1,8
272,224,73702,2,0,B|200:224,2,50,0|0|8
376,224,74686,2,0,B|448:224,2,50,0|0|8
304,152,75669,6,0,B|304:96,2,50,4|0|8
304,256,76653,1,4
232,328,77145,1,8
136,328,77636,1,4
64,256,78128,2,0,B|64:192,2,50,8|0|4
136,328,79112,1,8
232,328,79604,6,0,B|232:216,1,100,4|8
280,136,80587,2,0,B|224:152|168:128,2,100,0|8|0
232,48,82063,1,2
232,48,82554,1,0
232,48,83046,1,4
256,192,83538,12,0,85505
