osu file format v9

[General]
AudioFilename: isseinose.mp3
AudioLeadIn: 0
PreviewTime: 51375
Countdown: 0
SampleSet: Soft
StackLeniency: 0.7
Mode: 0
LetterboxInBreaks: 1

[Editor]
Bookmarks: 51571
DistanceSpacing: 1.4
BeatDivisor: 4
GridSize: 8

[Metadata]
Title:Issei no Sei (TV Size)
Artist:Kita Shuuhei
Creator:Suzully
Version:Hard
Source:Natsume Yuujinchou
Tags:opening

[Difficulty]
HPDrainRate:7
CircleSize:4
OverallDifficulty:6
ApproachRate:7
SliderMultiplier:1.6
SliderTickRate:1

[Events]
//Background and Video events
0,0,"natsume.jpg"
Video,100,"natsume.avi"
//Break Periods
//Storyboard Layer 0 (Background)
//Storyboard Layer 1 (Fail)
//Storyboard Layer 2 (Pass)
//Storyboard Layer 3 (Foreground)
//Storyboard Sound Samples
//Background Colour Transformations
3,100,163,162,255

[TimingPoints]
4850,491.803278688525,4,2,1,70,1,0
8169,-100,4,2,1,50,0,0
8415,-100,4,2,1,60,0,0
8661,-100,4,2,1,70,0,0
12104,-100,4,2,1,50,0,0
12350,-100,4,2,1,60,0,0
12595,-100,4,2,1,70,0,0
16038,-100,4,2,1,50,0,0
16284,-100,4,2,1,60,0,0
16530,-100,4,2,1,70,0,0
23907,-100,4,2,1,50,0,0
24153,-100,4,2,1,60,0,0
24399,-100,4,2,1,70,0,0
27841,-100,4,2,1,50,0,0
28087,-100,4,2,1,60,0,0
28333,-100,4,2,1,70,0,0
31530,-100,4,2,1,50,0,0
32022,-100,4,2,1,60,0,0
32268,-100,4,2,1,70,0,0
35587,-100,4,2,1,80,0,0
52063,-100,4,2,1,85,0,1
83538,-100,4,2,1,5,0,0

[Colours]
Combo1 : 0,128,128
Combo2 : 0,128,255
Combo3 : 0,81,162
Combo4 : 0,187,94

[HitObjects]
184,192,4849,2,0,B|264:264|344:176,1,160,4|0
256,152,5587,2,0,B|256:312,1,160
256,312,6325,1,0
328,272,6571,2,0,B|248:200|168:288,1,160
256,312,7309,1,0
256,312,7554,2,0,B|256:144,1,160
176,64,8292,5,8
336,64,8538,1,8
432,200,8784,6,0,B|432:280,2,80
336,64,9522,1,0
256,200,9768,1,0
176,64,10013,1,0
80,200,10259,2,0,B|80:280,2,80
176,64,10997,1,0
336,64,11243,1,0
256,200,11489,2,0,B|256:280,2,80
96,200,12227,5,8
416,200,12472,1,8
336,64,12718,6,0,B|248:64|176:144,1,160
136,184,13456,2,0,B|200:232|192:336,1,160
112,280,14194,1,0
112,280,14440,2,0,B|264:208,1,160
328,184,15177,2,0,B|304:144|312:96,2,80
392,328,16161,2,0,B|320:368,1,80,8|8
472,288,16653,6,0,B|448:192|368:152,1,160,4|0
382,160,17390,1,0
224,160,17882,1,2
168,104,18128,1,0
112,160,18374,1,2
288,224,18866,1,2
344,280,19112,1,0
400,224,19358,1,2
256,152,19850,6,0,B|256:104,2,40,2|2|4
176,320,20587,6,0,B|256:360|336:320,1,160,0|2
400,288,21325,1,0
400,288,21571,2,0,B|344:216|368:136,1,160,0|2
144,137,22309,1,0
144,137,22554,2,0,B|168:216|112:288,1,160,0|2
256,192,23292,2,0,B|256:96,2,80
192,304,24030,1,8
320,304,24276,1,8
384,192,24522,6,0,B|376:96|296:64,1,160,0|2
264,184,25259,1,0
264,184,25505,2,0,B|400:88,1,160,0|2
472,184,26243,2,0,B|472:288,2,80
392,88,26981,5,2
264,88,27227,1,0
328,200,27472,1,0
264,88,27718,1,0
136,88,27964,1,8
200,200,28210,1,8
264,312,28456,6,0,B|352:312|424:256,1,160,0|2
480,216,29194,2,0,B|448:136|368:96,1,160
296,96,29931,2,0,B|296:176,2,80,2|0|0
136,96,30915,2,0,B|136:184,1,80,2|0
208,320,31653,2,0,B|132:368|52:316,1,160,8|8
56,240,32390,6,0,B|132:192|212:244,1,160,4|0
280,280,33128,1,2
280,280,33866,2,0,B|368:280,1,80,2|0
472,168,34604,2,0,B|392:176|296:168,1,160,2|0
232,160,35341,1,8
128,96,35710,2,0,B|96:88|64:104,1,40,8|0
32,160,36079,1,8
32,200,36202,1,0
32,240,36325,2,0,B|72:256|128:240,1,80,8|0
192,224,36817,5,8
192,224,37063,2,0,B|240:208|288:232,2,80
304,344,37800,1,8
304,344,38046,2,0,B|352:344,1,40
440,272,38538,1,0
440,272,38784,1,8
440,192,39030,2,0,B|376:192,2,40
440,112,39522,2,0,B|344:112,1,80,0|8
240,112,40013,5,0
120,112,40259,1,0
240,112,40505,1,0
320,248,40751,1,8
320,248,40874,1,0
320,248,40997,2,0,B|248:296|160:248,1,160,0|0
168,252,41735,1,8
168,96,41981,6,0,B|128:104|88:96,1,80,0|0
424,152,42472,2,0,B|416:192|424:232,1,80,0|8
168,288,42964,2,0,B|128:280|88:288,1,80,0|4
216,96,43702,5,8
216,96,43948,2,0,B|264:80|312:104,2,80
192,256,44931,1,8
256,304,45177,1,0
320,256,45423,1,8
456,168,45915,6,0,B|424:128|392:120,1,80,2|0
320,96,46407,2,0,B|280:176,1,80,0|8
288,248,46899,2,0,B|240:248|208:200,1,80,2|0
160,160,47390,2,0,B|104:216,2,80,0|8|0
256,192,48128,12,4,49604
256,104,50095,5,8
88,192,50341,1,8
256,280,50587,1,8
424,192,50833,1,4
120,96,51817,5,0
120,96,51940,1,0
120,96,52063,2,0,B|120:144|168:192,1,80,4|0
312,176,52554,1,8
232,176,52800,1,0
392,176,53046,2,0,B|400:224|376:264,1,80
232,176,53538,2,0,B|224:128|248:88,1,80,8|0
312,56,54030,6,0,B|360:40|416:64,2,80,0|0|8
352,128,54768,1,0
392,200,55013,2,0,B|344:216|288:192,2,80,0|0|8
352,128,55751,1,0
392,56,55997,6,0,B|472:56,2,80,0|0|8
352,128,56735,2,0,B|168:128,1,160
112,128,57472,1,8
192,128,57718,1,0
232,56,57964,2,0,B|192:32|152:56,1,80
152,208,58456,2,0,B|192:232|232:208,1,80,8|0
304,176,58948,2,0,B|352:256,1,80
345,244,59440,1,8
408,344,59686,5,8
444,332,59809,1,0
480,316,59931,2,0,B|472:260|424:228,1,80,4|0
320,248,60423,1,8
445,245,60669,1,0
320,248,60915,2,0,B|288:216|288:144,1,80
392,96,61407,2,0,B|424:128|424:200,2,80,8|0|0
128,192,62390,5,8
256,192,62636,1,0
384,192,62882,1,0
184,344,63374,6,0,B|240:344|272:296,1,80,8|0
328,344,63866,2,0,B|272:344|240:296,1,80
256,232,64358,1,8
152,184,64604,5,0
256,136,64849,1,0
360,184,65095,1,0
256,232,65341,1,8
256,232,65587,2,0,B|256:56,1,160
152,40,66325,1,8
64,112,66571,1,0
64,232,66817,5,2
64,272,66940,1,2
176,232,67186,1,2
176,272,67309,1,10
288,232,67554,1,8
288,272,67677,1,0
288,312,67800,6,0,B|328:328|376:312,1,80,4|0
448,216,68292,1,8
366,314,68538,1,0
448,216,68784,2,0,B|408:200|360:216,1,80
400,88,69276,1,8
448,216,69522,1,0
400,88,69768,2,0,B|296:88,1,80
248,192,70259,2,0,B|344:192,1,80,8|0
400,88,70751,5,0
272,88,70997,1,0
144,88,71243,1,8
56,176,71489,1,0
144,264,71735,2,0,B|144:360,2,80,0|0|8
272,264,72472,1,0
272,264,72964,2,0,B|352:288|432:264,1,160,4|0
352,160,73702,5,0
432,264,73948,1,0
352,160,74194,1,8
272,264,74440,1,0
352,160,74686,1,0
392,40,74931,2,0,B|352:24|304:40,1,80,0|8
224,128,75423,1,8
184,128,75546,1,0
144,128,75669,6,0,B|136:168|144:208,1,80,4|0
368,256,76161,2,0,B|376:216|368:176,1,80,8|0
120,104,76653,2,0,B|112:144|120:184,1,80,4|0
392,280,77145,2,0,B|400:240|392:200,1,80,8|0
256,56,77636,1,4
256,56,78128,2,0,B|256:168,2,80,8|0|4
128,144,79112,5,8
384,144,79358,1,0
336,264,79604,2,0,B|256:312|168:256,1,160,4|8
128,144,80341,5,0
384,144,80587,2,0,B|464:144,1,80,0|0
256,272,81079,2,0,B|256:352,1,80,8|0
128,144,81571,2,0,B|24:144,1,80,0|0
256,272,82309,5,0
256,232,82431,1,0
256,192,82554,2,0,B|256:48,1,120,4|0
256,272,83292,1,0
256,192,83538,12,0,85505
