osu file format v5

[General]
AudioFilename: 03 Sixth Sense.mp3
AudioLeadIn: 0
PreviewTime: -1
Countdown: 0
SampleSet: Normal
StackLeniency: 0.7
Mode: 0

[Metadata]
Title:Sixth Sense
Artist:Kiss Kiss
Creator:CheeseWarlock
Version:Insane

[Difficulty]
HPDrainRate:7
CircleSize:6
OverallDifficulty:6
SliderMultiplier:2
SliderTickRate:1

[Events]
//Background and Video events
0,0,"kisskiss.jpg"
//Break Periods
2,66900,76238
//Storyboard Layer 0 (Background)
//Storyboard Layer 1 (Failing)
//Storyboard Layer 2 (Passing)
//Storyboard Layer 3 (Foreground)
//Storyboard Sound Samples
//Background Colour Transformations
3,100,163,162,255

[TimingPoints]
284,697.599069334574,4,1,0,100
23344,697.699069334574,4,1,0,100
44999,678.066101694915,4,1,0,100
66700,661.751655629139,4,1,0,100
92464,661.451655629139,4,1,0,100
98479,666.342857142857,4,1,0,100
109485,669.642857142858,4,1,0,100
119808,645.161290322581,4,1,0,100
140460,648.848648648649,4,1,0,100
161264,586.10921168311,4,1,0,100

[Colours]
Combo1 : 107,107,107
Combo2 : 145,20,20

[HitObjects]
80,64,11445,5,0
64,224,12143,1,0
32,240,12317,1,0
64,256,12491,1,0
64,336,12840,1,0
224,336,13538,1,0
240,304,13712,1,0
256,336,13887,1,0
336,336,14235,1,0
496,336,14933,1,0
464,320,15107,1,0
496,304,15282,1,0
496,224,15631,1,0
336,224,16328,5,0
352,192,16503,1,0
368,224,16677,1,0
448,224,17026,1,0
448,64,17723,1,0
432,96,17898,1,0
416,64,18072,1,0
336,64,18421,1,0
176,64,19119,5,0
176,144,19467,1,0
144,160,19642,1,0
176,176,19816,2,0,C|176:288,1,100
208,288,20339,1,0
240,288,20514,2,0,C|304:288|304:208,1,100
288,224,21037,1,0
240,224,21211,2,0,C|168:235|144:288,1,100
128,288,21735,1,0
160,304,21909,1,0
128,320,22083,1,0
160,336,22258,1,0
240,336,22607,5,0
400,320,23344,2,0,C|400:240|352:240|352:176,1,150
288,320,24390,1,0
288,240,24739,2,0,C|288:176|224:176|224:240,1,150
288,240,25611,1,0
288,240,25785,1,0
368,240,26134,1,0
448,240,26483,1,0
448,192,26658,2,0,C|448:80|368:80,1,150
400,160,27530,2,0,C|397:86|464:80,1,100
464,80,28053,1,0
80,64,28576,5,0
352,192,28925,6,0,C|400:160|464:272,1,150
80,320,29972,5,0
448,320,30320,6,0,C|336:320|288:272,1,150
288,256,31018,2,0,C|336:192|400:192|448:256,2,200
240,256,32588,1,0
240,208,32762,1,0
240,128,33111,1,0
240,128,33286,1,0
240,128,33460,1,0
320,128,33809,5,0
192,128,34332,1,0
192,160,34507,1,0
272,160,34856,1,0
272,192,35030,2,0,C|272:256,1,50
416,320,35902,2,0,C|368:272|320:320|272:272,1,200
192,272,36949,1,0
192,272,37123,1,0
192,272,37297,1,0
