osu file format v5

[General]
AudioFilename: 03 Sixth Sense.mp3
AudioLeadIn: 0
PreviewTime: -1
Countdown: 0
SampleSet: Normal
StackLeniency: 0.7
Mode: 0

[Metadata]
Title:Sixth Sense
Artist:Kiss Kiss
Creator:CheeseWarlock
Version:Hard

[Difficulty]
HPDrainRate:7
CircleSize:5
OverallDifficulty:6
SliderMultiplier:1.7
SliderTickRate:1

[Events]
//Background and Video events
0,0,"kisskiss.jpg"
//Break Periods
2,66900,76238
//Storyboard Layer 0 (Background)
//Storyboard Layer 1 (Failing)
//Storyboard Layer 2 (Passing)
//Storyboard Layer 3 (Foreground)
//Storyboard Sound Samples
//Background Colour Transformations
3,100,163,162,255

[TimingPoints]
284,697.599069334574,4,1,0,100
23344,697.699069334574,4,1,0,100
44999,678.066101694915,4,1,0,100
66700,661.751655629139,4,1,0,100
92464,661.451655629139,4,1,0,100
98479,666.342857142857,4,1,0,100
109485,669.642857142858,4,1,0,100
119808,645.161290322581,4,1,0,100
140460,648.848648648649,4,1,0,100
161264,586.10921168311,4,1,0,100

[Colours]
Combo1 : 107,107,107
Combo2 : 145,20,20

[HitObjects]
128,128,11445,1,2
128,256,12143,1,0
160,288,12491,1,0
192,320,12840,1,2
320,320,13538,1,0
352,288,13887,1,0
384,256,14235,1,2
384,128,14933,1,0
352,96,15282,1,0
320,64,15631,1,2
192,64,16328,1,0
160,96,16677,1,0
128,128,17026,1,2
128,256,17723,1,0
160,288,18072,1,0
192,320,18421,1,2
320,320,19119,1,0
352,288,19467,1,0
352,288,19642,1,0
352,288,19816,2,0,C|352:192,6,85
448,192,22607,5,2
384,128,23344,1,0
352,96,23692,1,0
352,96,23867,2,0,C|224:96,1,127.5
192,128,24739,1,0
160,160,25088,1,0
160,160,25262,2,0,C|160:288,1,127.5
256,320,26483,1,0
256,320,26658,2,0,C|384:320,1,127.5
384,256,27530,2,0,C|480:256,1,85
480,256,28053,1,2
384,192,28576,5,2
352,160,28925,1,0
320,128,29274,1,0
320,128,29448,1,0
192,128,29972,1,2
160,160,30320,1,0
128,192,30669,1,0
128,192,30844,1,0
128,192,31018,2,0,C|128:288,7,85
128,352,33809,5,2
256,352,34507,1,0
288,320,34856,1,0
288,320,35030,2,0,C|288:192,1,127.5
320,160,35902,1,0
352,128,36251,1,0
352,128,36425,2,0,C|352:256,1,127.5
352,320,37646,1,0
352,320,37821,2,0,C|224:320,1,127.5
224,256,38693,2,0,C|128:256,1,85
128,256,39216,1,0
128,128,39739,5,2
160,96,40088,1,0
192,64,40437,1,0
192,64,40612,2,0,C|320:64,1,127.5
384,64,41484,1,2
416,96,41833,1,0
416,96,42007,1,0
416,96,42181,2,0,B|416:224|256:128|224:256,2,255
416,224,44999,6,4,B|224:224,1,170
192,224,46016,1,0
192,224,46185,1,0
192,224,46355,2,4,B|192:32,1,170
256,64,47372,1,0
256,64,47541,1,0
256,64,47711,2,4,B|448:64,1,170
426,64,48558,1,0
426,64,48728,1,0
426,64,48897,2,2,B|463:140|376:139|384:224,1,170
384,320,50084,1,0
384,320,50254,1,4
224,320,51101,5,0
160,320,51440,1,0
160,320,51610,1,0
160,320,51779,2,0,B|160:128,1,170
160,96,52796,1,0
288,96,53135,2,4,B|480:96,3,170
448,160,55509,5,0
448,160,55678,1,0
448,160,55848,2,4,B|448:352,1,170
384,320,56865,1,0
384,320,57034,1,0
384,320,57204,2,4,B|384:128,1,170
320,160,58221,1,0
320,160,58390,1,0
320,160,58560,2,4,B|320:352,1,170
320,330,59407,1,0
320,330,59577,1,0
320,330,59746,2,2,B|227:326|160:288,1,127.5
192,288,60425,2,2,B|128:256|128:160,1,127.5
128,128,61272,1,4
256,128,61950,5,0
320,128,62289,1,0
384,128,62628,1,0
384,256,63306,1,0
384,320,63645,1,0
256,192,63984,12,0,66700
64,64,77288,5,2
64,192,77949,1,0
96,224,78280,1,0
96,224,78446,2,0,B|256:224,1,127.5
288,224,79273,1,0
352,224,79604,1,0
352,224,79769,2,0,B|352:64,1,127.5
416,96,80596,1,0
416,160,80927,1,0
416,160,81093,2,0,B|416:320,1,127.5
416,352,81920,2,0,B|320:352,1,85
331,352,82416,1,2
288,320,82747,1,0
288,320,82912,1,0
224,320,83243,5,0
160,320,83574,1,0
160,320,83740,1,2
96,320,84070,1,0
96,320,84236,1,0
32,320,84567,1,0
32,256,84898,1,0
32,256,85063,1,0
32,256,85229,2,2,B|64:160|160:160,4,170
160,256,88537,5,0
192,224,88868,1,0
192,224,89034,2,0,B|192:64,1,127.5
256,64,89861,1,0
320,32,90192,1,0
320,32,90357,2,0,B|320:192,1,127.5
320,159,91019,1,2
416,224,91515,1,0
416,224,91681,2,0,B|416:384,1,127.5
416,351,92342,2,0,B|256:352,1,127.5
288,351,92960,1,2
192,352,93456,5,0
128,352,93786,1,0
64,352,94117,1,0
64,352,94282,2,2,B|64:192,1,127.5
64,160,95109,1,0
64,96,95440,1,0
128,96,95771,2,0,B|256:141|288:64,2,170
64,96,97424,1,2
64,160,97755,1,2
64,224,98086,1,2
64,288,98479,6,4,B|256:288,1,170
288,288,99478,1,0
288,288,99645,2,4,B|288:128,1,127.5
224,160,100478,1,0
224,96,100811,1,0
224,96,100977,2,4,B|384:96,1,127.5
416,96,101810,1,0
416,96,101977,1,0
416,96,102143,1,0
416,96,102310,2,2,B|416:192|288:256,1,212.5
224,256,103476,1,0
224,256,103643,2,0,B|64:256,1,127.5
32,256,104476,1,0
32,192,104809,1,0
32,192,104975,2,0,B|32:32,1,127.5
96,64,105808,5,4
160,64,106141,1,4
224,64,106475,2,4,B|320:64,5,85
320,128,108474,1,2
320,192,108807,1,0
320,192,108973,1,0
320,192,109140,1,0
64,128,109819,5,0
64,192,110154,1,0
64,256,110489,1,2
448,256,111159,1,0
448,192,111493,1,0
448,128,111828,1,2
256,64,112498,1,0
256,64,112665,1,0
256,64,112833,1,0
256,64,113000,2,0,B|256:224,1,127.5
256,191,113670,2,0,B|256:320,1,127.5
192,320,114507,1,2
256,96,115176,5,0
320,96,115511,2,0,B|384:96,1,42.5
384,96,115846,1,2
384,160,116181,1,0
320,192,116516,1,0
256,160,116851,1,0
192,192,117185,1,2
192,256,117520,1,0
256,288,117855,1,0
256,224,118190,1,0
320,256,118525,1,2
320,320,118859,1,0
256,352,119194,1,2
192,320,119529,1,0
128,288,119808,1,2
64,32,120453,6,0,B|128:128|128:64|32:128|96:192,1,170
128,192,121420,1,0
128,192,121582,1,2
256,192,122388,2,4,B|320:160|192:160|192:96|320:128|352:192|320:224|256:256|192:256|96:256,2,340
448,64,125614,6,0,B|352:128|416:128|352:32|288:96,1,170
256,96,126582,1,0
256,96,126743,1,2
256,224,127549,2,4,B|352:256|352:160|192:160|160:224|192:256|224:288|320:288|160:352,2,340
64,128,130775,6,0,B|160:192|96:192|160:96|224:160,1,170
256,160,131743,1,0
256,160,131904,1,2
416,160,132711,2,4,B|416:256|352:256|352:96|288:96|288:320|416:320,2,340
64,320,135937,6,0,B|128:224|128:288|32:224|96:160,1,170
84,174,136904,1,0
84,174,137066,1,2
224,128,137872,2,4,C|160:51|287:48|220:268|332:264|288:192,1,680
320,320,141108,5,0
352,288,141433,1,0
384,256,141757,1,2
384,128,142244,1,0
384,128,142406,1,0
352,96,142730,1,0
320,64,143055,1,2
192,64,143542,1,0
192,64,143704,1,0
160,96,144028,1,0
128,128,144353,1,2
128,256,144839,1,0
128,256,145001,1,0
160,288,145326,1,0
192,320,145650,1,2
320,320,146137,1,0
320,320,146299,1,0
352,288,146624,1,0
384,256,146948,1,2
384,128,147597,5,0
352,96,147921,1,0
352,96,148083,2,0,C|192:96,1,127.5
160,128,148895,1,0
160,192,149219,1,0
192,176,149381,1,0
224,160,149543,1,2
288,192,149868,1,0
288,256,150192,1,2
224,224,150517,1,0
144,240,150841,6,0,B|144:64,1,170
224,32,151814,1,0
304,48,152139,6,0,B|304:224,1,170
304,224,152950,1,0
208,256,153274,1,0
208,256,153436,6,0,B|208:48,1,170
160,80,154410,1,0
112,80,154734,1,0
256,192,155383,12,0,160736
256,192,163461,1,0
256,192,163608,1,4
