osu file format v5

[General]
AudioFilename: 03 Sixth Sense.mp3
AudioLeadIn: 0
PreviewTime: -1
Countdown: 0
SampleSet: Normal
StackLeniency: 0.7
Mode: 0

[Metadata]
Title:Sixth Sense
Artist:Kiss Kiss
Creator:CheeseWarlock
Version:Easy

[Difficulty]
HPDrainRate:6
CircleSize:3
OverallDifficulty:2
SliderMultiplier:1
SliderTickRate:1

[Events]
//Background and Video events
0,0,"kisskiss.jpg"
//Break Periods
2,66896,75728
//Storyboard Layer 0 (Background)
//Storyboard Layer 1 (Failing)
//Storyboard Layer 2 (Passing)
//Storyboard Layer 3 (Foreground)
//Storyboard Sound Samples
//Background Colour Transformations
3,100,163,162,255

[TimingPoints]
284,697.599069334574,4,1,0,100
23344,697.699069334574,4,1,0,100
44999,678.066101694915,4,1,0,100
66700,661.751655629139,4,1,0,100
92464,661.451655629139,4,1,0,100
98479,666.342857142857,4,1,0,100
109485,669.642857142858,4,1,0,100
119808,645.161290322581,4,1,0,100
140460,648.848648648649,4,1,0,100
161264,586.10921168311,4,1,0,100

[Colours]
Combo1 : 107,107,107
Combo2 : 145,20,20

[HitObjects]
64,64,11445,1,0
192,64,12840,1,0
320,64,14235,1,0
448,64,15631,1,0
448,192,17026,1,0
320,192,18421,1,0
192,192,19816,2,0,C|64:192,4,100
320,192,24041,5,0
448,192,25437,1,0
448,320,26832,1,0
64,320,28576,5,2
192,320,29972,1,2
288,320,31018,2,0,C|416:320,4,100
160,320,35204,5,0
32,320,36600,1,0
32,256,37298,1,2
32,192,37995,1,0
384,192,39739,5,2
384,64,41135,1,2
288,64,42181,2,0,C|160:64,4,100
352,64,45677,6,0,C|352:192,1,100
288,160,47033,2,2,C|160:160,1,100
128,160,48389,2,0,C|128:288,1,100
128,320,49745,2,2,C|256:320,1,100
288,320,51101,2,0,C|416:320,1,100
384,192,53135,2,4,C|256:192,4,100
384,128,56526,6,2,C|384:0,1,100
320,32,57882,2,0,C|192:32,1,100
160,32,59238,2,2,C|160:160,1,100
160,192,60594,2,0,C|160:320,1,100
160,352,61950,2,2,C|288:352,1,100
384,352,63984,2,4,C|384:320|416:320|416:256,4,100
320,192,77288,5,0
448,192,78611,1,0
448,64,79935,1,0
320,64,81258,1,0
160,64,82912,5,2
32,64,84236,1,2
32,160,85229,2,0,C|160:160,4,100
32,224,88537,1,2
96,224,89199,1,2
224,224,90523,2,0,C|352:224,1,100
384,224,91846,1,2
128,64,93456,5,2
256,64,94779,1,2
352,64,95771,2,0,C|352:192|256:160|256:352,1,400
192,320,99145,2,0,C|64:320,1,100
96,256,100478,2,2,C|96:128,1,100
96,96,101810,2,0,C|224:96,1,100
256,96,103143,2,2,C|384:96,1,100
416,96,104476,2,0,C|416:224,1,100
416,320,106475,2,4,C|288:320,4,100
416,256,109819,6,2,C|416:128,1,100
416,96,111159,2,0,C|288:96,1,100
256,96,112498,2,2,C|128:96,1,100
160,160,113837,2,2,C|160:224,2,50
96,160,115176,2,0,C|96:288,1,100
96,320,116516,1,2
160,320,117185,6,4,C|288:320,3,100
384,288,120453,6,2,C|384:64,1,200
384,32,122388,2,4,C|318:104|256:32|194:109|128:32,1,400
128,96,125614,2,2,C|128:320,1,200
128,352,127549,2,4,C|195:280|259:352|320:275|384:352,1,400
448,352,130775,1,2
448,288,131420,1,2
448,224,132066,1,2
448,160,132711,2,4,C|376:92|319:168|260:88|192:160,1,400
128,160,135937,2,0,C|128:96,2,50
128,224,137227,1,2
128,288,137872,2,4,C|195:360|259:288|320:365|384:288,1,400
384,224,141108,6,2,C|384:96,1,100
384,64,142406,2,0,C|256:64,1,100
224,64,143704,1,2
160,64,144353,1,2
96,64,145001,1,2
96,128,145650,2,0,C|96:256,1,100
96,288,146948,2,2,C|224:288,1,100
256,288,148246,2,0,C|384:288,1,100
352,224,149543,2,0,C|352:96,1,100
224,128,151490,6,4,C|160:128,2,50
224,192,152788,2,4,C|160:192,2,50
224,256,154085,2,4,C|160:256,2,50
256,192,156032,12,0,160898
256,192,163608,1,4
