osu file format v5

[General]
AudioFilename: 15 One Night Carnival.mp3
AudioLeadIn: 0
PreviewTime: 44822
Countdown: 1
SampleSet: Normal
EditorBookmarks: 14806,43923,79590,88941,119823,143647

[Metadata]
Title:One Night Carnival
Artist:Kishidan
Creator:minyeob
Version:Normal

[Difficulty]
HPDrainRate:5
CircleSize:5
OverallDifficulty:5
SliderMultiplier:1.3
SliderTickRate:2

[Events]
//Background and Video events
//Break Periods
2,29919,43740
2,79349,90743
2,136260,143664
//Storyboard Layer 0 (Background)
//Storyboard Layer 1 (Failing)
//Storyboard Layer 2 (Passing)
//Storyboard Layer 3 (Foreground)
//Storyboard Sound Samples
//Background Colour Transformations
3,100,163,162,255

[TimingPoints]
9002,441.176470588235,4,1,0,100
144864,441.176470588235,4,1,0,100

[HitObjects]
256,64,16281,1,0
256,64,16501,1,0
256,192,16943,1,0
256,288,17274,1,0
160,320,17825,5,0
160,192,18266,1,0
64,256,18707,1,0
64,128,19149,1,0
256,64,19810,5,0
256,64,20031,1,0
256,192,20472,1,0
256,288,20803,1,0
352,320,21354,5,0
352,192,21796,1,0
448,256,22237,1,0
448,128,22678,1,0
352,32,23119,6,0,B|160:32|64:288,1,390
192,320,24884,2,0,B|320:320|448:224|448:64,1,390
384,32,26649,2,0,B|96:32,2,260
160,320,29296,5,0
352,320,29737,1,0
224,288,44957,5,0
288,288,45178,1,0
256,224,45399,1,0
256,160,45619,1,0
256,32,46060,5,0
384,64,46501,1,0
448,96,46722,2,0,B|512:128|512:288|352:384,1,325
288,288,48487,5,0
224,288,48707,1,0
256,224,48928,1,0
256,160,49149,1,0
256,32,49590,5,0
96,32,50031,1,0
96,192,50472,1,0
96,288,50913,1,0
160,320,51134,2,0,B|320:320,1,130
320,192,52016,5,0
256,192,52237,1,0
192,192,52457,1,0
64,64,53119,5,0
256,32,53781,1,0
256,96,54001,1,0
480,64,54884,5,0
256,32,55546,1,0
256,96,55766,1,0
288,192,56207,5,0
224,192,56428,1,0
96,192,56869,1,0
64,256,57090,2,0,B|128:320|448:288|448:256|448:224,1,390
320,192,58634,5,0
192,192,58965,1,0
256,128,59296,1,0
192,64,59626,1,0
320,64,59957,1,0
256,32,60178,5,0
128,64,60619,1,0
64,96,60840,2,0,B|0:160|4:318|160:352,1,325
224,256,62604,5,0
288,256,62825,1,0
256,192,63046,1,0
256,128,63266,1,0
256,32,63707,5,0
416,32,64149,1,0
416,192,64590,1,0
416,288,65031,1,0
352,320,65251,1,0
192,192,66134,5,0
256,192,66354,1,0
320,192,66575,1,0
480,64,67237,5,0
320,32,67899,1,0
320,96,68119,1,0
192,96,68560,1,0
192,32,68781,1,0
64,64,69222,1,0
192,192,70104,5,0
320,192,70435,1,0
480,352,70656,5,0
320,352,71207,1,0
192,352,71649,1,0
32,352,72090,1,0
32,288,72310,1,0
256,288,72972,1,0
256,128,73634,5,0
32,160,74296,2,0,B|96:64|256:32|416:64|512:192,1,520
352,224,76501,5,0
256,192,76943,1,0
160,224,77384,1,0
160,288,77825,2,0,B|224:320|320:320|352:288,1,195
256,64,78928,5,0
256,64,79149,1,0
160,32,91943,5,0
352,32,92384,1,0
352,192,92825,1,0
160,192,93266,1,0
128,288,93707,2,0,B|192:320|288:320|384:288,1,260
256,224,94810,5,0
256,224,95031,1,0
352,32,95472,5,0
160,32,95913,1,0
160,160,96354,1,0
352,160,96796,1,0
384,256,97237,2,0,B|352:288|256:288|192:288|128:256,1,260
256,224,98340,5,0
256,224,98560,1,0
160,32,99001,5,0
352,32,99443,1,0
352,160,99884,1,0
160,160,100325,1,0
128,256,100766,2,0,B|160:288|288:288|320:288|384:256,1,260
256,224,101869,5,0
256,224,102090,1,0
352,32,102531,5,0
160,32,102972,1,0
160,160,103413,1,0
352,160,103854,1,0
480,256,104296,2,0,B|384:320|256:320|128:320|32:256,1,455
256,64,106281,5,0
256,64,106501,1,0
256,192,106943,1,0
256,288,107274,1,0
160,320,107825,5,0
160,192,108266,1,0
64,256,108707,1,0
64,128,109149,1,0
256,64,109810,5,0
256,64,110031,1,0
256,192,110472,1,0
256,288,110803,1,0
352,320,111354,5,0
352,192,111796,1,0
448,256,112237,1,0
448,128,112678,1,0
384,32,113119,6,0,B|192:32|96:288,1,390
192,320,114884,2,0,B|288:320|448:288|448:64,1,390
384,32,116649,2,0,B|96:32,2,260
352,192,119296,5,0
160,192,119737,1,0
128,320,120178,5,0
256,320,120619,1,0
352,224,121060,1,0
384,320,121391,1,0
320,32,121943,2,0,B|160:32,1,130
256,192,122825,5,0
256,192,123266,1,0
384,320,123707,5,0
256,320,124149,1,0
160,224,124590,1,0
128,320,124921,1,0
192,32,125472,2,0,B|352:32,1,130
256,192,126354,5,0
256,192,126796,1,0
480,64,127237,5,0
480,192,127678,1,0
480,352,128119,1,0
384,352,128450,1,0
320,192,129001,2,0,B|160:192,1,130
256,352,129884,5,0
256,352,130325,1,0
32,64,130766,5,0
32,192,131207,1,0
32,352,131649,1,0
128,352,131979,1,0
128,256,132531,6,0,B|128:160|128:96|128:32|128:32|160:0|384:0|416:0|480:64|480:192|448:288|416:288|192:288|192:160|192:128|224:96|352:96,1,1040
256,32,144864,5,0
128,64,145305,1,0
64,96,145525,2,0,B|32:160|32:288|64:320|192:352,1,325
224,224,147290,5,0
288,224,147511,1,0
256,160,147731,1,0
256,96,147952,1,0
256,32,148393,5,0
416,32,148834,1,0
416,192,149275,2,0,B|416:288|288:352,1,195
128,352,150378,1,0
256,224,150819,5,0
256,160,151040,1,0
256,96,151261,1,0
480,64,151922,5,0
352,32,152584,1,0
352,96,152805,1,0
224,96,153246,1,0
224,32,153466,1,0
96,64,153908,1,0
192,192,154790,5,0
320,192,155121,1,0
416,352,155452,5,0
320,352,155893,1,0
160,352,156334,1,0
32,352,156775,1,0
32,288,156996,1,0
256,288,157658,1,0
256,128,158319,5,0
32,160,158981,2,0,B|64:64|192:32|320:32|416:64|480:160,1,520
352,192,161187,5,0
256,160,161628,1,0
160,192,162069,1,0
160,288,162511,2,0,B|192:320|288:320|352:288,1,195
256,64,163614,5,0
256,64,163834,1,0
256,192,164386,12,0,169569
