osu file format v5

[General]
AudioFilename: 15 One Night Carnival.mp3
AudioLeadIn: 0
PreviewTime: 44822
Countdown: 1
SampleSet: Normal
EditorBookmarks: 14806,43923,79590,88941,119823,143647

[Metadata]
Title:One Night Carnival
Artist:Kishidan
Creator:minyeob
Version:Easy

[Difficulty]
HPDrainRate:5
CircleSize:5
OverallDifficulty:5
SliderMultiplier:1.1
SliderTickRate:2

[Events]
//Background and Video events
//Break Periods
2,29919,43740
2,79349,90743
2,136260,143664
//Storyboard Layer 0 (Background)
//Storyboard Layer 1 (Failing)
//Storyboard Layer 2 (Passing)
//Storyboard Layer 3 (Foreground)
//Storyboard Sound Samples
//Background Colour Transformations
3,100,163,162,255

[TimingPoints]
9002,441.176470588235,4,1,0,100
144864,441.176470588235,4,1,0,100

[HitObjects]
256,64,16281,5,0
256,128,16501,1,0
256,256,16943,1,0
480,288,17825,5,0
320,320,18266,1,0
192,320,18707,1,0
32,288,19149,1,0
256,64,19810,5,0
256,128,20031,1,0
256,256,20472,1,0
32,288,21354,5,0
192,320,21796,1,0
320,320,22237,1,0
480,288,22678,1,0
64,64,23119,6,0,B|416:64,1,330
448,192,24884,6,0,B|96:192,1,330
32,320,26649,6,0,B|480:320,1,440
320,192,29296,5,0
192,192,29737,1,0
256,352,44957,5,0
256,288,45178,1,0
256,160,45619,1,0
256,32,46060,5,0
416,96,46722,2,0,B|480:128|448:320|352:352,1,275
256,352,48487,6,0,B|256:160,1,165
160,192,49590,5,0
32,192,50031,1,0
96,64,50472,1,0
192,64,50913,2,0,B|224:32|320:32|352:64,1,165
256,160,52016,5,0
256,224,52237,1,0
256,288,52457,1,0
352,352,53119,6,0,B|416:320|448:320|448:160,7,220
256,32,60178,5,0
96,96,60840,2,0,B|64:160|64:288|160:352,1,275
256,352,62604,6,0,B|256:160,1,165
352,192,63707,5,0
480,192,64149,1,0
416,64,64590,1,0
320,64,65031,2,0,B|192:64,1,110
320,192,66134,5,0
256,192,66354,1,0
192,192,66575,1,0
64,64,67237,5,0
256,32,67899,1,0
256,96,68119,1,0
448,32,68781,5,0
448,192,69222,1,0
416,352,70766,5,0
416,224,71207,1,0
416,128,71649,2,0,B|384:64|160:64|96:128,1,330
256,192,73634,1,0
32,320,74296,6,0,B|480:320,1,440
480,192,76943,5,0
352,192,77384,1,0
192,192,77825,2,0,B|0:192,1,165
224,32,78928,5,0
288,32,79149,1,0
480,160,91943,5,0
416,96,92384,1,0
320,64,92825,1,0
192,64,93266,1,0
96,96,93707,1,0
32,160,94149,1,0
224,192,94810,1,0
288,192,95031,1,0
480,224,95472,5,0
416,288,95913,1,0
320,320,96354,1,0
192,320,96796,1,0
96,288,97237,1,0
32,224,97678,1,0
224,192,98340,1,0
288,192,98560,1,0
480,160,99001,5,0
416,96,99443,1,0
320,64,99884,1,0
192,64,100325,1,0
96,96,100766,1,0
32,160,101207,1,0
224,192,101869,1,0
288,192,102090,1,0
416,192,102531,5,0
320,224,102972,1,0
192,224,103413,1,0
96,192,103854,1,0
64,352,104296,2,0,B|480:352,1,385
256,32,106281,5,0
256,96,106501,1,0
256,224,106943,1,0
448,256,107825,5,0
320,288,108266,1,0
192,288,108707,1,0
64,256,109149,1,0
256,32,109810,5,0
256,96,110031,1,0
256,224,110472,1,0
64,256,111354,5,0
192,288,111796,1,0
320,288,112237,1,0
448,256,112678,1,0
64,32,113119,6,0,B|416:32,1,330
512,160,114884,6,0,B|160:160,1,330
32,288,116649,6,0,B|480:288,1,440
384,192,119296,5,0
384,32,119737,1,0
256,32,120178,5,0
256,192,120619,1,0
192,320,121060,1,0
320,320,121391,1,0
384,192,122825,5,0
384,320,123266,1,0
256,320,123707,5,0
256,192,124149,1,0
320,64,124590,1,0
192,64,124921,1,0
96,192,126354,5,0
96,64,126796,1,0
256,64,127237,5,0
256,192,127678,1,0
320,320,128119,1,0
192,320,128450,1,0
96,192,129884,5,0
96,320,130325,1,0
256,320,130766,5,0
256,192,131207,1,0
320,64,131649,1,0
192,64,131979,1,0
256,192,132531,12,0,136060
256,32,144864,1,0
96,64,145525,2,0,B|64:128|64:288|160:320,1,275
256,352,147290,6,0,B|256:160,1,165
352,192,148393,5,0
480,192,148834,1,0
416,64,149275,1,0
320,64,149716,2,0,B|288:32|192:32|160:64,1,165
320,192,150819,5,0
256,192,151040,1,0
192,192,151261,1,0
64,64,151922,5,0
256,32,152584,1,0
256,96,152805,1,0
416,32,153466,5,0
416,192,153908,1,0
416,352,155452,5,0
416,224,155893,1,0
416,128,156334,2,0,B|384:64|192:64|128:96|96:128,1,330
256,192,158319,1,0
32,320,158981,6,0,B|480:320,1,440
448,192,161628,5,0
320,192,162069,1,0
192,192,162511,2,0,B|0:192,1,165
224,32,163614,5,0
288,32,163834,1,0
256,192,164386,12,0,169569
