osu file format v4

[General]
AudioFilename: 15 One Night Carnival.mp3
AudioLeadIn: 0
AudioHash: 55f1622c6c852cfc23ec7ddb18d8fdb5
PreviewTime: 44822
SampleSet: Normal
EditorBookmarks: 14806,43923,88941,119823,143647

[Metadata]
Title:One Night Carnival
Artist:Kishidan
Creator:ZZT the Fifth
Version:Hard

[Difficulty]
HPDrainRate:5
CircleSize:5
OverallDifficulty:5
SliderMultiplier: 2.2
SliderTickRate: 2

[Events]
2,29895,43716
2,79766,90719
2,136236,143640
3,0,163,162,255

[TimingPoints]
8978,441.176470588235,4,1,0
144840,441.176470588235,4,1,0

[HitObjects]
256,32,16257,1,0,
336,32,16478,1,0,
256,144,16919,1,0,
336,144,17139,1,0,
336,144,17250,1,0,
448,144,17580,5,0,
352,208,17801,1,0,
448,272,18022,1,0,
352,336,18242,1,0,
240,336,18573,1,0,
256,32,19786,5,0,
176,32,20007,1,0,
256,144,20448,1,0,
256,144,20558,1,0,
176,144,20779,1,0,
64,144,21110,5,2,
160,208,21330,1,2,
64,272,21551,1,2,
160,336,21772,1,2,
256,336,21992,1,2,
256,192,22213,5,0,
256,192,22654,1,4,
112,32,23316,5,2,
64,112,23647,1,2,
160,112,23978,2,0,B|160:112|208:64|256:96|288:128|336:176|384:160|464:96,1,330
400,224,25080,5,2,
448,304,25411,1,2,
352,304,25742,2,0,B|352:304|304:352|256:320|224:288|176:240|128:256|48:320,1,330
112,32,26845,5,2,
64,112,27176,1,2,
160,112,27507,2,0,B|160:112|208:64|256:96|288:128|336:176|384:160|480:96,1,330
192,192,29272,5,0,
320,192,29713,1,4,
96,128,44933,5,0,
160,80,45154,1,0,
224,32,45375,1,0,
288,32,45595,1,0,
352,80,45816,1,0,
416,128,46036,1,0,
256,176,46477,1,0,
112,224,46698,2,2,B|112:224|160:256|240:272|304:256|380:256|432:208,1,330
256,320,47801,1,4,
96,128,48463,5,0,
160,80,48683,1,0,
224,32,48904,1,0,
288,32,49125,1,0,
352,80,49345,1,0,
416,128,49566,1,0,
256,176,50007,1,4,
352,224,50448,1,0,
288,256,50669,1,0,
224,256,50889,1,0,
160,224,51110,1,4,
192,320,51992,5,0,
256,336,52213,1,0,
320,320,52433,1,0,
48,320,53095,6,2,B|48:320|48:176|86:133|144:96,1,220
160,64,53757,1,0,
208,16,53977,1,6,
464,320,54860,6,2,B|464:320|464:176|426:133|368:96,1,220
352,64,55522,1,0,
304,16,55742,1,6,
224,192,56183,5,0,
288,192,56404,1,0,
256,352,56845,1,0,
320,352,57066,2,2,B|320:352|393:258|395:162|367:86|290:64|212:68|196:101|177:128|139:169|115:199|90:267|163:321|180:349|208:352,1,660
448,112,58683,5,0,
352,64,58978,1,0,
256,32,59272,1,0,
160,64,59566,1,0,
64,112,59860,1,0,
256,112,60154,5,0,
256,208,60595,1,0,
112,240,60816,2,2,B|112:240|160:272|240:288|304:272|380:272|432:224,1,330
256,336,61919,1,4,
416,128,62580,5,0,
352,80,62801,1,0,
288,32,63021,1,0,
224,32,63242,1,0,
160,80,63462,1,0,
96,128,63683,1,0,
256,176,64124,1,4,
160,224,64565,1,0,
224,256,64786,1,0,
288,256,65007,1,0,
352,224,65227,1,4,
320,320,66110,5,0,
256,336,66331,1,0,
192,320,66551,1,0,
432,112,67213,6,2,B|432:112|367:90|336:80|288:77|240:80|193:82|149:77|96:112,1,330
192,160,68095,1,0,
320,160,68536,1,0,
320,224,68757,1,0,
192,224,69198,1,0,
256,80,70154,5,4,
256,176,70448,1,4,
192,128,70742,5,0,
320,128,71183,1,0,
368,272,71625,1,0,
304,320,71845,1,0,
208,320,72066,1,0,
144,272,72286,1,0,
256,160,72727,1,0,
256,240,72948,1,0,
80,64,73610,6,2,B|80:64|128:16|176:48|208:80|256:128|304:112|384:32,1,330
368,192,74602,1,0,
256,192,74933,1,0,
256,192,76257,12,0,79566
96,176,91919,5,2,
176,112,92360,1,2,
256,48,92801,1,2,
336,112,93242,1,2,
416,176,93683,2,2,B|416:176|352:208|256:224|168:209|80:176,1,330
192,320,94566,1,0,
256,320,94786,1,0,
320,320,95007,1,4,
416,176,95448,5,2,
336,112,95889,1,2,
256,48,96330,1,2,
176,112,96771,1,2,
96,176,97212,2,2,B|96:176|160:208|256:224|344:209|432:176,1,330
320,320,98095,1,0,
256,320,98315,1,0,
192,320,98536,1,4,
96,176,98977,5,2,
176,112,99418,1,2,
256,48,99859,1,2,
336,112,100300,1,2,
416,176,100741,2,2,B|416:176|352:208|256:224|168:209|80:176,1,330
192,320,101624,1,0,
256,320,101844,1,0,
320,320,102065,1,4,
416,176,102507,5,2,
336,112,102948,1,2,
256,48,103389,1,2,
176,112,103830,1,2,
96,176,104271,2,2,B|96:176|160:208|256:224|344:209|432:176,1,330
368,288,105154,1,4,
256,320,105485,1,4,
144,288,105815,1,4,
160,64,106257,5,0,
224,32,106477,1,0,
288,32,106698,1,0,
352,64,106919,1,0,
256,112,107250,1,0,
256,192,107580,5,0,
160,240,107801,1,0,
224,272,108022,1,0,
288,272,108242,1,0,
368,160,108573,1,4,
352,64,109786,5,0,
288,32,110006,1,0,
224,32,110227,1,0,
160,64,110448,1,0,
256,112,110779,1,0,
256,192,111110,5,0,
160,240,111331,1,0,
224,272,111552,1,0,
288,272,111772,1,0,
352,240,111992,1,0,
256,352,112213,1,0,
256,352,112654,1,4,
112,32,113316,5,2,
64,112,113647,1,2,
160,112,113978,2,0,B|160:112|208:64|256:96|288:128|336:176|384:160|464:96,1,330
400,224,115080,5,2,
448,304,115411,1,2,
352,304,115742,2,0,B|352:304|304:352|256:320|224:288|176:240|128:256|48:320,1,330
112,32,116845,5,2,
64,112,117176,1,2,
160,112,117507,2,0,B|160:112|208:64|256:96|288:128|336:176|384:160|480:96,1,330
192,192,119271,5,2,
320,192,119712,1,6,
176,32,120154,5,0,
336,32,120595,1,0,
256,96,120816,1,0,
208,176,121036,1,0,
304,176,121367,1,4,
192,240,121919,5,0,
256,272,122139,1,0,
320,240,122360,1,0,
256,176,122691,1,4,
336,32,123683,5,0,
176,32,124124,1,0,
256,96,124345,1,0,
304,176,124565,1,0,
208,176,124896,1,4,
384,224,125448,5,0,
320,256,125669,1,4,
192,256,126110,1,0,
128,224,126331,1,4,
176,32,127213,5,0,
336,32,127654,1,0,
256,96,127875,1,0,
208,176,128095,1,0,
304,176,128426,1,4,
192,240,128978,5,0,
256,272,129198,1,0,
320,240,129419,1,0,
256,176,129750,1,4,
336,32,130742,5,0,
176,32,131183,1,0,
256,96,131404,1,0,
304,176,131624,1,4,
208,176,131955,1,4,
256,256,132286,5,6,
458,257,132507,2,6,B|458:257|358:326|334:335|263:353|198:338|111:317|43:253|10:225,4,440
256,112,144840,5,0,
256,208,145281,1,0,
112,240,145502,2,2,B|112:240|160:272|240:288|304:272|380:272|432:224,1,330
256,336,146605,1,4,
416,128,147266,5,0,
352,80,147486,1,0,
288,32,147707,1,0,
224,32,147928,1,0,
160,80,148148,1,0,
96,128,148369,1,0,
256,176,148810,1,4,
160,224,149251,1,0,
224,256,149472,1,0,
288,256,149692,1,0,
352,224,149913,1,4,
256,112,150354,1,4,
320,320,150795,5,0,
256,336,151016,1,0,
192,320,151236,1,0,
432,112,151898,6,2,B|432:112|367:90|336:80|288:77|240:80|193:82|149:77|96:112,1,330
192,160,152780,1,0,
320,160,153221,1,0,
320,224,153442,1,0,
192,224,153883,1,4,
256,80,154766,5,4,
256,176,155097,1,4,
192,128,155427,5,2,
320,128,155868,1,2,
368,272,156310,5,2,
304,320,156530,1,2,
208,320,156751,1,2,
144,272,156971,1,2,
256,160,157412,1,0,
256,240,157633,1,4,
80,64,158295,6,2,B|80:64|128:16|176:48|208:80|256:128|304:112|384:32,1,330
368,192,159287,1,0,
256,192,159618,1,0,
160,48,160722,5,2,
352,48,161163,1,2,
256,192,161604,5,0,
144,352,162045,1,0,
368,352,162487,1,0,
256,256,162928,1,0,
256,256,163148,1,4,
256,80,163590,5,0,
256,80,163810,1,4,
256,192,164692,12,4,169545
