osu file format v12

[General]
AudioFilename: Touhou PV - Akeboshi Rocket (english & spanish subs).mp3
AudioLeadIn: 2007
PreviewTime: 60249
Countdown: 0
SampleSet: Normal
StackLeniency: 0.7
Mode: 0
LetterboxInBreaks: 0

[Editor]
DistanceSpacing: 1
BeatDivisor: 4
GridSize: 4

[Metadata]
Title:The Morning Star Rocket (Short Ver.)
TitleUnicode:The Morning Star Rocket (Short Ver.)
Artist:Kishida Kyoudan & The Akeboshi Rockets
ArtistUnicode:Kishida Kyoudan & The Akeboshi Rockets
Creator:kushu
Version:Normal
Source:Touhou
Tags:HabiHolic Whosthebox Haya
BeatmapID:227223
BeatmapSetID:81632

[Difficulty]
HPDrainRate:2
CircleSize:3
OverallDifficulty:0
ApproachRate:1
SliderMultiplier:1
SliderTickRate:1

[Events]
//Background and Video events
0,0,"BG.jpg",1,1
//Break Periods
//Storyboard Layer 0 (Background)
//Storyboard Layer 1 (Fail)
//Storyboard Layer 2 (Pass)
//Storyboard Layer 3 (Foreground)
Sprite,Foreground,Centre,"white.jpg",320,240 S,0,0,,0.8 C,0,0,,0,0,0 F,0,60157,60525,0,1 F,0,60525,60894,1 F,0,60894,61262,1,0
Sprite,Foreground,Centre,"BG.jpg",320,240 F,0,60894,61446,1,0 S,0,60894,61446,0.625,0.75 F,0,72765,72857,1,0 S,0,72765,72857,0.625,0.75
Sprite,Foreground,Centre,"white.jpg",320,240 L,60894,1 F,1,0,600,0.6,0 P,0,0,600,A
Sprite,Foreground,Centre,"white.jpg",320,240 L,72673,1 F,1,0,600,0.6,0 P,0,0,600,A
//Storyboard Sound Samples
//Background Colour Transformations
3,100,163,162,255

[TimingPoints]
618,368.098159509202,4,1,0,50,1,0
13869,-100,4,1,0,50,0,0
25280,-100,4,1,0,50,0,0
60985,-100,4,1,0,50,0,1
73133,-100,4,1,0,50,0,1
84544,-100,4,1,0,50,0,0

[Colours]
Combo1 : 164,82,0
Combo2 : 255,55,55
Combo3 : 255,128,0
Combo4 : 128,255,0
Combo5 : 62,62,255

[HitObjects]
256,192,618,12,4,2090,0:0:0:0:
160,56,2458,6,0,B|160:104|160:104|128:144,1,100,0|8,0:0|0:0,0:0:0:0:
184,224,3194,1,0,0:0:0:0:
272,176,3562,2,0,B|312:192|312:192|336:248,2,100,8|0|8,0:0|0:0|0:0,0:0:0:0:
336,96,4666,2,0,B|368:72|368:72|440:72,1,100,0|8,0:0|0:0,0:0:0:0:
456,168,5402,1,0,0:0:0:0:
360,176,5770,1,8,0:0:0:0:
408,256,6139,2,0,B|376:296|376:296|320:296,1,100,0|8,0:0|0:0,0:0:0:0:
232,328,6875,2,0,P|184:304|152:256,1,100,0|8,0:0|0:0,0:0:0:0:
256,48,7979,5,8,0:0:0:0:
200,128,8347,2,0,B|168:168|168:168|112:176,1,100,0|8,0:0|0:0,0:0:0:0:
228,224,9084,1,0,0:0:0:0:
320,200,9451,1,8,0:0:0:0:
376,280,9820,2,0,B|408:320|408:320|464:320,1,100,0|8,0:0|0:0,0:0:0:0:
444,220,10556,1,0,0:0:0:0:
400,128,10924,2,0,P|368:80|320:72,2,100,8|0|8,0:0|0:0|0:0,0:0:0:0:
208,192,12396,1,4,0:0:0:0:
296,240,12764,2,0,B|328:192|328:192|304:144,1,100
208,112,13501,1,8,0:0:0:0:
120,40,13869,6,0,L|56:120,1,100,0|8,0:0|0:0,0:0:0:0:
128,224,14605,2,0,L|200:304,1,100,0|8,0:0|0:0,0:0:0:0:
240,208,15341,1,0,0:0:0:0:
296,288,15709,1,8,0:0:0:0:
384,240,16077,2,0,L|304:156,1,100,0|8,0:0|0:0,0:0:0:0:
240,96,16813,6,0,B|272:56|272:56|320:56,1,100,0|8,0:0|0:0,0:0:0:0:
392,128,17550,2,0,B|368:168|368:168|304:168,1,100,0|8,0:0|0:0,0:0:0:0:
216,176,18286,1,0,0:0:0:0:
136,232,18654,2,0,P|128:288|168:320,1,100,8|0,0:0|0:0,0:0:0:0:
256,320,19390,1,12,0:0:0:0:
336,256,19758,6,0,B|376:216|376:216|376:152,1,100,0|8,0:0|0:0,0:0:0:0:
360,72,20494,1,0,0:0:0:0:
264,56,20863,1,8,0:0:0:0:
168,56,21231,2,0,P|128:80|96:144,1,100,0|8,0:0|0:0,0:0:0:0:
192,216,21967,2,0,L|152:264,2,50,0|0|12,0:0|0:0|0:0,0:0:0:0:
280,264,22703,6,0,L|392:264,1,100,0|8,0:0|0:0,0:0:0:0:
384,168,23439,1,0,0:0:0:0:
288,168,23807,1,8,0:0:0:0:
204,112,24176,2,0,P|136:120|116:144,2,100
192,216,25280,1,12,0:0:0:0:
200,312,25648,6,0,B|256:312|256:312|296:272,1,100
264,184,26384,2,0,L|264:80,1,100
360,64,27120,1,0,0:0:0:0:
360,64,27488,1,0,0:0:0:0:
408,152,27856,2,0,B|440:192|440:192|408:256,2,100
312,104,28961,6,0,B|272:136|272:136|272:192,1,100
208,272,29697,1,0,0:0:0:0:
208,272,30065,1,0,0:0:0:0:
112,328,30433,2,0,B|72:288|72:288|64:232,1,100
128,144,31169,1,0,0:0:0:0:
160,56,31537,6,0,B|128:96|128:96|128:144,1,100
128,248,32274,2,0,B|184:248|184:248|224:208,1,100
256,128,33010,2,0,B|288:80|288:80|336:72,1,100
408,136,33746,1,0,0:0:0:0:
400,232,34114,1,0,0:0:0:0:
320,288,34482,2,0,B|272:312|272:312|216:312,1,100
112,256,35219,1,0,0:0:0:0:
104,128,35587,1,0,0:0:0:0:
216,48,35955,6,0,L|176:104,1,50,0|8,0:0|0:0,0:0:0:0:
208,188,36507,1,0,0:0:0:0:
236,228,36691,1,0,0:0:0:0:
268,268,36875,1,0,0:0:0:0:
300,304,37059,2,0,B|340:336|340:336|404:336,1,100,8|0,0:0|0:0,0:0:0:0:
456,232,37795,5,8,0:0:0:0:
424,136,38163,1,0,0:0:0:0:
336,88,38531,2,0,B|296:56|296:56|240:56,1,100,8|0,0:0|0:0,0:0:0:0:
208,148,39267,2,0,B|160:116|160:116|152:68,1,100,8|0,0:0|0:0,0:0:0:0:
72,120,40004,1,8,0:0:0:0:
72,216,40372,2,8,B|112:312|112:312|216:312,1,200,0|0,0:0|0:0,0:0:0:0:
312,312,41476,5,8,0:0:0:0:
400,264,41844,2,0,B|432:216|432:216|432:168,1,100,0|8,0:0|0:0,0:0:0:0:
392,80,42580,2,0,B|352:48|352:48|304:48,1,100,0|8,0:0|0:0,0:0:0:0:
208,72,43316,1,0,0:0:0:0:
168,168,43685,2,0,P|224:176|256:224,1,100,8|0,0:0|0:0,0:0:0:0:
264,304,44421,2,0,P|208:336|152:312,1,100,8|0,0:0|0:0,0:0:0:0:
112,248,45157,5,8,0:0:0:0:
88,152,45525,1,0,0:0:0:0:
160,88,45893,1,8,0:0:0:0:
256,56,46261,2,0,B|312:64|360:104|392:144|400:200,1,200
376,280,47366,5,8,0:0:0:0:
376,280,47734,1,0,0:0:0:0:
280,304,48102,1,8,0:0:0:0:
280,304,48470,1,0,0:0:0:0:
184,296,48838,6,0,B|128:288|128:288|96:248,1,100,8|4,0:0|0:0,0:0:0:0:
104,112,49942,1,0,0:0:0:0:
240,112,50679,1,0,0:0:0:0:
376,120,51415,1,0,0:0:0:0:
104,256,52151,5,4,0:0:0:0:
240,112,52887,1,0,0:0:0:0:
412,312,53624,2,0,B|376:248|376:248|376:116,1,200
112,128,55096,6,0,B|120:184|120:184|176:224,1,100,4|8,0:0|0:0,0:0:0:0:
208,288,55832,2,0,B|264:288|264:288|312:240,1,100,0|8,0:0|0:0,0:0:0:0:
320,160,56568,2,0,B|296:112|296:112|248:88,1,100,0|8,0:0|0:0,0:0:0:0:
160,152,57305,2,0,L|72:216,1,100,0|8,0:0|0:0,0:0:0:0:
256,192,58040,12,0,59145,0:0:0:0:
256,240,59513,6,12,L|256:152,2,75
464,48,60985,6,0,B|456:112|456:112|416:152,1,100,4|0,0:0|0:0,0:0:0:0:
336,104,61721,1,0,0:0:0:0:
312,200,62089,2,0,B|304:264|304:264|328:312,1,100,8|0,0:0|0:0,0:0:0:0:
224,320,62826,1,8,0:0:0:0:
220,220,63194,1,0,0:0:0:0:
132,264,63562,1,8,0:0:0:0:
60,332,63930,2,0,B|28:284|28:284|44:236|44:236|12:196|12:196|28:156,1,200
108,96,65034,5,0,0:0:0:0:
204,72,65402,1,8,0:0:0:0:
212,160,65770,2,0,B|244:208|244:208|300:208,1,100,0|0,0:0|0:0,0:0:0:0:
352,128,66507,1,8,0:0:0:0:
424,200,66875,2,2,B|432:256|432:256|400:288|400:288|280:288,1,200,0|10,0:0|0:0,0:0:0:0:
224,224,67979,6,0,L|224:328,1,100,0|0,0:0|0:0,0:0:0:0:
128,312,68715,1,8,0:0:0:0:
80,224,69083,1,0,0:0:0:0:
96,128,69451,1,0,0:0:0:0:
168,56,69820,2,2,L|384:56,1,200,10|2,0:0|0:0,0:0:0:0:
416,144,70924,6,0,B|416:192|416:192|384:232,1,100,8|0,0:0|0:0,0:0:0:0:
296,184,71660,2,0,B|256:216|256:216|232:272,1,100,0|8,0:0|0:0,0:0:0:0:
152,312,72396,1,8,0:0:0:0:
152,312,72765,2,2,P|96:224|96:120,1,200,10|2,0:0|0:0,0:0:0:0:
92,132,73869,1,4,0:0:0:0:
176,72,74237,6,0,B|232:72|232:72|272:104,1,100,8|0,0:0|0:0,0:0:0:0:
224,192,74973,2,0,B|256:232|256:232|328:240,1,100,0|8,0:0|0:0,0:0:0:0:
456,120,75710,2,2,B|384:48|384:48|280:48,1,200
292,148,76814,1,8,0:0:0:0:
204,104,77182,1,0,0:0:0:0:
112,68,77550,5,8,0:0:0:0:
80,164,77918,2,0,L|80:276,1,100,0|0,0:0|0:0,0:0:0:0:
176,312,78654,2,2,B|288:312|288:312|360:224,1,200,10|2,0:0|0:0,0:0:0:0:
392,152,79758,2,0,B|368:104|368:104|320:96,2,100,8|0|8,0:0|0:0|0:0,0:0:0:0:
300,188,80863,5,8,0:0:0:0:
204,192,81231,1,8,0:0:0:0:
256,192,81599,12,0,84176,0:0:0:0:
152,112,84544,2,0,L|152:268,1,150
336,272,85648,2,0,L|336:112,1,150
240,168,86752,2,0,L|240:232,1,50
336,122,87489,2,0,L|336:272,1,150
156,272,88593,2,0,L|156:122,1,150
240,218,89697,2,0,L|240:168,1,50
