osu file format v14

[General]
AudioFilename: GATE op.mp3
AudioLeadIn: 0
PreviewTime: 50444
Countdown: 0
SampleSet: Soft
StackLeniency: 0.7
Mode: 0
LetterboxInBreaks: 0
WidescreenStoryboard: 0

[Editor]
Bookmarks: 76411
DistanceSpacing: 1.04
BeatDivisor: 4
GridSize: 4
TimelineZoom: 3.899998

[Metadata]
Title:GATE~Sore wa Akatsuki no Youni~
TitleUnicode:GATE~それは暁のように~
Artist:Kishida Kyoudan & The Akeboshi Rockets
ArtistUnicode:岸田教団&THE明星ロケッツ
Creator:chucentry
Version:GATE
Source:Gate 自衛隊 彼の地にて、斯く戦えり
Tags:
BeatmapID:752591
BeatmapSetID:340250

[Difficulty]
HPDrainRate:5.5
CircleSize:4.2
OverallDifficulty:8
ApproachRate:9.3
SliderMultiplier:1.9
SliderTickRate:1

[Events]
//Background and Video events
0,0,"elf.jpg",0,0
//Break Periods
2,108539,112585
2,166139,174985
//Storyboard Layer 0 (Background)
//Storyboard Layer 1 (Fail)
//Storyboard Layer 2 (Pass)
//Storyboard Layer 3 (Foreground)
//Storyboard Sound Samples

[TimingPoints]
489,300,4,2,2,50,1,0
789,-125,4,2,2,50,0,0
9039,-125,4,2,2,60,0,0
10239,-125,4,3,2,50,0,0
12339,-100,4,2,2,70,0,0
21639,-100,4,2,2,50,0,0
41139,-133.333333333333,4,3,2,40,0,0
45339,-133.333333333333,4,2,2,60,0,0
46689,-100,4,2,2,60,0,0
49539,-166.666666666667,4,2,2,50,0,0
50139,-100,4,2,2,60,0,0
50439,-166.666666666667,4,2,2,50,0,0
50739,-100,4,2,2,80,0,1
55539,-100,4,2,2,75,0,1
69939,-100,4,2,2,80,0,1
89139,-111.111111111111,4,2,2,50,0,0
98439,-100,4,2,2,60,0,0
113139,-133.333333333333,4,3,2,40,0,0
125139,-100,4,2,2,60,0,0
127539,-100,4,2,2,80,0,1
146739,-100,4,2,2,70,0,0
175539,-125,4,3,2,40,0,0
180189,-125,4,2,2,50,0,0
183939,-166.666666666667,4,2,2,40,0,0
185589,-100,4,2,2,70,0,0
187539,-100,4,2,2,80,0,1
213939,-100,4,2,2,70,0,0

[Colours]
Combo1 : 255,255,128
Combo2 : 128,255,128
Combo3 : 255,128,128
Combo4 : 128,255,255

[HitObjects]
360,64,489,5,4,0:0:0:0:
276,125,789,1,4,0:0:0:0:
371,163,1089,1,8,0:0:0:0:
371,163,1164,1,0,0:0:0:0:
371,163,1239,1,0,0:0:0:0:
360,64,1389,5,8,0:0:0:0:
456,184,1539,2,0,B|472:240|460:280|460:280|424:312|380:280,1,152,4|0,0:0|0:0,0:0:0:0:
284,228,1989,2,0,P|248:224|196:232,1,76,8|0,0:0|0:0,0:0:0:0:
128,328,2289,1,0,0:0:0:0:
128,328,2364,1,0,0:0:0:0:
128,328,2439,2,0,P|164:332|220:324,1,76,8|0,0:0|0:0,0:0:0:0:
317,157,2739,6,0,P|248:162|209:241,1,152,4|0,0:0|0:0,0:0:0:0:
396,336,3189,2,0,P|412:292|412:256,1,76,8|0,0:0|0:0,0:0:0:0:
432,124,3489,1,2,0:0:0:0:
432,124,3564,1,2,0:0:0:0:
432,124,3639,5,2,0:0:0:0:
409,79,3714,1,2,0:0:0:0:
370,49,3789,1,2,0:0:0:0:
322,37,3864,1,2,0:0:0:0:
273,47,3939,2,0,P|220:112|212:192,1,152,4|0,0:0|0:0,0:0:0:0:
288,288,4389,1,0,0:0:0:0:
100,268,4539,5,2,0:0:0:0:
97,226,4614,1,2,0:0:0:0:
95,184,4689,1,2,0:0:0:0:
92,142,4764,1,2,0:0:0:0:
90,100,4839,2,0,L|88:40,1,38,2|0,0:0|0:0,0:0:0:0:
273,47,4989,2,0,L|276:108,1,38,2|0,0:0|0:0,0:0:0:0:
212,272,5139,2,0,P|136:224|148:144,1,152,4|0,0:0|0:0,0:0:0:0:
273,47,5589,5,8,0:0:0:0:
362,202,5739,1,2,0:0:0:0:
204,192,5889,1,8,0:0:0:0:
344,112,6039,1,0,0:0:0:0:
368,112,6114,1,0,0:0:0:0:
392,116,6189,2,0,L|444:144,1,40,8|0,0:0|0:0,0:0:0:0:
348,297,6339,6,0,P|243:299|207:265,1,152,4|0,0:0|0:0,0:0:0:0:
292,232,6789,1,8,0:0:0:0:
453,239,6939,1,2,0:0:0:0:
348,297,7089,1,8,0:0:0:0:
464,152,7239,1,2,0:0:0:0:
472,326,7389,1,8,0:0:0:0:
292,232,7539,6,0,P|216:204|140:220,1,152,4|0,0:0|0:0,0:0:0:0:
147,216,7914,1,0,0:0:0:0:
147,216,7989,1,8,0:0:0:0:
348,297,8139,1,2,0:0:0:0:
252,112,8289,1,8,0:0:0:0:
208,304,8439,1,2,0:0:0:0:
363,162,8589,1,8,0:0:0:0:
147,216,8739,5,2,0:0:0:0:
147,216,9039,1,2,0:0:0:0:
328,88,9189,1,8,0:0:0:0:
348,297,9339,1,2,0:0:0:0:
197,48,9489,1,8,0:0:0:0:
452,167,9639,1,2,0:0:0:0:
208,304,9789,1,8,0:0:0:0:
328,88,9939,5,6,0:0:0:0:
328,88,10239,1,0,0:0:0:0:
452,167,10539,1,0,0:0:0:0:
452,167,10689,2,0,L|444:252,1,76,2|0,0:0|0:0,0:0:0:0:
279,327,10989,6,0,P|227:313|195:297,1,76,2|0,0:0|0:0,0:0:0:0:
187,210,11289,2,0,P|238:223|270:239,1,76,2|0,0:0|0:0,0:0:0:0:
376,308,11589,1,8,0:0:0:0:
452,167,11739,1,2,0:0:0:0:
196,328,11889,1,8,0:0:0:0:
150,318,11964,1,8,0:0:0:0:
112,291,12039,1,8,0:0:0:0:
88,251,12114,1,8,0:0:0:0:
81,205,12189,1,8,0:0:0:0:
93,160,12264,1,8,0:0:0:0:
121,125,12339,6,0,P|212:86|316:106,1,190,4|0,0:0|0:0,0:0:0:0:
499,232,12789,2,0,P|448:244|396:233,1,95,8|0,0:0|0:0,0:0:0:0:
224,204,13089,1,2,0:0:0:0:
344,144,13239,1,2,0:0:0:0:
308,296,13389,1,8,0:0:0:0:
204,120,13539,2,0,P|107:105|16:172,1,190,2|0,0:0|0:0,0:0:0:0:
64,308,13989,5,8,0:0:0:0:
224,204,14139,1,2,0:0:0:0:
97,193,14289,1,2,0:0:0:0:
220,340,14439,1,2,0:0:0:0:
344,144,14589,1,8,0:0:0:0:
409,339,14739,2,0,P|312:347|192:335,1,190,4|0,0:0|0:0,0:0:0:0:
93,286,15189,6,0,P|89:240|97:191,1,95,8|0,0:0|0:0,0:0:0:0:
97,193,15414,1,0,0:0:0:0:
97,193,15489,1,2,0:0:0:0:
344,144,15639,1,2,0:0:0:0:
168,144,15789,1,8,0:0:0:0:
360,72,15939,2,0,P|416:148|352:216,1,190,2|0,0:0|0:0,0:0:0:0:
168,316,16389,6,0,P|164:264|184:204,1,95,8|0,0:0|0:0,0:0:0:0:
344,144,16689,1,2,0:0:0:0:
148,44,16839,1,2,0:0:0:0:
424,40,16989,1,8,0:0:0:0:
368,232,17139,6,0,P|288:212|268:108,1,190,4|0,0:0|0:0,0:0:0:0:
148,44,17589,1,8,0:0:0:0:
344,144,17739,1,2,0:0:0:0:
112,160,17889,1,2,0:0:0:0:
296,40,18039,1,2,0:0:0:0:
296,40,18114,1,0,0:0:0:0:
296,40,18189,6,0,L|404:40,1,95,8|0,0:0|0:0,0:0:0:0:
368,232,18489,2,0,L|260:232,1,95,2|0,0:0|0:0,0:0:0:0:
92,244,18789,1,8,0:0:0:0:
245,135,18939,1,2,0:0:0:0:
256,328,19089,1,2,0:0:0:0:
112,160,19239,1,2,0:0:0:0:
296,40,19389,1,8,0:0:0:0:
54,103,19539,6,0,P|44:201|122:243,1,190,4|0,0:0|0:0,0:0:0:0:
336,117,19989,1,8,0:0:0:0:
112,160,20139,1,2,0:0:0:0:
356,140,20289,1,2,0:0:0:0:
128,119,20439,1,2,0:0:0:0:
232,248,20589,1,8,0:0:0:0:
296,40,20739,1,4,0:0:0:0:
296,40,21039,5,4,0:0:0:0:
296,40,21339,1,4,0:0:0:0:
296,40,21639,1,8,0:0:0:0:
290,69,21714,1,8,0:0:0:0:
284,99,21789,1,8,0:0:0:0:
278,129,21864,1,8,0:0:0:0:
272,159,21939,6,0,P|216:192|116:120,1,190,4|0,0:0|0:0,0:0:0:0:
204,100,22389,1,8,0:0:0:0:
34,181,22539,1,0,0:0:0:0:
34,181,22614,1,0,0:0:0:0:
34,181,22689,2,0,P|21:132|28:88,1,95
140,36,22989,5,8,0:0:0:0:
264,40,23139,1,0,0:0:0:0:
114,155,23289,2,0,P|188:196|236:188,1,95
197,196,23514,1,0,0:0:0:0:
197,196,23589,1,8,0:0:0:0:
336,108,23739,5,0,0:0:0:0:
336,108,23814,1,0,0:0:0:0:
336,108,23889,2,0,P|396:128|436:164,1,95
452,272,24189,1,8,0:0:0:0:
215,122,24339,2,0,P|123:198|172:268,1,190
232,344,24789,5,8,0:0:0:0:
24,280,24939,1,0,0:0:0:0:
197,196,25089,1,0,0:0:0:0:
24,113,25239,1,0,0:0:0:0:
215,122,25389,6,0,P|256:152|271:198,1,95,8|0,0:0|0:0,0:0:0:0:
116,340,25689,2,0,L|120:240,1,95,2|0,0:0|0:0,0:0:0:0:
158,72,25989,2,0,P|200:48|264:64,2,95,8|0|0,0:0|0:0|0:0,0:0:0:0:
80,176,26439,1,2,0:0:0:0:
272,176,26589,1,8,0:0:0:0:
64,105,26739,2,0,P|7:176|62:250,1,190,4|0,0:0|0:0,0:0:0:0:
192,320,27189,6,0,P|240:324|296:320,1,95,8|0,0:0|0:0,0:0:0:0:
340,252,27414,1,0,0:0:0:0:
340,252,27489,2,0,P|292:248|236:252,1,95,2|0,0:0|0:0,0:0:0:0:
436,336,27789,2,0,L|444:240,1,95,8|0,0:0|0:0,0:0:0:0:
329,31,28089,2,0,P|256:89|280:185,1,190,0|8,0:0|0:0,0:0:0:0:
72,268,28689,5,0,0:0:0:0:
176,196,28839,1,0,0:0:0:0:
192,320,28989,1,8,0:0:0:0:
72,268,29139,1,0,0:0:0:0:
176,196,29289,6,0,L|324:188,1,142.5
344,200,29589,1,8,0:0:0:0:
196,104,29739,1,2,0:0:0:0:
176,104,29814,1,0,0:0:0:0:
156,104,29889,1,2,0:0:0:0:
288,288,30039,5,2,0:0:0:0:
344,80,30189,1,8,0:0:0:0:
176,196,30339,1,2,0:0:0:0:
176,196,30414,1,0,0:0:0:0:
176,196,30489,2,0,L|96:200,1,47.5,2|0,0:0|0:0,0:0:0:0:
344,200,30639,1,4,0:0:0:0:
336,172,30939,5,4,0:0:0:0:
328,144,31239,1,4,0:0:0:0:
320,116,31539,2,0,B|272:148|176:92|124:132,1,190,4|0,0:0|0:0,0:0:0:0:
64,252,31989,1,8,0:0:0:0:
224,320,32139,1,2,0:0:0:0:
224,320,32214,1,0,0:0:0:0:
224,320,32289,1,0,0:0:0:0:
176,196,32439,1,2,0:0:0:0:
308,288,32589,6,0,P|364:296|416:280,1,95,8|0,0:0|0:0,0:0:0:0:
474,188,32889,2,0,P|418:180|366:196,1,95,2|0,0:0|0:0,0:0:0:0:
381,188,33114,1,0,0:0:0:0:
381,188,33189,1,8,0:0:0:0:
224,320,33339,1,2,0:0:0:0:
335,126,33489,1,2,0:0:0:0:
428,328,33639,1,2,0:0:0:0:
244,240,33789,1,8,0:0:0:0:
335,126,33939,5,0,0:0:0:0:
335,126,34014,1,0,0:0:0:0:
335,126,34089,2,0,P|431:133|452:215,1,190,0|8,0:0|0:0,0:0:0:0:
368,348,34539,1,2,0:0:0:0:
180,292,34689,2,0,P|168:244|192:172,1,95
335,126,34989,2,0,P|347:174|323:246,1,95,8|0,0:0|0:0,0:0:0:0:
180,292,35289,6,0,L|20:292,1,142.5,2|0,0:0|0:0,0:0:0:0:
82,208,35589,2,0,L|224:208,1,142.5,8|0,0:0|0:0,0:0:0:0:
252,232,35889,1,2,0:0:0:0:
164,128,36039,1,2,0:0:0:0:
335,126,36189,1,8,0:0:0:0:
274,310,36339,6,0,P|194:282|198:174,1,190,2|0,0:0|0:0,0:0:0:0:
260,68,36789,1,8,0:0:0:0:
82,208,36939,1,0,0:0:0:0:
82,208,37014,1,0,0:0:0:0:
82,208,37089,1,0,0:0:0:0:
252,232,37239,1,2,0:0:0:0:
164,128,37389,1,8,0:0:0:0:
100,328,37539,1,2,0:0:0:0:
274,310,37689,6,0,P|328:228|276:156,1,190,0|8,0:0|0:0,0:0:0:0:
73,105,38139,1,2,0:0:0:0:
73,105,38214,1,0,0:0:0:0:
73,105,38289,2,0,P|134:128|184:123,1,95
272,52,38589,1,8,0:0:0:0:
404,236,38739,6,0,P|280:228|244:172,1,190,4|0,0:0|0:0,0:0:0:0:
480,204,39189,2,0,P|481:252|448:312,1,95,8|0,0:0|0:0,0:0:0:0:
340,172,39489,1,8,0:0:0:0:
448,72,39639,1,2,0:0:0:0:
272,52,39789,1,8,0:0:0:0:
309,222,39939,6,0,L|418:238,1,95,4|8,0:0|0:0,0:0:0:0:
212,124,40239,2,0,L|103:108,1,95,4|8,0:0|0:0,0:0:0:0:
348,306,40539,1,2,0:0:0:0:
272,52,40689,1,8,0:0:0:0:
92,232,40839,1,2,0:0:0:0:
373,97,40989,1,8,0:0:0:0:
190,50,41139,6,0,P|142:102|156:176,1,142.500005435944,4|0,0:0|0:0,0:0:0:0:
284,248,41589,2,0,P|284:204|272:160,1,71.2500027179719
372,156,41889,2,0,P|350:117|320:88,1,71.2500027179719
180,140,42189,2,0,P|180:184|192:224,1,71.2500027179719
92,232,42489,2,0,P|114:270|148:304,1,71.2500027179719
340,304,42789,6,0,P|360:256|360:220,1,71.2500027179719
256,156,43089,2,0,P|249:104|231:73,1,71.2500027179719
77,163,43389,2,0,P|83:214|101:245,1,71.2500027179719
108,249,43614,1,0,0:0:0:0:
125,266,43689,2,0,L|198:266,1,71.2500027179719
327,156,43989,2,0,L|256:156,1,71.2500027179719
268,303,44289,6,0,L|350:304,1,71.2500027179719
468,200,44589,2,0,L|397:198,1,71.2500027179719
228,208,44889,1,0,0:0:0:0:
420,84,45039,1,0,0:0:0:0:
184,92,45189,1,0,0:0:0:0:
327,156,45339,1,2,0:0:0:0:
337,167,45414,1,0,0:0:0:0:
345,179,45489,1,8,0:0:0:0:
412,328,45639,5,2,0:0:0:0:
252,131,45789,1,8,0:0:0:0:
100,328,45939,2,0,P|44:320|20:264,1,106.875004076958,4|0,0:0|0:0,0:0:0:0:
15,245,46239,1,2,0:0:0:0:
132,204,46389,2,0,L|72:276,1,75.0000028610231,8|0,0:0|0:0,0:0:0:0:
64,131,46689,2,0,B|122:98|218:162|278:118,1,190,0|8,0:0|0:0,0:0:0:0:
400,248,47139,2,0,B|344:279|248:215|215:247,1,190
345,179,47589,5,8,0:0:0:0:
253,339,47739,1,2,0:0:0:0:
471,292,47889,2,0,P|479:244|463:184,1,95,2|0,0:0|0:0,0:0:0:0:
388,68,48189,1,8,0:0:0:0:
264,132,48339,2,0,L|252:236,1,95,2|0,0:0|0:0,0:0:0:0:
388,68,48639,1,2,0:0:0:0:
172,148,48789,2,0,L|156:260,1,95,8|0,0:0|0:0,0:0:0:0:
253,339,49089,5,8,0:0:0:0:
388,224,49239,1,2,0:0:0:0:
172,148,49389,1,8,0:0:0:0:
388,68,49539,6,0,P|420:108|424:164,1,85.4999973907472,2|0,0:0|0:0,0:0:0:0:
388,224,49839,1,8,0:0:0:0:
342,240,49914,1,8,0:0:0:0:
293,237,49989,1,8,0:0:0:0:
244,228,50064,1,8,0:0:0:0:
195,231,50139,2,0,L|140:240,1,47.5,8|0,0:0|0:0,0:0:0:0:
148,238,50439,6,0,P|154:287|134:327,1,85.4999973907472,2|0,0:0|0:0,0:0:0:0:
48,272,50739,6,0,L|68:76,1,190,4|0,0:0|0:0,0:0:0:0:
241,51,51189,1,8,0:0:0:0:
16,172,51339,1,2,0:0:0:0:
236,305,51489,1,2,0:0:0:0:
90,44,51639,1,2,0:0:0:0:
310,177,51789,1,8,0:0:0:0:
90,302,51939,6,0,L|-8:300,1,95,2|0,0:0|0:0,0:0:0:0:
152,224,52239,2,0,L|250:226,1,95,0|8,0:0|0:0,0:0:0:0:
348,84,52539,1,2,0:0:0:0:
448,312,52689,1,2,0:0:0:0:
310,177,52839,1,2,0:0:0:0:
294,156,52914,1,0,0:0:0:0:
274,140,52989,2,0,L|210:92,1,47.5,8|0,0:0|0:0,0:0:0:0:
152,224,53139,6,0,P|192:296|284:320,1,142.5,4|0,0:0|0:0,0:0:0:0:
284,324,53439,1,2,0:0:0:0:
172,148,53589,1,8,0:0:0:0:
92,324,53739,1,2,0:0:0:0:
310,177,53889,1,2,0:0:0:0:
72,57,54039,1,2,0:0:0:0:
152,224,54189,1,8,0:0:0:0:
256,60,54339,6,0,P|348:64|416:120,1,142.5,2|0,0:0|0:3,0:3:0:0:
422,122,54639,1,2,0:0:0:0:
254,230,54789,2,0,P|238:182|258:118,1,95,8|0,0:0|0:0,0:0:0:0:
360,304,55089,1,8,0:0:0:0:
311,325,55164,1,0,0:0:0:0:
258,332,55239,1,0,0:0:0:0:
206,324,55314,1,0,0:0:0:0:
158,301,55389,2,0,L|153:231,1,47.5,8|0,0:0|0:0,0:0:0:0:
256,60,55539,6,0,L|235:227,1,142.5,4|0,0:0|0:0,0:0:0:0:
253,229,55839,1,2,0:0:0:0:
422,122,55989,1,8,0:0:0:0:
256,60,56139,1,2,0:0:0:0:
384,185,56289,2,0,P|447:174|402:121,1,142.5,2|0,0:0|0:0,0:0:0:0:
421,121,56589,1,8,0:0:0:0:
253,229,56739,5,6,0:0:0:0:
253,229,56814,1,0,0:0:0:0:
253,229,56889,2,0,L|240:348,1,95
421,121,57189,1,8,0:0:0:0:
168,206,57339,1,6,0:0:0:0:
168,206,57414,1,0,0:0:0:0:
168,206,57489,2,0,L|155:325,1,95
338,206,57789,6,0,L|346:150,1,47.5,8|0,0:0|0:0,0:0:0:0:
278,40,57939,2,0,L|250:250,1,190,4|0,0:0|0:0,0:0:0:0:
460,344,58389,2,0,P|468:292|464:240,1,95,8|0,0:0|0:0,0:0:0:0:
296,124,58689,5,8,0:0:0:0:
392,292,58839,1,2,0:0:0:0:
488,120,58989,1,8,0:0:0:0:
278,40,59139,5,2,0:0:0:0:
164,292,59289,1,8,0:0:0:0:
312,48,59439,1,2,0:0:0:0:
392,292,59589,1,8,0:0:0:0:
278,40,59739,1,2,0:0:0:0:
124,188,59889,5,8,0:0:0:0:
78,192,59964,1,0,0:0:0:0:
51,156,60039,1,0,0:0:0:0:
68,114,60114,1,0,0:0:0:0:
109,93,60189,1,0,0:0:0:0:
155,100,60264,1,0,0:0:0:0:
192,129,60339,2,0,P|210:194|168:280,1,142.5,4|0,0:0|0:0,0:0:0:0:
164,292,60639,5,2,0:0:0:0:
280,152,60789,1,8,0:0:0:0:
392,292,60939,2,0,P|456:292|496:260,1,95
428,170,61239,1,2,0:0:0:0:
292,296,61389,1,8,0:0:0:0:
488,220,61539,2,0,P|503:175|493:129,1,95,2|0,0:0|0:0,0:0:0:0:
364,36,61839,2,0,P|349:81|359:127,1,95,0|8,0:0|0:0,0:0:0:0:
488,220,62139,5,2,0:0:0:0:
292,296,62289,1,2,0:0:0:0:
224,96,62439,1,0,0:3:0:0:
217,78,62514,1,0,0:0:0:0:
211,60,62589,1,8,0:0:0:0:
56,188,62739,6,0,B|110:224|173:184|173:184|206:217|264:189,1,190,4|0,0:0|0:0,0:0:0:0:
348,128,63189,1,8,0:0:0:0:
292,296,63339,1,2,0:0:0:0:
157,161,63489,1,2,0:0:0:0:
388,228,63639,1,2,0:0:0:0:
332,32,63789,1,8,0:0:0:0:
171,205,63939,6,0,B|107:225|47:201|47:201|71:165,1,142.5,2|0,0:0|0:0,0:0:0:0:
113,141,64239,1,2,0:0:0:0:
229,269,64389,2,0,P|178:291|113:285,1,95,8|0,0:0|0:0,0:0:0:0:
258,151,64689,2,0,P|308:128|373:134,1,95,2|0,0:0|0:0,0:0:0:0:
440,228,64989,1,8,0:0:0:0:
227,227,65139,6,0,P|184:135|247:72,1,190,4|0,0:0|0:0,0:0:0:0:
404,92,65589,1,8,0:0:0:0:
276,288,65739,2,0,P|224:300|164:284,1,95,2|0,0:0|0:0,0:0:0:0:
161,98,66039,1,2,0:0:0:0:
335,184,66189,1,8,0:0:0:0:
152,272,66339,6,0,P|124:188|164:96,1,190,4|0,0:0|0:0,0:0:0:0:
408,52,66789,1,8,0:0:0:0:
335,184,66939,2,0,B|264:208|208:172|208:172|152:200,1,190,4|0,0:0|0:0,0:0:0:0:
64,304,67389,1,8,0:0:0:0:
283,124,67539,2,0,P|387:128|403:232,1,190,4|0,0:0|0:0,0:0:0:0:
152,272,67989,5,8,0:0:0:0:
335,184,68139,1,2,0:0:0:0:
124,196,68289,1,8,0:0:0:0:
382,251,68439,1,2,0:0:0:0:
171,129,68589,1,8,0:0:0:0:
335,318,68739,2,0,P|432:312|456:224,1,190,4|0,0:0|0:0,0:0:0:0:
335,184,69189,6,0,L|200:184,1,95,8|0,0:0|0:0,0:0:0:0:
424,320,69489,1,0,0:3:0:0:
442,270,69564,1,0,0:3:0:0:
421,222,69639,1,0,0:3:0:0:
401,176,69714,1,0,0:3:0:0:
420,130,69789,1,0,0:3:0:0:
443,86,69864,1,0,0:3:0:0:
481,52,69939,6,0,P|421:32|285:72,1,190,4|0,0:0|0:0,0:0:0:0:
172,260,70389,2,0,P|184:204|176:152,1,95,8|0,0:0|0:0,0:0:0:0:
68,120,70689,1,2,0:0:0:0:
272,248,70839,1,2,0:0:0:0:
40,344,70989,1,8,0:0:0:0:
100,208,71139,1,2,0:0:0:0:
232,314,71289,6,0,P|283:322|323:307,1,95,2|0,0:0|0:0,0:0:0:0:
456,247,71589,2,0,P|364:227|256:255,1,190,8|0,0:0|0:0,0:0:0:0:
100,341,72039,1,8,0:0:0:0:
100,296,72114,1,8,0:0:0:0:
100,252,72189,1,8,0:0:0:0:
100,208,72264,1,8,0:0:0:0:
100,164,72339,6,0,B|181:164|181:164|205:168|205:168|289:168,1,190,4|0,0:0|0:0,0:0:0:0:
456,247,72789,2,0,L|344:247,1,95,8|0,0:0|0:0,0:0:0:0:
200,272,73089,1,2,0:0:0:0:
336,100,73239,1,2,0:0:0:0:
384,324,73389,1,8,0:0:0:0:
193,194,73539,2,0,P|127:257|164:341,1,190,4|0,0:0|0:0,0:0:0:0:
384,324,73989,5,8,0:0:0:0:
200,272,74139,1,2,0:0:0:0:
328,139,74289,1,8,0:0:0:0:
330,129,74364,1,0,0:0:0:0:
332,119,74439,1,0,0:0:0:0:
334,109,74514,1,0,0:0:0:0:
336,100,74589,1,8,0:0:0:0:
448,219,74739,6,0,B|360:219|360:219|344:227|344:227|232:227,1,190,4|0,0:0|0:0,0:0:0:0:
32,124,75189,2,0,L|140:124,1,95,8|0,0:0|0:0,0:0:0:0:
197,346,75489,2,0,P|129:290|169:206,1,190,4|8,0:0|0:0,0:0:0:0:
336,100,75939,2,0,L|316:208,1,95,2|0,0:0|0:0,0:0:0:0:
430,312,76239,2,0,L|450:204,1,95,0|8,0:0|0:0,0:0:0:0:
336,100,76539,5,2,0:0:0:0:
228,256,76689,1,2,0:0:0:0:
448,219,76839,1,2,0:0:0:0:
448,219,76914,1,0,0:0:0:0:
448,219,76989,1,8,0:0:0:0:
320,76,77139,6,0,B|111:60,1,190,4|0,0:0|0:0,0:0:0:0:
228,256,77589,1,8,0:0:0:0:
448,219,77739,1,8,0:0:0:0:
100,192,77889,1,8,0:0:0:0:
336,100,78039,1,8,0:0:0:0:
328,344,78189,1,8,0:0:0:0:
103,270,78339,5,8,0:0:0:0:
102,250,78414,1,8,0:0:0:0:
101,231,78489,1,8,0:0:0:0:
101,211,78564,1,8,0:0:0:0:
100,192,78639,1,8,0:0:0:0:
130,169,78714,1,8,0:0:0:0:
166,157,78789,1,8,0:0:0:0:
204,157,78864,1,8,0:0:0:0:
240,168,78939,1,8,0:0:0:0:
271,190,79014,1,8,0:0:0:0:
304,216,79089,1,8,0:0:0:0:
335,238,79164,1,8,0:0:0:0:
371,250,79239,1,8,0:0:0:0:
409,250,79314,1,8,0:0:0:0:
445,239,79389,1,8,0:0:0:0:
476,217,79464,1,8,0:0:0:0:
416,168,79539,6,0,B|416:216|416:216|428:264|428:264|415:299|415:299|415:354,1,190,4|0,0:0|0:0,0:0:0:0:
300,310,79989,2,0,L|304:202,1,95,8|0,0:0|0:0,0:0:0:0:
188,259,80289,2,0,L|184:367,1,95,2|0,0:0|0:0,0:0:0:0:
76,310,80589,1,8,0:0:0:0:
92,200,80739,6,0,B|136:204|136:204|188:164|240:204|240:204|284:200,1,190,2|0,0:0|0:0,0:0:0:0:
424,104,81189,1,8,0:0:0:0:
424,104,81264,1,0,0:0:0:0:
424,104,81339,2,0,P|400:168|408:216,1,95,2|0,0:0|0:0,0:0:0:0:
300,310,81639,2,0,P|271:247|232:219,1,95,0|8,0:0|0:0,0:0:0:0:
92,200,81939,6,0,P|184:196|232:120,1,190,6|0,0:0|0:0,0:0:0:0:
144,28,82389,2,0,P|136:76|144:132,1,95,8|0,0:0|0:0,0:0:0:0:
300,310,82689,2,0,P|308:262|300:206,1,95,2|0,0:0|0:0,0:0:0:0:
232,119,82989,1,8,0:0:0:0:
84,312,83139,2,0,P|168:328|240:256,1,190,2|0,0:0|0:0,0:0:0:0:
144,236,83589,5,8,0:0:0:0:
300,310,83739,1,2,0:0:0:0:
232,119,83889,1,2,0:0:0:0:
124,260,84039,1,2,0:0:0:0:
340,260,84189,1,8,0:0:0:0:
108,186,84339,6,0,P|52:262|105:333,1,190,6|0,0:0|0:0,0:0:0:0:
300,348,84789,1,8,0:0:0:0:
300,329,84864,1,0,0:0:0:0:
300,310,84939,2,0,B|300:226|300:226|296:206|296:206|296:120,1,190,2|0,0:0|0:0,0:0:0:0:
208,40,85389,1,8,0:0:0:0:
388,152,85539,2,0,P|400:215|374:163,1,190,2|0,0:0|0:0,0:0:0:0:
416,56,85989,5,8,0:0:0:0:
292,96,86139,1,2,0:0:0:0:
388,152,86289,1,2,0:0:0:0:
264,192,86439,1,2,0:0:0:0:
360,248,86589,1,8,0:0:0:0:
236,288,86739,2,0,L|36:288,1,190,2|0,0:0|0:0,0:0:0:0:
88,208,87189,5,8,0:0:0:0:
132,132,87339,1,2,0:0:0:0:
176,208,87489,1,2,0:0:0:0:
220,132,87639,1,2,0:0:0:0:
264,208,87789,1,8,0:0:0:0:
308,132,87939,6,0,P|352:212|296:292,1,190,2|0,0:0|0:0,0:0:0:0:
280,304,88314,6,0,P|212:308|176:320,1,95,2|0,0:0|0:0,0:0:0:0:
160,328,88539,6,0,P|80:328|16:296,1,142.5,2|0,0:0|0:0,0:0:0:0:
24,302,88839,1,0,0:0:0:0:
24,302,88914,1,0,0:0:0:0:
24,302,88989,1,0,0:0:0:0:
24,302,89064,1,0,0:0:0:0:
24,302,89139,6,0,P|24:248|32:200,1,85.4999973907472,4|0,0:0|0:0,0:0:0:0:
164,242,89439,1,0,0:0:0:0:
164,242,89589,2,0,P|164:296|156:344,1,85.4999973907472,8|0,0:0|0:0,0:0:0:0:
96,284,89889,1,0,0:0:0:0:
280,304,90039,2,0,L|392:320,1,85.4999973907472,0|0,0:0|0:0,0:0:0:0:
480,232,90339,2,0,L|368:248,1,85.4999973907472
279,159,90639,2,0,L|391:175,1,85.4999973907472,8|0,0:0|0:0,0:0:0:0:
480,232,90939,5,0,0:0:0:0:
363,171,91089,1,8,0:0:0:0:
480,110,91239,1,0,0:0:0:0:
363,49,91389,1,8,0:0:0:0:
279,159,91539,1,0,0:0:0:0:
279,159,91614,1,0,0:0:0:0:
279,159,91689,6,0,L|280:264,1,85.4999973907472
188,308,91989,1,8,0:0:0:0:
92,252,92139,1,0,0:0:0:0:
195,222,92289,2,0,L|187:314,1,85.4999973907472
92,252,92589,1,8,0:0:0:0:
279,159,92739,2,0,L|271:251,1,85.4999973907472,0|8,0:0|0:0,0:0:0:0:
271,244,92964,1,0,0:0:0:0:
271,244,93039,1,0,0:0:0:0:
85,338,93189,5,8,0:0:0:0:
120,148,93339,1,0,0:0:0:0:
122,131,93414,1,0,0:0:0:0:
124,114,93489,1,8,0:0:0:0:
216,56,93639,5,0,0:0:0:0:
324,64,93789,1,8,0:0:0:0:
412,128,93939,2,0,L|400:228,1,85.4999973907472,4|0,0:0|0:0,0:0:0:0:
271,244,94239,1,0,0:0:0:0:
271,244,94389,2,0,L|283:144,1,85.4999973907472,8|0,0:0|0:0,0:0:0:0:
368,228,94689,1,0,0:0:0:0:
191,300,94839,1,2,0:0:0:0:
191,300,94914,1,0,0:0:0:0:
191,300,94989,1,0,0:0:0:0:
346,141,95139,6,0,P|426:161|458:245,1,170.999994781494,2|0,0:0|0:0,0:0:0:0:
369,326,95589,2,0,L|277:326,1,85.4999973907472
254,326,95814,1,0,0:0:0:0:
224,326,95889,1,8,0:0:0:0:
140,220,96039,5,0,0:0:0:0:
308,220,96189,1,0,0:0:0:0:
224,326,96339,2,0,L|220:188,1,128.249996086121,4|0,0:0|0:0,0:0:0:0:
220,168,96639,1,0,0:0:0:0:
308,104,96789,5,0,0:0:0:0:
140,220,96939,1,2,0:0:0:0:
140,220,97014,1,0,0:0:0:0:
140,220,97089,1,8,0:0:0:0:
308,336,97239,1,2,0:0:0:0:
308,336,97314,1,0,0:0:0:0:
308,336,97389,1,8,0:0:0:0:
444,284,97539,6,2,L|452:224,1,42.7499986953736
412,136,97689,1,8,0:0:0:0:
340,252,97839,6,2,L|348:192,1,42.7499986953736
308,104,97989,1,8,0:0:0:0:
236,220,98139,6,2,L|244:160,1,42.7499986953736
204,72,98289,1,8,0:0:0:0:
412,136,98439,1,4,0:0:0:0:
412,136,98739,6,0,P|444:228|392:312,1,190,4|0,0:0|0:0,0:0:0:0:
264,340,99189,1,8,0:0:0:0:
160,184,99339,1,2,0:0:0:0:
160,184,99414,1,0,0:0:0:0:
160,184,99489,2,0,L|164:292,1,95,2|0,0:0|0:0,0:0:0:0:
296,228,99789,2,0,L|292:120,1,95,8|0,0:0|0:0,0:0:0:0:
292,108,100014,1,0,0:0:0:0:
292,83,100089,1,2,0:0:0:0:
412,136,100239,6,0,P|448:168|504:176,1,95,0|8,0:0|0:0,0:0:0:0:
368,264,100539,2,0,P|332:296|276:304,1,95,2|0,0:0|0:0,0:0:0:0:
74,212,100839,2,0,P|113:186|160:184,1,95,0|8,0:0|0:0,0:0:0:0:
296,228,101139,6,0,P|245:175|305:79,1,190,2|0,0:0|0:0,0:0:0:0:
324,152,101589,1,8,0:0:0:0:
228,316,101739,1,2,0:0:0:0:
368,264,101889,1,2,0:0:0:0:
181,229,102039,1,2,0:0:0:0:
336,132,102189,6,0,L|444:136,1,95,8|0,0:0|0:0,0:0:0:0:
348,276,102489,2,0,L|240:272,1,95,2|0,0:0|0:0,0:0:0:0:
123,142,102789,2,0,P|115:86|135:38,2,95,8|0|0,0:0|0:0|0:0,0:0:0:0:
248,180,103239,1,2,0:0:0:0:
110,271,103389,1,8,0:0:0:0:
255,349,103539,2,0,L|455:341,1,190,6|0,0:0|0:0,0:0:0:0:
364,182,103989,6,0,L|344:294,1,95,8|0,0:0|0:0,0:0:0:0:
176,340,104289,2,0,L|196:228,1,95,2|0,0:0|0:0,0:0:0:0:
290,103,104589,1,8,0:0:0:0:
88,184,104739,1,2,0:0:0:0:
88,184,104814,1,0,0:0:0:0:
88,184,104889,2,0,P|44:104|92:24,1,190,0|8,0:0|0:0,0:0:0:0:
184,196,105339,5,2,0:0:0:0:
84,280,105489,1,0,0:0:0:0:
176,340,105639,2,0,L|296:340,1,95,0|8,0:0|0:0,0:0:0:0:
372,184,105939,2,0,P|352:252|380:328,1,142.5,2|0,0:0|0:0,0:0:0:0:
388,344,106239,1,2,0:0:0:0:
452,252,106389,2,0,P|456:196|448:140,1,95,8|0,0:0|0:0,0:0:0:0:
371,89,106614,1,0,0:0:0:0:
371,89,106689,2,0,P|367:145|375:201,1,95,2|0,0:0|0:0,0:0:0:0:
388,344,106989,5,8,0:0:0:0:
178,289,107139,2,0,L|62:277,1,95,6|8,0:0|0:0,0:0:0:0:
276,98,107439,2,0,L|392:86,1,95,4|8,0:0|0:0,0:0:0:0:
202,327,107739,1,2,0:0:0:0:
319,49,107889,1,8,0:0:0:0:
388,344,108039,1,2,0:0:0:0:
160,145,108189,1,8,0:0:0:0:
461,171,108339,1,6,0:0:0:0:
461,171,113139,6,0,P|481:263|449:307,1,142.5,4|0,0:0|0:0,0:0:0:0:
356,348,113589,2,0,P|316:312|296:276,1,71.2500027179719
232,328,113889,2,0,P|229:274|240:234,1,71.2500027179719,0|0,0:3|0:0,0:0:0:0:
272,160,114189,2,0,P|305:202|318:241,1,71.2500027179719
390,201,114489,2,0,P|383:254|365:291,1,71.2500027179719,0|0,0:3|0:0,0:0:0:0:
232,328,114789,6,0,P|176:316|152:296,1,71.2500027179719
228,224,115089,2,0,P|196:175|194:144,1,71.2500027179719,0|0,0:3|0:3,0:3:0:0:
269,80,115389,1,8,0:3:0:0:
86,126,115539,1,4,0:3:0:0:
86,126,116739,5,4,0:0:0:0:
16,228,117039,1,0,0:0:0:0:
16,228,117189,2,0,L|28:316,1,71.2500027179719,10|0,0:0|0:0,0:0:0:0:
128,252,117489,1,8,0:0:0:0:
154,252,117564,1,0,0:0:0:0:
180,252,117639,1,0,0:0:0:0:
207,252,117714,1,0,0:0:0:0:
233,252,117789,1,0,0:0:0:0:
259,252,117864,1,0,0:0:0:0:
286,252,117939,6,0,L|386:252,1,71.2500027179719,2|0,0:0|0:0,0:0:0:0:
464,156,118239,1,0,0:0:0:0:
464,156,118389,2,0,L|364:156,1,71.2500027179719,2|0,0:0|0:0,0:0:0:0:
304,60,118689,2,0,P|281:90|270:133,1,71.2500027179719,2|0,0:0|0:0,0:0:0:0:
200,112,118989,2,0,P|205:149|228:187,1,71.2500027179719,2|0,0:0|0:0,0:0:0:0:
264,256,119289,2,0,P|286:225|297:182,1,71.2500027179719,2|0,0:0|0:0,0:0:0:0:
368,204,119589,2,0,P|362:166|339:128,1,71.2500027179719,2|0,0:0|0:0,0:0:0:0:
200,112,119889,6,0,P|160:108|104:116,1,71.2500027179719,2|0,0:0|0:0,0:0:0:0:
44,216,120189,2,0,P|84:220|140:212,1,71.2500027179719,2|4,0:0|0:0,0:0:0:0:
140,208,120414,1,0,0:0:0:0:
164,200,120489,2,0,P|199:197|234:201,1,71.2500027179719,2|0,0:0|0:0,0:0:0:0:
340,300,120789,2,0,P|313:276|288:244,1,71.2500027179719,2|0,0:0|0:0,0:0:0:0:
356,128,121089,2,0,P|332:154|304:176,1,71.2500027179719,2|0,0:0|0:0,0:0:0:0:
168,280,121389,2,0,P|132:282|97:278,1,71.2500027179719,2|0,0:0|3:0,0:0:0:0:
61,256,121614,1,0,0:0:0:0:
44,216,121689,6,0,P|41:180|45:145,1,71.2500027179719,2|0,0:0|3:0,0:0:0:0:
76,64,121989,2,0,P|103:87|125:114,1,71.2500027179719,10|0,0:0|3:0,0:0:0:0:
156,196,122289,2,0,P|224:208|276:160,1,142.500005435944,2|0,0:0|3:0,0:0:0:0:
202,130,122739,1,4,0:0:0:0:
266,82,122889,2,0,L|344:80,1,71.2500027179719,8|0,0:0|0:0,0:0:0:0:
424,152,123189,2,0,L|346:154,1,71.2500027179719,8|0,0:0|0:0,0:0:0:0:
236,204,123489,5,8,0:0:0:0:
312,220,123639,1,2,0:0:0:0:
372,268,123789,1,2,0:0:0:0:
400,340,123939,1,2,0:0:0:0:
452,280,124089,2,0,L|472:204,1,71.2500027179719
398,125,124389,2,0,L|378:201,1,71.2500027179719,2|0,0:0|0:0,0:0:0:0:
379,193,124614,1,0,0:0:0:0:
379,193,124689,1,8,0:0:0:0:
296,300,124839,5,2,0:0:0:0:
140,148,124989,1,8,0:0:0:0:
237,39,125139,2,0,P|277:119|214:216,1,190,6|0,0:0|0:0,0:0:0:0:
68,344,125589,2,0,L|74:237,1,95,8|0,0:0|0:0,0:0:0:0:
235,203,125889,2,0,L|228:309,1,95,2|0,0:0|0:0,0:0:0:0:
140,148,126189,5,8,0:0:0:0:
332,248,126339,2,0,L|325:354,1,95,2|0,0:0|0:0,0:0:0:0:
155,333,126639,1,10,0:0:0:0:
155,333,126714,1,8,0:0:0:0:
155,333,126789,1,8,0:0:0:0:
236,204,126939,5,8,0:0:0:0:
277,163,127014,1,8,0:0:0:0:
333,150,127089,1,8,0:0:0:0:
388,168,127164,1,8,0:0:0:0:
426,211,127239,1,8,0:0:0:0:
480,188,127314,1,8,0:0:0:0:
484,132,127389,1,8,0:0:0:0:
444,92,127464,1,8,0:0:0:0:
400,128,127539,6,0,P|364:216|388:304,1,190,14|0,0:0|0:0,0:0:0:0:
480,188,127989,1,8,0:0:0:0:
250,333,128139,2,0,L|150:333,1,95,2|0,0:0|0:0,0:0:0:0:
72,250,128439,1,2,0:0:0:0:
240,120,128589,1,8,0:0:0:0:
92,64,128739,2,0,L|104:184,1,95,2|0,0:0|0:0,0:0:0:0:
250,333,129039,2,0,L|238:213,1,95,0|8,0:0|0:0,0:0:0:0:
364,76,129339,5,2,0:0:0:0:
384,256,129489,1,2,0:0:0:0:
240,120,129639,1,2,0:0:0:0:
232,112,129714,1,0,0:0:0:0:
224,104,129789,1,8,0:0:0:0:
72,250,129939,6,0,P|152:280|224:252,1,142.5,4|0,0:0|0:0,0:0:0:0:
232,248,130239,1,2,0:0:0:0:
138,96,130389,2,0,L|146:200,1,95,8|0,0:0|0:0,0:0:0:0:
232,248,130689,1,2,0:0:0:0:
44,64,130839,2,0,L|52:168,1,95,0|8,0:0|0:0,0:0:0:0:
163,283,131139,6,0,P|231:323|295:295,1,142.5,2|0,0:0|0:0,0:0:0:0:
305,285,131439,1,2,0:0:0:0:
360,92,131589,2,0,P|352:148|378:206,1,95,8|0,0:0|0:0,0:0:0:0:
441,318,131889,5,8,0:0:0:0:
398,300,131964,1,8,0:0:0:0:
351,288,132039,1,8,0:0:0:0:
305,285,132114,1,8,0:0:0:0:
257,287,132189,1,8,0:0:0:0:
211,297,132264,1,8,0:0:0:0:
166,316,132339,6,0,P|148:240|164:160,1,142.5,4|0,0:0|0:0,0:0:0:0:
172,148,132639,1,2,0:0:0:0:
56,252,132789,1,8,0:0:0:0:
20,84,132939,1,2,0:0:0:0:
198,77,133089,2,0,P|246:141|206:213,1,142.5,2|0,0:0|0:0,0:0:0:0:
228,194,133389,1,8,0:0:0:0:
257,287,133539,6,0,P|296:252|356:248,1,95,6|0,0:0|0:0,0:0:0:0:
436,292,133839,1,2,0:0:0:0:
436,292,133914,1,0,0:0:0:0:
436,292,133989,1,8,0:0:0:0:
313,162,134139,6,0,P|365:164|410:204,1,95,6|0,0:0|0:0,0:0:0:0:
436,292,134439,1,2,0:0:0:0:
436,292,134514,1,0,0:0:0:0:
436,292,134589,1,8,0:0:0:0:
257,287,134739,2,0,P|232:200|256:96,1,190,4|0,0:0|0:0,0:0:0:0:
404,64,135189,1,8,0:0:0:0:
447,178,135339,5,2,0:0:0:0:
444,206,135414,1,2,0:0:0:0:
441,235,135489,1,2,0:0:0:0:
439,264,135564,1,2,0:0:0:0:
436,292,135639,1,2,0:0:0:0:
410,314,135714,5,2,0:0:0:0:
381,311,135789,1,2,0:0:0:0:
352,309,135864,1,2,0:0:0:0:
323,306,135939,2,0,L|216:291,1,95,6|0,0:0|0:0,0:0:0:0:
112,204,136239,2,0,L|218:189,1,95,6|0,0:0|0:0,0:0:0:0:
323,102,136539,1,6,0:0:0:0:
50,62,136689,5,8,0:0:0:0:
35,110,136764,1,8,0:0:0:0:
49,158,136839,1,8,0:0:0:0:
35,206,136914,1,8,0:0:0:0:
52,254,136989,1,8,0:0:0:0:
38,298,137064,1,8,0:0:0:0:
59,341,137139,6,0,P|132:320|216:336,1,142.5,6|0,0:0|0:0,0:0:0:0:
232,344,137439,1,2,0:0:0:0:
112,204,137589,1,8,0:0:0:0:
323,102,137739,2,0,L|311:218,1,95,2|0,0:0|0:0,0:0:0:0:
232,344,138039,1,2,0:0:0:0:
384,264,138189,1,8,0:0:0:0:
207,204,138339,6,0,L|87:204,1,95,2|0,0:0|0:0,0:0:0:0:
323,102,138639,2,0,L|443:102,1,95,2|8,0:0|0:0,0:0:0:0:
316,212,138939,1,2,0:0:0:0:
192,48,139089,1,2,0:0:0:0:
115,240,139239,1,2,0:0:0:0:
111,253,139314,1,0,0:0:0:0:
108,267,139389,1,8,0:0:0:0:
260,152,139539,6,0,B|326:118|374:157|374:157|408:132|456:156,1,190,4|0,0:0|0:0,0:0:0:0:
363,347,139989,1,8,0:0:0:0:
173,302,140139,1,2,0:0:0:0:
316,212,140289,1,2,0:0:0:0:
176,344,140439,1,2,0:0:0:0:
392,268,140589,1,8,0:0:0:0:
176,184,140739,6,0,P|116:164|44:212,1,142.5,2|0,0:0|0:0,0:0:0:0:
28,228,141039,1,2,0:0:0:0:
316,212,141189,2,0,P|324:140|316:100,1,95,8|0,0:0|0:0,0:0:0:0:
120,248,141489,2,0,P|112:320|120:360,1,95,2|0,0:0|0:0,0:0:0:0:
392,268,141789,1,8,0:0:0:0:
399,78,141939,2,0,L|391:278,1,190,6|0,0:0|0:0,0:0:0:0:
302,298,142389,1,8,0:0:0:0:
468,124,142539,2,0,L|464:264,1,95,0|2,0:0|0:0,0:0:0:0:
302,298,142839,5,2,0:0:0:0:
120,248,142989,1,8,0:0:0:0:
248,80,143139,2,0,L|232:236,1,142.5,4|0,0:0|0:0,0:0:0:0:
233,221,143439,1,2,0:0:0:0:
120,248,143589,1,8,0:0:0:0:
340,52,143739,2,0,L|324:208,1,142.5,4|0,0:0|0:0,0:0:0:0:
325,193,144039,1,2,0:0:0:0:
248,80,144189,1,8,0:0:0:0:
138,326,144339,6,0,P|59:293|63:197,1,190,4|0,0:0|0:0,0:0:0:0:
124,88,144789,1,8,0:0:0:0:
325,193,144939,1,2,0:0:0:0:
120,248,145089,1,8,0:0:0:0:
248,80,145239,1,2,0:0:0:0:
262,293,145389,1,8,0:0:0:0:
124,88,145539,1,6,0:0:0:0:
124,88,145839,5,2,0:0:0:0:
32,156,145989,2,0,L|40:260,1,95,8|0,0:0|0:0,0:0:0:0:
198,248,146289,2,0,L|190:144,1,95,8|0,0:0|0:0,0:0:0:0:
276,40,146589,1,8,0:0:0:0:
328,152,146739,1,2,0:0:0:0:
328,152,146814,1,0,0:0:0:0:
328,152,146889,2,0,L|456:152,1,95,2|0,0:0|0:0,0:0:0:0:
340,324,147189,5,8,0:0:0:0:
198,248,147339,1,2,0:0:0:0:
380,188,147489,1,2,0:0:0:0:
276,40,147639,1,2,0:0:0:0:
199,205,147789,1,8,0:0:0:0:
404,112,147939,6,0,P|456:192|388:272,1,190,4|0,0:0|0:0,0:0:0:0:
237,315,148389,1,8,0:0:0:0:
284,224,148539,2,0,L|288:168,1,47.5,2|0,0:0|0:0,0:0:0:0:
188,128,148689,1,8,0:0:0:0:
368,260,148839,1,2,0:0:0:0:
327,100,148989,1,8,0:0:0:0:
237,315,149139,6,0,P|136:332|56:276,1,190,4|0,0:0|0:0,0:0:0:0:
164,208,149589,2,0,P|265:191|345:247,1,190,8|0,0:0|0:0,0:0:0:0:
440,336,150039,1,2,0:0:0:0:
336,332,150189,1,8,0:0:0:0:
428,236,150339,1,0,0:0:0:0:
428,236,150414,1,0,0:0:0:0:
428,236,150489,6,0,P|432:188|424:128,1,95,2|0,0:0|0:0,0:0:0:0:
308,104,150789,2,0,P|304:152|312:212,1,95,8|0,0:0|0:0,0:0:0:0:
308,198,151014,1,0,0:0:0:0:
308,198,151089,1,2,0:0:0:0:
189,141,151239,1,2,0:0:0:0:
427,141,151389,1,8,0:0:0:0:
172,68,151539,6,0,P|116:140|164:212,1,190,4|0,0:0|0:0,0:0:0:0:
326,271,151989,1,8,0:0:0:0:
164,212,152139,1,2,0:0:0:0:
326,271,152289,2,0,P|381:201|333:126,1,190,2|8,0:0|0:0,0:0:0:0:
172,68,152739,5,2,0:0:0:0:
172,68,152814,1,0,0:0:0:0:
172,68,152889,2,0,L|168:176,1,95,2|0,0:0|0:0,0:0:0:0:
322,365,153189,2,0,L|326:257,1,95,8|0,0:0|0:0,0:0:0:0:
368,152,153489,1,2,0:0:0:0:
236,288,153639,1,2,0:0:0:0:
400,308,153789,1,8,0:0:0:0:
268,172,153939,6,0,P|196:164|96:172,1,142.5,4|0,0:0|0:0,0:0:0:0:
126,167,154239,1,2,0:0:0:0:
322,365,154389,2,0,L|330:253,1,95,8|0,0:0|0:0,0:0:0:0:
236,288,154689,1,2,0:0:0:0:
400,308,154839,2,0,L|408:196,1,95,0|8,0:0|0:0,0:0:0:0:
480,112,155139,6,0,P|384:90|304:144,1,190,4|0,0:0|0:0,0:0:0:0:
236,288,155589,1,8,0:0:0:0:
119,234,155739,1,2,0:0:0:0:
120,216,155814,1,2,0:0:0:0:
122,200,155889,1,2,0:0:0:0:
124,184,155964,1,2,0:0:0:0:
126,167,156039,1,2,0:0:0:0:
128,151,156114,1,2,0:0:0:0:
130,135,156189,2,0,L|136:72,1,47.5,2|0,0:0|0:0,0:0:0:0:
208,124,156339,6,0,P|280:184|380:160,1,190,4|0,0:0|0:0,0:0:0:0:
304,88,156789,1,8,0:0:0:0:
236,288,156939,1,2,0:0:0:0:
369,168,157089,1,2,0:0:0:0:
171,208,157239,1,2,0:0:0:0:
343,261,157389,1,8,0:0:0:0:
208,124,157539,1,2,0:0:0:0:
208,124,157614,1,0,0:0:0:0:
208,124,157689,6,0,L|84:112,1,95,2|0,0:0|0:0,0:0:0:0:
192,32,157989,1,8,0:0:0:0:
268,188,158139,1,2,0:0:0:0:
100,279,158289,2,0,L|91:166,1,95,2|0,0:0|0:0,0:0:0:0:
92,183,158514,1,0,0:0:0:0:
92,183,158589,1,8,0:0:0:0:
26,283,158739,6,0,P|86:352|167:310,1,190,4|0,0:0|0:0,0:0:0:0:
268,188,159189,2,0,P|256:248|272:304,1,95,8|0,0:0|0:0,0:0:0:0:
338,239,159489,1,2,0:0:0:0:
197,136,159639,1,2,0:0:0:0:
353,58,159789,1,8,0:0:0:0:
268,188,159939,1,2,0:0:0:0:
268,188,160014,1,0,0:0:0:0:
268,188,160089,6,0,P|188:224|112:152,1,190,2|8,0:0|0:0,0:0:0:0:
68,68,160539,1,2,0:0:0:0:
76,248,160689,1,2,0:0:0:0:
197,136,160839,1,2,0:0:0:0:
44,256,160989,1,8,0:0:0:0:
257,377,161139,1,2,0:0:0:0:
257,377,161214,1,0,0:0:0:0:
257,377,161289,6,2,L|269:169,1,190,2|10,0:0|0:0,0:0:0:0:
340,84,161739,1,2,0:0:0:0:
197,136,161889,2,0,L|188:272,1,95,2|0,0:0|0:0,0:0:0:0:
340,84,162189,1,8,0:0:0:0:
116,168,162339,1,2,0:0:0:0:
116,168,162414,1,0,0:0:0:0:
116,168,162489,2,0,L|107:304,1,95,2|0,0:0|0:0,0:0:0:0:
288,336,162789,2,0,L|297:200,1,95,8|0,0:0|0:0,0:0:0:0:
340,84,163089,5,2,0:0:0:0:
396,272,163239,1,2,0:0:0:0:
396,272,163314,1,0,0:0:0:0:
396,272,163389,1,8,0:0:0:0:
136,256,163539,2,0,P|220:204|320:228,1,190,4|0,0:0|0:0,0:0:0:0:
396,272,163989,5,8,0:0:0:0:
420,256,164064,1,0,0:0:0:0:
444,236,164139,2,0,L|452:184,3,47.5,2|0|0|0,0:0|0:0|0:0|0:0,0:0:0:0:
376,192,164439,2,0,L|356:144,3,47.5,2|0|8|0,0:0|0:0|0:0|0:0,0:0:0:0:
424,119,164739,1,2,0:0:0:0:
392,87,164814,1,2,0:0:0:0:
348,75,164889,1,2,0:0:0:0:
308,95,164964,1,2,0:0:0:0:
288,135,165039,6,0,L|284:240,1,95,2|8,0:0|0:0,0:0:0:0:
204,332,165339,1,4,0:0:0:0:
60,188,165639,1,4,0:0:0:0:
288,135,165939,1,4,0:0:0:0:
64,112,175539,5,4,0:0:0:0:
64,112,175689,2,0,P|112:152|148:152,1,76
128,272,175989,2,0,P|168:224|168:188,1,76
288,208,176289,2,0,P|240:168|204:168,1,76
224,48,176589,2,0,P|184:96|184:132,1,76
216,224,176889,6,0,P|232:260|288:288,1,76
288,208,177189,2,0,P|324:222|384:202,1,76
336,148,177489,2,0,P|372:131|399:76,1,76
319,75,177789,2,0,P|333:38|313:-21,1,76
224,48,178089,6,0,P|187:33|127:53,1,76
184,110,178389,2,0,P|148:126|120:182,1,76
192,186,178689,2,0,P|177:222|197:282,1,76
256,226,178989,2,0,P|272:262|327:289,1,76
408,224,179289,2,0,P|371:209|311:229,1,76
304,332,179589,2,0,P|340:316|368:260,1,76,0|2,0:0|0:0,0:0:0:0:
361,287,179814,1,0,0:0:0:0:
361,287,179889,1,8,0:0:0:0:
455,161,180189,5,8,0:0:0:0:
361,287,180339,2,0,P|323:325|225:328,1,152,4|0,0:0|0:0,0:0:0:0:
276,184,180789,2,0,P|288:236|276:272,1,76,8|0,0:0|0:0,0:0:0:0:
100,232,181089,2,0,L|228:232,1,114,4|0,0:0|0:0,0:0:0:0:
214,232,181389,1,8,0:0:0:0:
136,312,181539,6,0,P|96:320|52:312,1,76,2|8,0:0|0:0,0:0:0:0:
64,156,181839,2,0,P|104:148|148:156,1,76,0|8,0:0|0:0,0:0:0:0:
214,232,182139,1,0,0:0:0:0:
299,259,182289,2,0,P|343:219|355:187,1,76,8|0,0:0|0:0,0:0:0:0:
312,120,182589,1,8,0:0:0:0:
404,136,182739,1,0,0:0:0:0:
404,136,182814,1,0,0:0:0:0:
404,136,182889,2,0,P|440:200|396:280,1,152,8|0,0:0|0:0,0:0:0:0:
312,336,183339,6,0,P|272:332|232:300,1,76
152,320,183639,1,0,0:0:0:0:
214,232,183789,1,8,0:0:0:0:
112,140,183939,2,0,P|104:184|124:232,1,85.4999973907472,4|0,0:0|0:0,0:0:0:0:
214,232,184239,5,8,0:0:0:0:
260,248,184314,1,8,0:0:0:0:
308,244,184389,1,8,0:0:0:0:
356,236,184464,1,8,0:0:0:0:
404,252,184539,1,8,0:0:0:0:
404,252,185589,5,14,0:0:0:0:
388,40,185739,1,14,0:0:0:0:
124,40,186039,1,14,0:0:0:0:
140,252,186339,1,14,0:0:0:0:
404,252,186639,5,14,0:0:0:0:
255,31,186939,1,14,0:0:0:0:
140,252,187239,1,14,0:0:0:0:
404,252,187539,6,0,P|348:188|240:196,1,190,4|0,0:0|0:0,0:0:0:0:
140,252,187989,1,8,0:0:0:0:
304,352,188139,2,0,P|316:304|312:260,1,95,2|0,0:0|0:0,0:0:0:0:
212,128,188439,2,0,L|212:204,1,47.5,2|0,0:0|0:0,0:0:0:0:
336,108,188589,1,8,0:0:0:0:
156,48,188739,1,2,0:0:0:0:
156,48,188814,1,0,0:0:0:0:
156,48,188889,2,0,L|56:56,1,95,2|0,0:0|0:0,0:0:0:0:
140,252,189189,6,0,P|148:196|132:144,1,95,8|0,0:0|0:0,0:0:0:0:
44,244,189489,5,8,0:0:0:0:
59,296,189564,1,8,0:0:0:0:
101,333,189639,1,8,0:0:0:0:
155,344,189714,1,8,0:0:0:0:
207,325,189789,2,0,L|244:272,1,47.5,8|0,0:0|0:0,0:0:0:0:
336,108,189939,6,0,P|356:207|455:235,1,190,4|0,0:0|0:0,0:0:0:0:
447,122,190389,1,8,0:0:0:0:
225,122,190539,1,2,0:0:0:0:
372,308,190689,2,0,P|384:260|372:196,1,95,2|0,0:0|0:0,0:0:0:0:
336,108,190989,5,8,0:0:0:0:
292,260,191139,2,0,P|200:288|112:224,1,190,4|0,0:0|0:0,0:0:0:0:
41,160,191589,1,8,0:0:0:0:
298,47,191739,2,0,P|385:54|397:152,1,190,4|0,0:0|0:0,0:0:0:0:
372,308,192189,1,8,0:0:0:0:
216,197,192339,1,4,0:0:0:0:
178,168,192414,1,2,0:0:0:0:
134,151,192489,1,2,0:0:0:0:
87,148,192564,1,2,0:0:0:0:
41,160,192639,1,2,0:0:0:0:
112,256,192789,5,8,0:0:0:0:
188,84,192939,1,2,0:0:0:0:
373,54,193089,1,10,0:0:0:0:
384,76,193164,1,2,0:0:0:0:
392,100,193239,1,2,0:0:0:0:
396,124,193314,1,2,0:0:0:0:
396,148,193389,1,2,0:0:0:0:
392,172,193464,1,2,0:0:0:0:
388,196,193539,6,0,L|224:176,1,142.5,4|0,0:0|0:0,0:0:0:0:
46,101,193839,6,0,L|210:81,1,142.5,4|0,0:0|0:0,0:0:0:0:
112,256,194139,2,0,P|104:204|120:152,1,95,4|0,0:0|0:0,0:0:0:0:
200,240,194439,1,8,0:0:0:0:
224,264,194514,1,8,0:0:0:0:
256,280,194589,1,8,0:0:0:0:
292,284,194664,1,8,0:0:0:0:
328,280,194739,2,0,L|352:80,1,190,4|0,0:0|0:0,0:0:0:0:
224,108,195189,5,8,0:0:0:0:
408,224,195339,1,2,0:0:0:0:
408,224,195414,1,0,0:0:0:0:
408,224,195489,1,2,0:0:0:0:
200,336,195639,2,0,L|88:328,1,95,0|8,0:0|0:0,0:0:0:0:
284,204,195939,2,0,L|396:212,1,95,2|0,0:0|0:0,0:0:0:0:
200,72,196239,2,0,L|88:80,1,95,0|8,0:0|0:0,0:0:0:0:
176,240,196539,5,2,0:0:0:0:
280,72,196689,1,2,0:0:0:0:
340,260,196839,1,0,0:0:0:0:
340,260,196914,1,0,0:0:0:0:
340,260,196989,1,8,0:0:0:0:
176,156,197139,6,0,P|104:208|128:308,1,190,4|0,0:0|0:0,0:0:0:0:
360,176,197589,2,0,L|260:180,1,95,8|0,0:0|0:0,0:0:0:0:
416,64,197889,1,2,0:0:0:0:
476,212,198039,1,2,0:0:0:0:
436,60,198189,1,8,0:0:0:0:
340,260,198339,6,0,L|136:244,1,190,2|0,0:0|0:0,0:0:0:0:
40,132,198789,2,0,P|52:184|40:248,1,95,8|0,0:0|0:0,0:0:0:0:
44,352,199089,1,2,0:0:0:0:
172,284,199239,1,2,0:0:0:0:
48,224,199389,1,8,0:0:0:0:
114,75,199539,6,0,P|210:70|251:147,1,190,4|0,0:0|0:0,0:0:0:0:
156,256,199989,2,0,L|160:136,1,95,8|0,0:0|0:0,0:0:0:0:
344,80,200289,1,2,0:0:0:0:
250,143,200439,1,2,0:0:0:0:
228,32,200589,1,8,0:0:0:0:
324,204,200739,6,0,P|439:187|459:130,1,190,4|0,0:0|0:0,0:0:0:0:
344,80,201189,1,8,0:0:0:0:
156,256,201339,6,0,P|40:239|20:182,1,190,4|0,0:0|0:0,0:0:0:0:
136,132,201789,1,8,0:0:0:0:
304,328,201939,6,0,P|419:311|439:254,1,190,4|0,0:0|0:0,0:0:0:0:
324,204,202389,1,8,0:0:0:0:
184,336,202539,1,2,0:0:0:0:
116,280,202689,5,10,0:0:0:0:
159,261,202764,1,2,0:0:0:0:
205,261,202839,1,2,0:0:0:0:
252,270,202914,1,2,0:0:0:0:
298,279,202989,1,2,0:0:0:0:
344,281,203064,1,2,0:0:0:0:
386,261,203139,2,0,L|400:200,1,47.5,2|0,0:0|0:0,0:0:0:0:
464,296,203289,2,0,L|450:357,1,47.5,2|0,0:0|0:0,0:0:0:0:
324,204,203439,5,2,0:0:0:0:
305,160,203514,1,2,0:0:0:0:
272,126,203589,1,2,0:0:0:0:
229,106,203664,1,2,0:0:0:0:
182,103,203739,1,2,0:0:0:0:
136,117,203814,1,2,0:0:0:0:
99,145,203889,1,2,0:0:0:0:
74,185,203964,1,2,0:0:0:0:
65,232,204039,1,2,0:0:0:0:
73,278,204114,1,2,0:0:0:0:
97,319,204189,1,2,0:0:0:0:
134,348,204264,1,2,0:0:0:0:
179,363,204339,6,0,L|192:172,1,190,6|0,0:0|0:0,0:0:0:0:
313,298,204789,2,0,L|325:190,1,95,8|0,0:0|0:0,0:0:0:0:
384,56,205089,1,2,0:0:0:0:
440,232,205239,1,2,0:0:0:0:
228,256,205389,1,8,0:0:0:0:
364,136,205539,1,0,0:0:0:0:
364,136,205614,1,0,0:0:0:0:
364,136,205689,1,2,0:0:0:0:
396,312,205839,1,2,0:0:0:0:
144,216,205989,6,0,P|288:196|316:224,1,190,8|0,0:0|0:0,0:0:0:0:
396,312,206439,2,0,L|320:308,1,47.5,2|0,0:0|0:0,0:0:0:0:
364,136,206589,2,0,L|440:140,1,47.5,8|0,0:0|0:0,0:0:0:0:
440,232,206739,6,0,B|384:204|284:260|244:212,1,190,4|0,0:0|0:0,0:0:0:0:
136,44,207189,2,0,P|142:91|126:139,1,95,8|0,0:0|0:0,0:0:0:0:
38,225,207489,1,2,0:0:0:0:
184,248,207639,1,2,0:0:0:0:
68,84,207789,1,8,0:0:0:0:
214,107,207939,6,0,L|408:128,1,190,4|0,0:0|0:0,0:0:0:0:
352,300,208389,1,8,0:0:0:0:
184,248,208539,1,2,0:0:0:0:
312,144,208689,1,8,0:0:0:0:
312,133,208764,1,0,0:0:0:0:
314,123,208839,1,0,0:0:0:0:
315,113,208914,1,0,0:0:0:0:
317,104,208989,1,8,0:0:0:0:
444,224,209139,6,0,B|392:192|316:244|256:213,1,190,4|0,0:0|0:0,0:0:0:0:
32,124,209589,2,0,P|88:120|148:128,1,95,8|0,0:0|0:0,0:0:0:0:
184,248,209889,2,0,P|128:252|68:244,1,95,2|0,0:0|0:0,0:0:0:0:
244,84,210189,2,0,L|232:192,1,95,8|0,0:0|0:0,0:0:0:0:
352,300,210489,2,0,L|364:192,1,95,2|0,0:0|0:0,0:0:0:0:
214,320,210789,6,0,P|130:304|126:200,1,190,8|0,0:0|0:0,0:0:0:0:
284,100,211239,1,2,0:0:0:0:
184,248,211389,1,8,0:0:0:0:
328,172,211539,2,0,B|276:192|184:152|132:180,1,190,4|0,0:0|0:0,0:0:0:0:
328,32,211989,5,8,0:0:0:0:
364,244,212139,1,8,0:0:0:0:
162,169,212289,1,8,0:0:0:0:
406,123,212439,1,8,0:0:0:0:
240,260,212589,1,8,0:0:0:0:
204,48,212739,1,8,0:0:0:0:
364,244,212889,5,8,0:0:0:0:
349,224,212964,1,8,0:0:0:0:
330,207,213039,1,8,0:0:0:0:
310,194,213114,1,8,0:0:0:0:
287,185,213189,1,8,0:0:0:0:
264,180,213264,5,8,0:0:0:0:
218,167,213339,1,8,0:0:0:0:
172,174,213414,1,8,0:0:0:0:
124,200,213489,1,8,0:0:0:0:
76,204,213564,1,8,0:0:0:0:
52,163,213639,1,8,0:0:0:0:
51,116,213714,1,8,0:0:0:0:
73,74,213789,1,8,0:0:0:0:
112,47,213864,1,8,0:0:0:0:
162,55,213939,6,0,P|130:163|178:259,1,190,4|0,0:0|0:0,0:0:0:0:
317,344,214389,6,0,L|203:344,1,95,8|0,0:0|0:0,0:0:0:0:
24,252,214689,2,0,P|116:220|188:260,1,142.5,2|0,0:0|0:0,0:0:0:0:
176,248,214989,1,8,0:0:0:0:
317,344,215139,2,0,L|325:140,1,190,2|0,0:0|0:0,0:0:0:0:
412,312,215589,6,0,L|416:204,1,95,8|0,0:0|0:0,0:0:0:0:
415,217,215814,1,0,0:0:0:0:
415,217,215889,1,2,0:0:0:0:
324,154,216039,1,2,0:0:0:0:
491,154,216189,1,8,0:0:0:0:
306,81,216339,2,0,P|250:152|314:228,1,190,4|0,0:0|0:0,0:0:0:0:
412,312,216789,5,8,0:0:0:0:
244,280,216939,1,2,0:0:0:0:
244,280,217014,1,0,0:0:0:0:
244,280,217089,1,0,0:0:0:0:
415,217,217239,2,0,P|417:161|408:104,1,95,0|8,0:0|0:0,0:0:0:0:
250,29,217539,2,0,P|248:126|337:149,1,190,2|0,0:0|0:0,0:0:0:0:
306,81,217989,5,8,0:0:0:0:
136,132,218139,1,0,0:0:0:0:
136,132,218214,1,0,0:0:0:0:
136,132,218289,1,2,0:0:0:0:
244,280,218439,1,0,0:0:0:0:
76,240,218589,1,8,0:0:0:0:
253,208,218739,6,0,P|317:284|253:352,1,190,4|0,0:0|0:0,0:0:0:0:
65,165,219189,2,0,P|122:183|148:224,1,95,8|0,0:0|0:0,0:0:0:0:
316,157,219489,2,0,P|259:139|233:98,1,95,2|0,0:0|0:0,0:0:0:0:
333,36,219789,1,8,0:0:0:0:
399,230,219939,6,0,B|327:270|239:226|239:226|279:170,1,190,2|0,0:0|0:0,0:0:0:0:
316,156,220389,1,8,0:0:0:0:
220,344,220539,1,2,0:0:0:0:
399,230,220689,1,2,0:0:0:0:
137,270,220839,1,0,0:0:0:0:
137,270,220914,1,0,0:0:0:0:
137,270,220989,1,8,0:0:0:0:
36,104,221139,6,0,P|104:88|228:116,1,190,4|0,0:0|0:0,0:0:0:0:
316,156,221589,1,8,0:0:0:0:
220,344,221739,1,2,0:0:0:0:
406,312,221889,1,8,0:0:0:0:
415,270,221964,1,8,0:0:0:0:
399,230,222039,1,8,0:0:0:0:
407,186,222114,1,8,0:0:0:0:
399,142,222189,1,8,0:0:0:0:
411,98,222264,1,8,0:0:0:0:
399,54,222339,5,12,0:0:0:0:
113,54,222639,5,12,0:0:0:0:
113,330,222939,5,12,0:0:0:0:
399,330,223239,5,12,0:0:0:0:
