osu file format v14

[General]
AudioFilename: GATE anime OP (HD) (1).mp3
AudioLeadIn: 0
PreviewTime: 49988
Countdown: 0
SampleSet: None
StackLeniency: 0.7
Mode: 3
LetterboxInBreaks: 0
SpecialStyle: 0
WidescreenStoryboard: 0

[Editor]
DistanceSpacing: 0.8
BeatDivisor: 4
GridSize: 32
TimelineZoom: 2.499999

[Metadata]
Title:GATE: Sore wa Akatsuki no you ni
TitleUnicode:GATE: Sore wa Akatsuki no you ni
Artist:Kishida Kyoudan & The Akeboshi Rockets
ArtistUnicode:Kishida Kyoudan & The Akeboshi Rockets
Creator:Kominaru
Version:4K Hard
Source:GATE(ゲート)自衛隊 彼の地にて、斯く戦えり
Tags:Gate: Jieitai Kanochi nite, Kaku Tatakaeri opening
BeatmapID:732704
BeatmapSetID:330656

[Difficulty]
HPDrainRate:6
CircleSize:4
OverallDifficulty:7
ApproachRate:5
SliderMultiplier:1.4
SliderTickRate:1

[Events]
//Background and Video events
Video,0,"Gate_Jieitai_Kanochi_nite_Kaku_Tatakaeri_OP.flv"
0,0,"Gate_-_Thus_the_JSDF_Fought_There!_anime_ (2).jpg",0,0
//Break Periods
//Storyboard Layer 0 (Background)
//Storyboard Layer 1 (Fail)
//Storyboard Layer 2 (Pass)
//Storyboard Layer 3 (Foreground)
//Storyboard Sound Samples

[TimingPoints]
-712,300,4,1,0,53,1,0

[HitObjects]
320,192,488,5,0,0:0:0:0:
320,192,788,1,0,0:0:0:0:
448,192,1088,1,0,0:0:0:0:
64,192,1088,1,0,0:0:0:0:
320,192,1238,1,0,0:0:0:0:
64,192,1388,1,0,0:0:0:0:
320,192,1538,1,0,0:0:0:0:
192,192,1538,1,0,0:0:0:0:
64,192,1838,1,0,0:0:0:0:
192,192,1988,1,0,0:0:0:0:
64,192,2138,1,0,0:0:0:0:
192,192,2288,1,0,0:0:0:0:
320,192,2438,1,0,0:0:0:0:
192,192,2588,1,0,0:0:0:0:
448,192,2738,1,0,0:0:0:0:
64,192,2738,1,0,0:0:0:0:
192,192,3038,1,0,0:0:0:0:
320,192,3188,1,0,0:0:0:0:
64,192,3338,1,0,0:0:0:0:
192,192,3488,1,0,0:0:0:0:
448,192,3488,1,0,0:0:0:0:
192,192,3638,1,0,0:0:0:0:
448,192,3638,1,0,0:0:0:0:
192,192,3938,1,0,0:0:0:0:
320,192,3938,1,0,0:0:0:0:
64,192,4238,1,0,0:0:0:0:
320,192,4388,1,0,0:0:0:0:
192,192,4538,1,0,0:0:0:0:
320,192,4688,1,0,0:0:0:0:
192,192,4838,1,0,0:0:0:0:
64,192,4988,1,0,0:0:0:0:
448,192,5138,1,0,0:0:0:0:
320,192,5138,1,0,0:0:0:0:
448,192,5438,1,0,0:0:0:0:
64,192,5588,1,0,0:0:0:0:
320,192,5738,1,0,0:0:0:0:
192,192,5738,1,0,0:0:0:0:
320,192,6038,1,0,0:0:0:0:
192,192,6188,1,0,0:0:0:0:
448,192,6338,1,0,0:0:0:0:
64,192,6338,1,0,0:0:0:0:
192,192,6638,1,0,0:0:0:0:
320,192,6788,1,0,0:0:0:0:
64,192,6938,1,0,0:0:0:0:
448,192,7088,1,0,0:0:0:0:
320,192,7238,1,0,0:0:0:0:
192,192,7388,1,0,0:0:0:0:
448,192,7538,1,0,0:0:0:0:
320,192,7538,1,0,0:0:0:0:
192,192,7838,1,0,0:0:0:0:
320,192,7988,1,0,0:0:0:0:
192,192,8138,1,0,0:0:0:0:
448,192,8288,1,0,0:0:0:0:
320,192,8438,1,0,0:0:0:0:
192,192,8588,1,0,0:0:0:0:
64,192,8738,1,0,0:0:0:0:
320,192,8738,1,0,0:0:0:0:
192,192,9038,1,0,0:0:0:0:
320,192,9188,1,0,0:0:0:0:
192,192,9338,1,0,0:0:0:0:
448,192,9488,1,0,0:0:0:0:
64,192,9488,1,0,0:0:0:0:
320,192,9638,1,0,0:0:0:0:
192,192,9788,1,0,0:0:0:0:
320,192,9788,1,0,0:0:0:0:
64,192,9938,1,0,0:0:0:0:
448,192,9938,1,0,0:0:0:0:
192,192,10238,1,0,2:0:0:0:
320,192,10388,1,0,2:0:0:0:
192,192,10538,1,0,2:0:0:0:
320,192,10688,1,0,2:0:0:0:
448,192,10838,1,0,2:0:0:0:
192,192,10988,1,0,2:0:0:0:
320,192,11138,1,0,2:0:0:0:
64,192,11288,1,0,2:0:0:0:
448,192,11438,1,0,2:0:0:0:
64,192,11588,1,0,2:0:0:0:
320,192,11738,1,0,2:0:0:0:
64,192,11888,1,0,2:0:0:0:
192,192,12038,1,0,2:0:0:0:
64,192,12188,1,0,2:0:0:0:
192,192,12338,1,12,0:0:0:0:
320,192,12338,1,12,0:0:0:0:
64,192,12638,1,0,0:0:0:0:
448,192,12788,1,0,0:0:0:0:
64,192,12938,1,0,0:0:0:0:
448,192,13088,1,0,0:0:0:0:
192,192,13238,1,0,0:0:0:0:
64,192,13388,1,0,0:0:0:0:
320,192,13538,1,0,0:0:0:0:
192,192,13538,1,0,0:0:0:0:
64,192,13838,1,0,0:0:0:0:
448,192,13988,1,0,0:0:0:0:
64,192,14138,1,0,0:0:0:0:
448,192,14288,1,0,0:0:0:0:
320,192,14438,1,0,0:0:0:0:
448,192,14588,1,0,0:0:0:0:
64,192,14738,1,0,0:0:0:0:
192,192,14738,1,0,0:0:0:0:
320,192,15038,1,0,0:0:0:0:
448,192,15188,1,0,0:0:0:0:
320,192,15338,1,0,0:0:0:0:
448,192,15488,1,0,0:0:0:0:
192,192,15638,1,0,0:0:0:0:
64,192,15788,1,0,0:0:0:0:
320,192,15938,1,0,0:0:0:0:
448,192,15938,1,0,0:0:0:0:
192,192,16238,1,0,0:0:0:0:
64,192,16388,1,0,0:0:0:0:
320,192,16538,1,0,0:0:0:0:
192,192,16538,1,0,0:0:0:0:
64,192,16838,1,0,0:0:0:0:
192,192,16988,1,0,0:0:0:0:
448,192,17138,1,12,0:0:0:0:
320,192,17138,1,12,0:0:0:0:
64,192,17438,1,0,0:0:0:0:
192,192,17588,1,0,0:0:0:0:
64,192,17738,1,0,0:0:0:0:
192,192,17888,1,0,0:0:0:0:
320,192,18038,1,0,0:0:0:0:
192,192,18188,1,0,0:0:0:0:
448,192,18338,1,0,0:0:0:0:
64,192,18338,1,0,0:0:0:0:
192,192,18638,1,0,0:0:0:0:
320,192,18788,1,0,0:0:0:0:
192,192,18938,1,0,0:0:0:0:
64,192,19088,1,0,0:0:0:0:
192,192,19238,1,0,0:0:0:0:
320,192,19388,1,0,0:0:0:0:
448,192,19538,1,0,0:0:0:0:
64,192,19538,1,0,0:0:0:0:
192,192,19838,1,0,0:0:0:0:
320,192,19988,1,0,0:0:0:0:
64,192,20138,1,0,0:0:0:0:
448,192,20288,1,0,0:0:0:0:
320,192,20438,1,0,0:0:0:0:
192,192,20588,1,0,0:0:0:0:
64,192,20738,1,12,0:0:0:0:
448,192,20738,1,12,0:0:0:0:
192,192,21038,1,12,0:0:0:0:
320,192,21038,1,12,0:0:0:0:
192,192,21338,1,12,0:0:0:0:
320,192,21338,1,12,0:0:0:0:
192,192,21638,1,12,0:0:0:0:
320,192,21638,1,12,0:0:0:0:
64,192,21938,1,0,0:0:0:0:
448,192,21938,128,0,22388:0:0:0:0:
192,192,22388,1,0,0:0:0:0:
64,192,22538,1,0,0:0:0:0:
320,192,22688,1,0,0:0:0:0:
192,192,22838,1,0,0:0:0:0:
64,192,22988,1,0,0:0:0:0:
448,192,23138,1,0,0:0:0:0:
320,192,23138,1,0,0:0:0:0:
64,192,23438,1,0,0:0:0:0:
192,192,23588,1,0,0:0:0:0:
64,192,23738,1,0,0:0:0:0:
448,192,23888,1,0,0:0:0:0:
320,192,24038,1,0,0:0:0:0:
192,192,24188,1,0,0:0:0:0:
448,192,24338,1,0,0:0:0:0:
64,192,24338,1,0,0:0:0:0:
192,192,24638,1,0,0:0:0:0:
320,192,24788,1,0,0:0:0:0:
192,192,24938,1,0,0:0:0:0:
320,192,25088,1,0,0:0:0:0:
192,192,25238,1,0,0:0:0:0:
64,192,25388,1,0,0:0:0:0:
448,192,25538,1,0,0:0:0:0:
320,192,25538,1,0,0:0:0:0:
192,192,25838,1,0,0:0:0:0:
320,192,25988,1,0,0:0:0:0:
448,192,26138,1,0,0:0:0:0:
448,192,26438,1,0,0:0:0:0:
64,192,26588,1,0,0:0:0:0:
192,192,26738,1,0,0:0:0:0:
320,192,26738,1,0,0:0:0:0:
448,192,27188,1,0,0:0:0:0:
320,192,27338,1,0,0:0:0:0:
192,192,27488,1,0,0:0:0:0:
64,192,27788,1,0,0:0:0:0:
320,192,27938,128,0,28238:0:0:0:0:
64,192,28238,1,0,0:0:0:0:
192,192,28388,1,0,0:0:0:0:
448,192,28538,128,0,28838:0:0:0:0:
192,192,28838,1,0,0:0:0:0:
64,192,28988,1,0,0:0:0:0:
320,192,29138,1,0,0:0:0:0:
192,192,29288,1,0,0:0:0:0:
448,192,29438,1,0,0:0:0:0:
320,192,29588,1,0,0:0:0:0:
192,192,29738,1,0,0:0:0:0:
64,192,29888,1,0,0:0:0:0:
448,192,30038,1,0,0:0:0:0:
64,192,30188,1,0,0:0:0:0:
192,192,30338,1,0,0:0:0:0:
320,192,30338,1,0,0:0:0:0:
64,192,30638,1,0,0:0:0:0:
448,192,30638,1,0,0:0:0:0:
64,192,30938,1,0,0:0:0:0:
448,192,30938,1,0,0:0:0:0:
448,192,31238,1,0,0:0:0:0:
64,192,31238,1,0,0:0:0:0:
192,192,31538,1,0,2:0:0:0:
320,192,31688,1,0,2:0:0:0:
448,192,31688,1,0,2:0:0:0:
192,192,31838,1,0,2:0:0:0:
64,192,31988,1,0,2:0:0:0:
448,192,32138,1,0,2:0:0:0:
320,192,32288,1,0,2:0:0:0:
192,192,32438,1,0,2:0:0:0:
64,192,32588,1,0,2:0:0:0:
192,192,32738,1,0,2:0:0:0:
64,192,33038,1,0,2:0:0:0:
192,192,33188,1,0,2:0:0:0:
64,192,33338,1,0,2:0:0:0:
448,192,33488,1,0,2:0:0:0:
320,192,33638,1,0,2:0:0:0:
192,192,33788,1,0,2:0:0:0:
64,192,33938,1,0,2:0:0:0:
192,192,34088,1,0,2:0:0:0:
320,192,34238,1,0,2:0:0:0:
64,192,34388,1,0,2:0:0:0:
448,192,34538,1,0,2:0:0:0:
320,192,34688,1,0,2:0:0:0:
192,192,34838,1,0,2:0:0:0:
64,192,34988,1,0,2:0:0:0:
448,192,35138,1,0,2:0:0:0:
192,192,35438,1,0,2:0:0:0:
320,192,35588,1,0,2:0:0:0:
64,192,35738,1,0,2:0:0:0:
448,192,35888,1,0,0:0:0:0:
320,192,36038,1,0,0:0:0:0:
192,192,36188,1,0,0:0:0:0:
64,192,36338,1,0,0:0:0:0:
192,192,36638,1,0,0:0:0:0:
320,192,36788,1,0,0:0:0:0:
64,192,36938,1,0,0:0:0:0:
192,192,37088,1,0,0:0:0:0:
320,192,37238,1,0,0:0:0:0:
448,192,37388,1,0,0:0:0:0:
320,192,37538,1,0,0:0:0:0:
64,192,37838,1,0,0:0:0:0:
192,192,37988,1,0,0:0:0:0:
320,192,38138,1,0,0:0:0:0:
64,192,38288,1,0,0:0:0:0:
192,192,38438,1,0,0:0:0:0:
320,192,38588,1,0,0:0:0:0:
448,192,38738,1,0,0:0:0:0:
64,192,38738,1,0,0:0:0:0:
192,192,39038,1,0,0:0:0:0:
320,192,39188,1,0,0:0:0:0:
192,192,39338,1,0,0:0:0:0:
64,192,39488,1,0,0:0:0:0:
320,192,39638,1,0,0:0:0:0:
192,192,39788,1,0,0:0:0:0:
320,192,39938,1,0,0:0:0:0:
448,192,39938,1,0,0:0:0:0:
192,192,40238,1,0,0:0:0:0:
64,192,40388,1,0,0:0:0:0:
320,192,40538,1,0,0:0:0:0:
192,192,40538,1,0,0:0:0:0:
448,192,40838,1,0,0:0:0:0:
320,192,40988,1,0,0:0:0:0:
64,192,41138,1,0,0:0:0:0:
192,192,41138,1,0,0:0:0:0:
320,192,41588,1,0,0:0:0:0:
64,192,41888,1,0,0:0:0:0:
320,192,42038,1,0,0:0:0:0:
192,192,42188,1,0,0:0:0:0:
448,192,42338,1,0,0:0:0:0:
64,192,42638,1,0,0:0:0:0:
320,192,42788,1,0,0:0:0:0:
192,192,42938,1,0,0:0:0:0:
320,192,43088,1,0,0:0:0:0:
192,192,43238,1,0,0:0:0:0:
64,192,43388,1,0,0:0:0:0:
448,192,43538,1,0,0:0:0:0:
192,192,43838,1,0,0:0:0:0:
320,192,43988,1,0,0:0:0:0:
192,192,44138,1,0,0:0:0:0:
448,192,44288,1,0,0:0:0:0:
320,192,44438,1,0,0:0:0:0:
64,192,44588,1,0,0:0:0:0:
192,192,44738,1,0,0:0:0:0:
320,192,44738,1,0,0:0:0:0:
64,192,45038,1,0,0:0:0:0:
192,192,45188,1,0,0:0:0:0:
64,192,45338,1,0,0:0:0:0:
448,192,45488,1,8,0:0:0:0:
320,192,45638,1,8,0:0:0:0:
192,192,45788,1,8,0:0:0:0:
64,192,45938,1,8,0:0:0:0:
448,192,45938,1,8,0:0:0:0:
192,192,46238,1,8,0:0:0:0:
320,192,46388,1,8,0:0:0:0:
192,192,46538,1,8,0:0:0:0:
448,192,46688,1,8,0:0:0:0:
64,192,46688,1,8,0:0:0:0:
320,192,46838,1,8,0:0:0:0:
64,192,46988,1,8,0:0:0:0:
192,192,47138,1,0,0:0:0:0:
320,192,47138,1,8,0:0:0:0:
64,192,47438,1,8,0:0:0:0:
192,192,47588,1,8,0:0:0:0:
64,192,47738,1,8,0:0:0:0:
320,192,47888,1,8,0:0:0:0:
448,192,47888,1,8,0:0:0:0:
192,192,48038,1,8,0:0:0:0:
64,192,48188,1,8,0:0:0:0:
192,192,48338,1,8,0:0:0:0:
320,192,48338,1,8,0:0:0:0:
64,192,48638,1,8,0:0:0:0:
320,192,48788,1,8,0:0:0:0:
448,192,48788,1,8,0:0:0:0:
192,192,48938,1,8,0:0:0:0:
448,192,49088,1,8,0:0:0:0:
64,192,49088,1,8,0:0:0:0:
320,192,49238,1,8,0:0:0:0:
192,192,49388,1,8,0:0:0:0:
64,192,49538,1,8,0:0:0:0:
320,192,49538,1,8,0:0:0:0:
448,192,49538,1,8,0:0:0:0:
64,192,49838,1,8,0:0:0:0:
192,192,49913,1,8,0:0:0:0:
64,192,49988,1,8,0:0:0:0:
192,192,50063,1,8,0:0:0:0:
320,192,50138,1,8,0:0:0:0:
448,192,50138,1,8,0:0:0:0:
448,192,50738,1,12,0:0:0:0:
320,192,50738,1,12,0:0:0:0:
64,192,50738,1,12,0:0:0:0:
192,192,50738,1,12,0:0:0:0:
320,192,51188,1,0,0:0:0:0:
64,192,51338,1,0,0:0:0:0:
320,192,51488,1,0,0:0:0:0:
448,192,51488,1,0,0:0:0:0:
192,192,51638,1,0,0:0:0:0:
64,192,51788,1,0,0:0:0:0:
192,192,51938,1,0,0:0:0:0:
320,192,51938,1,0,0:0:0:0:
64,192,52238,1,0,0:0:0:0:
192,192,52388,1,0,0:0:0:0:
64,192,52538,1,0,0:0:0:0:
192,192,52688,1,0,0:0:0:0:
320,192,52838,1,0,0:0:0:0:
192,192,52988,1,0,0:0:0:0:
320,192,53138,1,0,0:0:0:0:
448,192,53138,1,0,0:0:0:0:
448,192,53438,1,0,0:0:0:0:
320,192,53438,1,0,0:0:0:0:
192,192,53588,1,0,0:0:0:0:
64,192,53738,1,0,0:0:0:0:
448,192,53888,1,0,0:0:0:0:
320,192,54038,1,0,0:0:0:0:
64,192,54188,1,0,0:0:0:0:
192,192,54338,1,0,0:0:0:0:
320,192,54338,1,0,0:0:0:0:
64,192,54638,1,0,0:0:0:0:
192,192,54788,1,0,0:0:0:0:
320,192,54938,1,0,0:0:0:0:
448,192,54938,1,0,0:0:0:0:
192,192,55238,1,8,0:0:0:0:
320,192,55313,1,8,0:0:0:0:
192,192,55388,1,8,0:0:0:0:
64,192,55463,1,8,0:0:0:0:
320,192,55538,1,8,0:0:0:0:
448,192,55538,1,8,0:0:0:0:
64,192,55838,1,0,0:0:0:0:
192,192,55988,1,0,0:0:0:0:
64,192,56138,1,0,0:0:0:0:
320,192,56288,1,0,0:0:0:0:
192,192,56438,1,0,0:0:0:0:
448,192,56588,1,0,0:0:0:0:
64,192,56738,1,0,0:0:0:0:
192,192,56738,1,0,0:0:0:0:
192,192,57038,1,0,0:0:0:0:
192,192,57338,1,0,0:0:0:0:
320,192,57338,1,0,0:0:0:0:
320,192,57638,1,0,0:0:0:0:
320,192,57938,1,0,0:0:0:0:
448,192,57938,1,0,0:0:0:0:
64,192,58238,1,0,0:0:0:0:
192,192,58388,1,0,0:0:0:0:
64,192,58538,1,0,0:0:0:0:
448,192,58688,1,0,0:0:0:0:
320,192,58688,1,0,0:0:0:0:
192,192,58838,1,0,0:0:0:0:
64,192,58988,1,0,0:0:0:0:
320,192,59138,1,0,0:0:0:0:
448,192,59138,1,0,0:0:0:0:
192,192,59438,1,0,0:0:0:0:
64,192,59588,1,0,0:0:0:0:
192,192,59738,1,0,0:0:0:0:
320,192,59738,1,0,0:0:0:0:
320,192,60038,1,8,0:0:0:0:
192,192,60188,1,8,0:0:0:0:
448,192,60338,1,12,0:0:0:0:
320,192,60338,1,12,0:0:0:0:
64,192,60338,1,12,0:0:0:0:
192,192,60638,1,0,0:0:0:0:
320,192,60788,1,0,0:0:0:0:
192,192,60938,1,0,0:0:0:0:
320,192,61088,1,0,0:0:0:0:
448,192,61088,1,0,0:0:0:0:
192,192,61238,1,0,0:0:0:0:
64,192,61388,1,0,0:0:0:0:
192,192,61538,1,0,0:0:0:0:
320,192,61538,1,0,0:0:0:0:
192,192,61838,1,0,0:0:0:0:
320,192,61988,1,0,0:0:0:0:
64,192,62138,1,0,0:0:0:0:
192,192,62288,1,0,0:0:0:0:
320,192,62288,1,0,0:0:0:0:
448,192,62438,1,0,0:0:0:0:
64,192,62588,1,0,0:0:0:0:
320,192,62738,1,0,0:0:0:0:
448,192,62738,1,0,0:0:0:0:
64,192,63038,1,0,0:0:0:0:
192,192,63188,1,0,0:0:0:0:
320,192,63338,1,0,0:0:0:0:
448,192,63338,1,0,0:0:0:0:
192,192,63488,1,0,0:0:0:0:
64,192,63638,1,0,0:0:0:0:
448,192,63788,1,0,0:0:0:0:
192,192,63938,1,0,0:0:0:0:
320,192,63938,1,0,0:0:0:0:
320,192,64238,1,0,0:0:0:0:
192,192,64388,1,0,0:0:0:0:
320,192,64538,1,0,0:0:0:0:
448,192,64538,1,0,0:0:0:0:
192,192,64838,1,0,0:0:0:0:
320,192,64988,1,0,0:0:0:0:
64,192,65138,1,0,0:0:0:0:
192,192,65138,1,0,0:0:0:0:
320,192,65438,1,0,0:0:0:0:
64,192,65588,1,0,0:0:0:0:
192,192,65738,1,0,0:0:0:0:
320,192,65738,1,0,0:0:0:0:
320,192,66038,1,0,0:0:0:0:
192,192,66188,1,0,0:0:0:0:
320,192,66338,1,0,0:0:0:0:
448,192,66338,1,0,0:0:0:0:
64,192,66788,1,0,0:0:0:0:
192,192,66938,1,0,0:0:0:0:
320,192,66938,1,0,0:0:0:0:
448,192,67238,1,0,0:0:0:0:
64,192,67388,1,0,0:0:0:0:
320,192,67538,128,0,69488:0:0:0:0:
64,192,67838,1,0,0:0:0:0:
192,192,67988,1,0,0:0:0:0:
64,192,68138,1,0,0:0:0:0:
448,192,68288,1,0,0:0:0:0:
192,192,68438,1,0,0:0:0:0:
64,192,68588,1,0,0:0:0:0:
448,192,68738,1,0,0:0:0:0:
448,192,69038,1,0,0:0:0:0:
192,192,69188,1,0,0:0:0:0:
64,192,69338,1,0,0:0:0:0:
192,192,69488,1,8,0:0:0:0:
64,192,69563,1,8,0:0:0:0:
320,192,69638,1,8,0:0:0:0:
192,192,69713,1,8,0:0:0:0:
448,192,69788,1,8,0:0:0:0:
320,192,69863,1,8,0:0:0:0:
64,192,69938,1,12,0:0:0:0:
192,192,69938,1,12,0:0:0:0:
64,192,70238,1,0,0:0:0:0:
192,192,70388,1,0,0:0:0:0:
64,192,70538,1,0,0:0:0:0:
448,192,70688,1,0,0:0:0:0:
320,192,70688,1,0,0:0:0:0:
192,192,70838,1,0,0:0:0:0:
64,192,70988,1,0,0:0:0:0:
192,192,71138,1,0,0:0:0:0:
320,192,71138,1,0,0:0:0:0:
64,192,71438,1,0,0:0:0:0:
192,192,71588,1,0,0:0:0:0:
64,192,71738,1,0,0:0:0:0:
448,192,71888,1,0,0:0:0:0:
320,192,71888,1,0,0:0:0:0:
192,192,72038,1,0,0:0:0:0:
64,192,72188,1,0,0:0:0:0:
192,192,72338,1,12,0:0:0:0:
320,192,72338,1,12,0:0:0:0:
64,192,72638,1,0,0:0:0:0:
320,192,72788,1,0,0:0:0:0:
192,192,72938,1,0,0:0:0:0:
448,192,73088,1,0,0:0:0:0:
320,192,73238,1,0,0:0:0:0:
64,192,73388,1,0,0:0:0:0:
320,192,73538,1,0,0:0:0:0:
448,192,73538,1,0,0:0:0:0:
192,192,73838,1,0,0:0:0:0:
64,192,73988,1,0,0:0:0:0:
320,192,74138,1,0,0:0:0:0:
448,192,74138,1,0,0:0:0:0:
192,192,74438,1,0,0:0:0:0:
320,192,74588,1,0,0:0:0:0:
64,192,74738,1,12,0:0:0:0:
192,192,74738,1,12,0:0:0:0:
448,192,75038,1,0,0:0:0:0:
320,192,75188,1,0,0:0:0:0:
64,192,75338,1,0,0:0:0:0:
192,192,75488,1,0,0:0:0:0:
320,192,75638,1,0,0:0:0:0:
192,192,75788,1,0,0:0:0:0:
320,192,75938,1,0,0:0:0:0:
448,192,75938,1,0,0:0:0:0:
64,192,76238,1,0,0:0:0:0:
192,192,76388,1,0,0:0:0:0:
64,192,76538,1,0,0:0:0:0:
320,192,76688,1,0,0:0:0:0:
448,192,76688,1,0,0:0:0:0:
448,192,76838,1,0,0:0:0:0:
320,192,77138,1,12,0:0:0:0:
192,192,77138,1,12,0:0:0:0:
64,192,77438,1,0,0:0:0:0:
192,192,77588,1,0,0:0:0:0:
64,192,77738,1,0,0:0:0:0:
320,192,77888,1,0,0:0:0:0:
448,192,77888,1,0,0:0:0:0:
192,192,78038,1,0,0:0:0:0:
64,192,78188,1,0,0:0:0:0:
192,192,78338,1,12,0:0:0:0:
320,192,78338,1,12,0:0:0:0:
448,192,78413,1,12,0:0:0:0:
320,192,78488,1,12,0:0:0:0:
192,192,78563,1,12,0:0:0:0:
64,192,78638,1,12,0:0:0:0:
448,192,78638,1,12,0:0:0:0:
64,192,78938,1,12,0:0:0:0:
448,192,78938,1,12,0:0:0:0:
192,192,79238,1,12,0:0:0:0:
320,192,79238,1,12,0:0:0:0:
448,192,79538,128,0,80738:0:0:0:0:
64,192,79838,1,0,0:0:0:0:
192,192,79988,1,0,0:0:0:0:
64,192,80138,1,0,0:0:0:0:
320,192,80288,1,0,0:0:0:0:
192,192,80438,1,0,0:0:0:0:
192,192,80738,128,0,81938:0:0:0:0:
64,192,81038,1,0,0:0:0:0:
448,192,81188,1,0,0:0:0:0:
320,192,81338,1,0,0:0:0:0:
448,192,81488,1,0,0:0:0:0:
320,192,81638,1,0,0:0:0:0:
320,192,81938,128,0,83138:0:0:0:0:
64,192,82238,1,0,0:0:0:0:
448,192,82388,1,0,0:0:0:0:
64,192,82538,1,0,0:0:0:0:
448,192,82688,1,0,0:0:0:0:
192,192,82838,1,0,0:0:0:0:
64,192,83138,1,0,0:0:0:0:
448,192,83138,1,0,0:0:0:0:
320,192,83438,1,0,0:0:0:0:
64,192,83588,1,0,0:0:0:0:
192,192,83738,1,0,0:0:0:0:
320,192,83738,1,0,0:0:0:0:
64,192,83963,1,0,0:0:0:0:
192,192,84188,1,0,0:0:0:0:
64,192,84338,1,0,0:0:0:0:
448,192,84338,1,0,0:0:0:0:
192,192,84638,1,0,0:0:0:0:
320,192,84788,1,0,0:0:0:0:
64,192,84938,1,0,0:0:0:0:
448,192,85088,1,0,0:0:0:0:
320,192,85088,1,0,0:0:0:0:
192,192,85238,1,0,0:0:0:0:
320,192,85388,1,0,0:0:0:0:
448,192,85538,1,0,0:0:0:0:
64,192,85538,1,0,0:0:0:0:
192,192,85838,1,0,0:0:0:0:
320,192,85988,1,0,0:0:0:0:
64,192,86138,1,0,0:0:0:0:
320,192,86288,1,0,0:0:0:0:
448,192,86288,1,0,0:0:0:0:
192,192,86438,1,0,0:0:0:0:
64,192,86588,1,0,0:0:0:0:
192,192,86738,1,0,0:0:0:0:
320,192,86738,1,0,0:0:0:0:
64,192,87038,1,0,0:0:0:0:
192,192,87188,1,0,0:0:0:0:
64,192,87338,1,0,0:0:0:0:
448,192,87488,1,12,0:0:0:0:
320,192,87563,1,12,0:0:0:0:
192,192,87638,1,12,0:0:0:0:
64,192,87713,1,12,0:0:0:0:
192,192,87788,1,12,0:0:0:0:
320,192,87863,1,12,0:0:0:0:
64,192,87938,1,12,0:0:0:0:
448,192,87938,1,12,0:0:0:0:
192,192,88238,1,0,0:0:0:0:
320,192,88238,1,0,0:0:0:0:
192,192,88538,1,0,0:0:0:0:
320,192,88538,1,0,0:0:0:0:
192,192,88838,1,0,0:0:0:0:
320,192,88838,1,0,0:0:0:0:
