osu file format v12

[General]
AudioFilename: Stike The Blood.mp3
AudioLeadIn: 1500
PreviewTime: 41194
Countdown: 0
SampleSet: None
StackLeniency: 0.3
Mode: 0
LetterboxInBreaks: 1
WidescreenStoryboard: 1

[Editor]
DistanceSpacing: 1.4
BeatDivisor: 4
GridSize: 4

[Metadata]
Title:Strike the Blood (TV Size)
TitleUnicode:ストライク・ザ・ブラッド (TV Size)
Artist:Kishida Kyoudan & THE Akeboshi Rockets
ArtistUnicode:岸田教団&THE明星ロケッツ
Creator:No_Gu
Version:Normal
Source:STRIKE THE BLOOD
Tags:ストライク・ザ・ブラッド STB 1PSA Amamiya Yuko
BeatmapID:337202
BeatmapSetID:124885

[Difficulty]
HPDrainRate:3
CircleSize:4
OverallDifficulty:2
ApproachRate:4
SliderMultiplier:1.12
SliderTickRate:1

[Events]
//Background and Video events
0,0,"bg.jpg",0,0
Video,72,"video.avi"
//Break Periods
2,13790,21701
//Storyboard Layer 0 (Background)
//Storyboard Layer 1 (Fail)
//Storyboard Layer 2 (Pass)
//Storyboard Layer 3 (Foreground)
//Storyboard Sound Samples
//Background Colour Transformations
3,100,163,162,255

[TimingPoints]
89,288.461538461538,4,2,1,60,1,0
89,-100,4,2,1,60,0,0
377,-100,4,1,1,30,0,0
2685,-100,4,2,1,40,0,0
4560,-100,4,1,1,60,0,0
13790,-100,4,1,1,60,0,0
23021,-100,4,1,1,60,0,0
32396,-133.333333333333,4,1,1,60,0,0
37012,-100,4,1,1,60,0,0
37300,-100,4,1,1,40,0,0
39175,-100,4,1,1,60,0,0
41483,-100,4,1,1,60,0,1
50641,-100,4,1,1,60,0,0
50713,-100,4,1,1,60,0,1
59944,-100,4,1,1,60,0,0
71483,-100,4,1,1,60,0,0
71915,-100,4,1,1,30,0,0
72060,-100,4,1,1,30,0,0
73790,-100,4,1,1,60,0,0
86555,-100,4,2,1,5,0,0

[Colours]
Combo1 : 255,128,128
Combo2 : 255,255,128
Combo3 : 128,255,255
Combo4 : 128,255,128

[HitObjects]
256,192,89,1,4,1:0:0:0:
256,192,377,12,4,2252,2:0:0:0:
96,80,4127,6,0,L|88:144,1,56,8|0,1:0|1:0,0:0:0:0:
136,284,4560,6,0,P|208:332|280:308,1,168,4|8,0:0|0:0,0:0:0:0:
340,164,5281,2,0,L|356:284,1,112,0|8,0:0|0:0,0:0:0:0:
416,324,5713,2,0,P|472:292|472:188,1,168,4|8,0:0|0:0,0:0:0:0:
436,132,6290,2,0,B|420:72|460:32|460:32|424:52|380:32,1,168,4|8,0:0|0:0,0:0:0:0:
324,32,6867,6,0,B|144:16,1,168,4|8,0:0|0:0,0:0:0:0:
56,140,7588,2,0,L|48:268,1,112,0|8,0:0|0:0,0:0:0:0:
100,312,8021,2,0,P|160:336|264:296,1,168,4|8,0:0|0:0,0:0:0:0:
316,256,8598,2,0,P|376:232|480:272,1,168,4|8,0:0|0:0,0:0:0:0:
488,340,9175,5,4,0:0:0:0:
456,108,9608,2,8,P|368:44|252:72,1,224
48,296,10762,2,8,P|136:360|252:332,1,224
284,272,11483,6,0,L|260:160,2,112,0|8|8,0:0|0:0|0:0,0:0:0:0:
424,204,12348,2,0,L|447:313,2,112,8|8|8,0:0|0:0|0:0,0:0:0:0:
364,60,13213,2,0,L|375:5,2,56,0|8|8,0:0|0:0|0:0,0:0:0:0:
88,56,23021,6,0,B|116:104|116:104|88:220,1,168,4|8,0:0|0:0,0:0:0:0:
144,268,23598,2,0,P|216:300|304:276,1,168,0|8,0:0|0:0,0:0:0:0:
352,220,24175,1,0,0:0:0:0:
156,88,24608,2,0,L|36:96,2,112,8|0|8,0:0|0:0|0:0,0:0:0:0:
212,144,25329,6,0,P|220:240|160:284,1,168,4|8,0:0|0:0,0:0:0:0:
96,300,25906,2,0,P|180:288|236:364,1,168,0|8,0:0|0:0,0:0:0:0:
348,240,26627,2,8,L|340:128,1,112
496,136,27204,2,8,L|504:248,1,112
464,316,27637,6,0,P|400:360|304:348,1,168,4|8,0:0|0:0,0:0:0:0:
240,212,28358,2,0,L|256:96,2,112,0|8|0,0:0|0:0|0:0,0:0:0:0:
84,184,29223,2,0,L|100:300,2,112,8|0|8,0:0|0:0|0:0,0:0:0:0:
112,112,29944,6,0,B|104:56|104:56|148:8|208:32,1,168,4|8,0:0|0:0,0:0:0:0:
296,160,30665,2,0,L|412:148,1,112,0|8,0:0|0:0,0:0:0:0:
280,244,31242,2,0,L|164:232,1,112,0|8,0:0|0:0,0:0:0:0:
244,96,31819,2,0,L|128:84,1,112,8|0,0:0|0:0,0:0:0:0:
36,152,32396,6,0,P|8:220|116:336,1,252.000009613037,4|8,0:0|0:0,0:0:0:0:
256,228,33694,1,8,0:0:0:0:
395,336,34127,2,0,P|464:308|468:216,1,168.000006408692,8|8,0:0|0:0,0:0:0:0:
396,64,35137,5,8,0:0:0:0:
288,204,35569,2,0,P|208:204|168:164,2,126.000004806519,4|8|8,0:0|0:0|0:0,0:0:0:0:
264,88,36723,1,0,0:0:0:0:
256,192,37012,12,4,40329,0:2:0:0:
112,72,41483,6,0,P|92:144|152:208,1,168,4|8,0:0|0:0,0:0:0:0:
296,148,42204,2,0,L|184:128,1,112,0|8,0:0|0:0,0:0:0:0:
164,284,42781,2,0,L|52:264,2,112,0|8|0,0:0|0:0|0:0,0:0:0:0:
296,368,43646,1,8,0:0:0:0:
360,324,43790,6,0,P|388:260|356:168,1,168,4|8,0:0|0:0,0:0:0:0:
244,64,44512,2,0,L|132:68,1,112,0|8,0:0|0:0,0:0:0:0:
88,220,45088,2,0,L|200:216,1,112,0|8,0:0|0:0,0:0:0:0:
304,336,45665,2,0,P|348:296|344:192,2,168,8|4|8,0:0|0:0|0:0,0:0:0:0:
200,216,46819,6,0,L|212:100,2,112,0|8|0,0:0|0:0|0:0,0:0:0:0:
56,152,47685,2,0,L|67:40,2,112,8|0|8,0:0|0:0|0:0,0:0:0:0:
0,208,48406,2,0,P|36:284|172:272,2,224,4|4|4,0:0|0:0|0:0,0:0:0:0:
176,52,49992,2,8,L|184:112,1,56
240,160,50281,2,8,L|248:220,2,56,8|8|0,0:0|0:0|0:0,0:0:0:0:
300,108,50713,6,0,P|336:68|444:96,1,168,4|8,0:0|0:0,0:0:0:0:
388,236,51435,2,0,P|368:188|380:124,1,112,0|8,0:0|0:0,0:0:0:0:
236,60,52012,2,0,P|204:101|143:122,1,112,0|8,0:0|0:0,0:0:0:0:
172,276,52588,2,0,P|223:282|272:325,1,112,0|8,0:0|0:0,0:0:0:0:
336,360,53021,6,0,B|392:360|392:360|432:316|408:248,1,168,4|8,0:0|0:0,0:0:0:0:
288,156,53742,2,0,L|172:144,2,112,0|8|0,0:0|0:0|0:0,0:0:0:0:
380,28,54608,2,0,L|496:16,1,112,8|8,0:0|0:0,0:0:0:0:
468,92,55040,2,8,L|480:160,1,56
492,224,55329,6,0,P|452:256|336:232,1,168,4|12,0:0|0:0,0:0:0:0:
236,124,56050,2,0,L|224:244,1,112,0|8,0:0|0:0,0:0:0:0:
160,280,56483,2,0,P|112:296|24:220,1,168,0|8,0:0|0:0,0:0:0:0:
128,112,57204,2,0,L|139:0,1,112,0|8,0:0|0:0,0:0:0:0:
208,40,57637,6,0,B|260:56|304:28|304:28|340:48|324:88,1,168,4|8,0:0|0:0,0:0:0:0:
220,200,58358,2,0,L|330:215,1,112,0|8,0:0|0:0,0:0:0:0:
256,352,58935,2,0,L|366:336,2,112,8|8|8,0:0|0:0|0:0,0:0:0:0:
188,312,59656,2,0,L|132:319,2,56,8|8|4,0:0|0:0|0:0,0:0:0:0:
284,188,60233,6,0,P|288:160|284:128,1,56,0|8,0:0|0:0,0:0:0:0:
152,48,60665,2,0,P|148:76|152:108,2,56,0|0|8,0:0|0:0|0:0,0:0:0:0:
220,4,61098,2,0,L|336:16,1,112,4|0,0:0|0:0,0:0:0:0:
408,28,61531,1,8,0:0:0:0:
484,164,61819,2,0,P|444:196|368:184,1,112,0|8,0:0|0:0,0:0:0:0:
312,228,62252,6,0,P|272:196|196:208,1,112,4|0,0:0|0:0,0:0:0:0:
148,244,62685,2,0,P|108:276|32:264,2,112,8|0|8,0:0|0:0|0:0,0:0:0:0:
132,168,63406,2,0,L|152:-8,1,168,4|8,0:0|0:0,0:0:0:0:
296,64,64127,2,0,L|240:56,2,56,8|0|8,0:0|0:0|0:0,0:0:0:0:
356,116,64560,6,0,P|376:168|324:264,1,168,4|8,0:0|0:0,0:0:0:0:
180,316,65281,2,0,L|236:324,2,56,0|0|8,0:0|0:0|0:0,0:0:0:0:
136,252,65713,2,0,B|96:224|44:240|44:240|12:212|32:172,1,168,4|8,0:0|0:0,0:0:0:0:
132,56,66435,2,0,L|140:168,1,112,0|8,0:0|0:0,0:0:0:0:
208,208,66867,6,0,P|268:216|344:140,1,168,4|8,0:0|0:0,0:0:0:0:
376,300,67588,2,0,L|260:292,1,112,0|8,0:0|0:0,0:0:0:0:
188,320,68021,2,0,L|72:312,1,112,4|0,0:0|0:0,0:0:0:0:
24,252,68454,2,0,P|12:188|36:148,2,112,8|0|8,0:0|0:0|0:0,0:0:0:0:
92,208,69175,6,0,L|264:232,1,168,0|8,0:0|0:0,0:0:0:0:
356,108,69896,2,0,L|344:40,2,56,0|4|4,0:0|0:3|0:3,0:0:0:0:
400,176,70329,2,0,L|376:312,2,112,8|8|8,0:0|0:0|0:0,0:0:0:0:
276,80,71194,2,8,P|212:64|156:96,1,112,8|4,0:0|0:0,0:0:0:0:
84,300,71915,5,4,0:0:0:0:
256,192,71988,12,4,73790,0:0:0:0:
256,192,74223,6,0,P|208:168|108:216,2,168,8|2|2,0:0|0:0|0:0,0:0:0:0:
404,144,75377,2,0,L|416:24,2,112,8|2|8,0:0|0:0|0:0,0:0:0:0:
392,300,76242,2,0,P|344:328|268:320,1,112,2|8,0:0|0:0,0:0:0:0:
228,280,76675,1,2,0:0:0:0:
196,208,76819,2,0,L|216:92,1,112,2|8,0:0|0:0,0:0:0:0:
152,52,77252,6,0,P|68:36|28:116,1,168,4|8,0:0|0:0,0:0:0:0:
76,160,77829,2,0,L|64:332,1,168,4|8,0:0|0:0,0:0:0:0:
140,300,78406,2,0,B|204:296|224:352|224:352|256:340|256:304,1,168,4|8,0:0|0:0,0:0:0:0:
408,264,79127,2,0,L|404:148,1,112,0|8,0:0|0:0,0:0:0:0:
348,96,79560,6,0,P|296:72|208:132,1,168,4|8,0:0|0:0,0:0:0:0:
144,172,80137,2,0,P|92:196|4:136,1,168,4|8,0:0|0:0,0:0:0:0:
80,116,80713,1,4,0:0:0:0:
124,268,81002,1,0,0:0:0:0:
196,236,81146,2,0,L|256:240,1,56,8|4,0:0|0:0,0:0:0:0:
400,188,81579,1,0,0:0:0:0:
328,156,81723,2,0,L|268:160,1,56,8|4,0:0|0:0,0:0:0:0:
140,76,82156,6,0,L|148:20,2,56,0|8|4,0:0|0:0|0:0,0:0:0:0:
92,136,82588,1,0,0:0:0:0:
168,152,82733,2,0,L|176:208,2,56,0|8|4,0:0|0:0|0:0,0:0:0:0:
316,208,83310,6,0,L|308:264,2,56,0|8|4,0:0|0:0|0:0,0:0:0:0:
412,84,83887,2,0,L|367:49,2,56,0|8|4,0:0|0:0|0:0,0:0:0:0:
460,232,84463,2,0,L|512:210,2,56,0|8|4,0:0|0:0|0:0,0:0:0:0:
400,284,84896,2,0,P|368:292|336:292,1,56,8|0,0:0|0:0,0:0:0:0:
280,248,85185,1,8,0:0:0:0:
280,168,85329,6,0,L|292:48,1,112,4|8,0:0|0:0,0:0:0:0:
224,20,85762,1,8,0:0:0:0:
104,120,86050,1,8,0:0:0:0:
180,96,86194,1,8,0:0:0:0:
176,252,86483,1,4,0:0:0:0:
256,192,86555,12,0,88935,0:0:0:0:
