osu file format v12

[General]
AudioFilename: The Kappa Way as Said ~ One Way Accelerator.mp3
AudioLeadIn: 2000
PreviewTime: 346
Countdown: 0
SampleSet: None
StackLeniency: 0.7
Mode: 0
LetterboxInBreaks: 1
EpilepsyWarning: 1
WidescreenStoryboard: 0

[Editor]
Bookmarks: 33,6517,12767,19017,24799,25293,28080,34329,40345,40579,49954,53079,65579,67142,74641,78391,82141,89641,97063,97141,103391,109720,123079,138079,145579
DistanceSpacing: 1
BeatDivisor: 4
GridSize: 4
TimelineZoom: 1

[Metadata]
Title:The Kappa Way as Said ~ One Way Accelerator
TitleUnicode:The Kappa Way as Said ~ One Way Accelerator
Artist:Kiryuu
ArtistUnicode:Kiryuu
Creator:DarkDunskin
Version:Normal
Source:Touhou
Tags:zun zunish Style Mitori Kawashiro Subterranaen Hatred Animism Nitori Fandom
BeatmapID:416040
BeatmapSetID:172078

[Difficulty]
HPDrainRate:4
CircleSize:3
OverallDifficulty:4
ApproachRate:4
SliderMultiplier:1.2
SliderTickRate:2

[Events]
//Background and Video events
0,0,"732938.jpg",0,0
//Break Periods
2,40858,48713
2,82420,88400
2,123357,133087
//Storyboard Layer 0 (Background)
Sprite,Background,Centre,"SB\white.jpg",320,240 C,0,-2000,0,0,0,0,200,0,0 F,0,-2000,138156,1 C,0,0,154094,200,0,0 F,0,138156,173688,0
Sprite,Background,Centre,"SB\Stopp2.gif",320,291 L,12846,8 F,1,0,781,0,0.75 S,0,0,1562,1.7 R,0,0,1562,0,6.2831 C,0,0,1562,255,180,0 F,2,781,1562,0.75,0 L,109720,8 F,1,0,781,0,0.75 S,0,0,1562,1.7 R,0,0,1562,0,6.2831 C,0,0,1562,255,180,0 F,2,781,1562,0.75,0
Sprite,Background,Centre,"SB\Stopp.gif",500,75 L,138158,9 S,0,0,1876,1.4 R,0,0,1876,0,6.2831 F,0,154094,154719,1,0
Sprite,Background,Centre,"SB\Stopp.gif",500,370 L,138158,9 S,0,0,1876,1.2 R,0,0,1876,0,12.5663 F,0,154094,154719,1,0
Sprite,Background,Centre,"SB\Stopp.gif",150,75 L,138158,9 S,0,0,1876,1.2 R,0,0,1876,0,12.5663 F,0,154094,154719,1,0
Sprite,Background,Centre,"SB\Stopp.gif",150,360 L,138158,9 S,0,0,1876,1.4 R,0,0,1876,0,6.2831 F,0,154094,154719,1,0
Animation,Background,Centre,"warning\warning_frame.jpg",520,120,20,40,LoopForever F,0,0,658,0,1 R,0,0,1908,-0.7853 C,0,0,1908,210,210,210 V,0,0,1908,1,1.1 F,0,658,12846,1
Animation,Background,Centre,"warning\warning_frame.jpg",140,240,20,40,LoopForever F,0,0,658,0,1 R,0,0,1908,0.3535 C,0,0,1908,180,180,180 V,0,0,1908,1,1.5 F,0,658,12846,1
Animation,Background,Centre,"warning\warning_frame.jpg",320,240,20,40,LoopForever F,0,0,658,0,1 R,0,0,1908,1.9242 C,0,0,1908,210,210,210 V,0,0,1908,1,2 F,0,658,12846,1
Animation,Background,Centre,"warning\warning_frame.jpg",270,210,20,40,LoopForever F,0,0,658,0,1 R,0,0,1908,-1.9242 C,0,0,1908,230,230,230 V,0,0,1908,1,1.7 F,0,658,12846,1
Animation,Background,Centre,"warning\warning_frame.jpg",320,95,20,40,LoopForever F,0,0,658,0,1 R,0,0,1908,1.7242 V,0,0,1908,1,1.87 F,0,658,12846,1
Animation,Background,Centre,"warning\warning_frame.jpg",520,120,20,20,LoopForever R,0,12846,,-0.7853 V,0,12846,,1,1.1 F,0,12846,25346,1
Animation,Background,Centre,"warning\warning_frame.jpg",140,240,20,20,LoopForever R,0,12846,,0.3535 V,0,12846,,1,1.5 F,0,12846,25346,1
Animation,Background,Centre,"warning\warning_frame.jpg",320,240,20,20,LoopForever R,0,12846,,1.9242 V,0,12846,,1,2 F,0,12846,25346,1
Animation,Background,Centre,"warning\warning_frame.jpg",270,210,20,20,LoopForever R,0,12846,,-1.9242 V,0,12846,,1,1.7 F,0,12846,25346,1
Animation,Background,Centre,"warning\warning_frame.jpg",320,95,20,20,LoopForever R,0,12846,,1.7242 V,0,12846,,1,1.87 F,0,12846,25346,1
Animation,Background,Centre,"warning\warning_frame.jpg",520,120,20,40,LoopForever R,0,25346,,-0.7853 V,0,25346,,1,1.1 F,0,25346,109720,1 C,0,25346,109720,210,210,210
Animation,Background,Centre,"warning\warning_frame.jpg",140,240,20,40,LoopForever R,0,25346,,0.3535 V,0,25346,,1,1.5 F,0,25346,109720,1 C,0,25346,109720,180,180,180
Animation,Background,Centre,"warning\warning_frame.jpg",320,240,20,40,LoopForever R,0,25346,,1.9242 V,0,25346,,1,2 F,0,25346,109720,1 C,0,25346,109720,210,210,210
Animation,Background,Centre,"warning\warning_frame.jpg",270,210,20,40,LoopForever R,0,25346,,-1.9242 V,0,25346,,1,1.7 F,0,25346,109720,1 C,0,25346,109720,230,230,230
Animation,Background,Centre,"warning\warning_frame.jpg",320,95,20,40,LoopForever R,0,25346,,1.7242 V,0,25346,,1,1.87 F,0,25346,109720,1
Animation,Background,Centre,"warning\warning_frame.jpg",520,120,20,20,LoopForever R,0,109720,,-0.7853 V,0,109720,,1,1.1 F,0,109720,122220,1
Animation,Background,Centre,"warning\warning_frame.jpg",140,240,20,20,LoopForever R,0,109720,,0.3535 V,0,109720,,1,1.5 F,0,109720,122220,1
Animation,Background,Centre,"warning\warning_frame.jpg",320,240,20,20,LoopForever R,0,109720,,1.9242 V,0,109720,,1,2 F,0,109720,122220,1
Animation,Background,Centre,"warning\warning_frame.jpg",270,210,20,20,LoopForever R,0,109720,,-1.9242 V,0,109720,,1,1.7 F,0,109720,122220,1
Animation,Background,Centre,"warning\warning_frame.jpg",320,95,20,20,LoopForever R,0,109720,,1.7242 V,0,109720,,1,1.87 F,0,109720,122220,1
Animation,Background,Centre,"warning\warning_frame.jpg",520,120,20,40,LoopForever R,0,122220,,-0.7853 V,0,122220,,1,1.1 F,0,122220,138157,1 C,0,122220,138157,210,210,210
Animation,Background,Centre,"warning\warning_frame.jpg",140,240,20,40,LoopForever R,0,122220,,0.3535 V,0,122220,,1,1.5 F,0,122220,138157,1 C,0,122220,138157,180,180,180
Animation,Background,Centre,"warning\warning_frame.jpg",320,240,20,40,LoopForever R,0,122220,,1.9242 V,0,122220,,1,2 F,0,122220,138157,1 C,0,122220,138157,210,210,210
Animation,Background,Centre,"warning\warning_frame.jpg",270,210,20,40,LoopForever R,0,122220,,-1.9242 V,0,122220,,1,1.7 F,0,122220,138157,1 C,0,122220,138157,230,230,230
Animation,Background,Centre,"warning\warning_frame.jpg",320,95,20,40,LoopForever R,0,122220,,1.7242 V,0,122220,,1,1.87 F,0,122220,138157,1
Sprite,Background,Centre,"SB\Stopp.gif",320,240 L,80657,1 M,0,0,625,70,350 F,2,0,625,1,0 S,0,0,625,0,0.6 R,0,0,625,0,3.1415 L,136595,1 M,0,0,625,70,350 F,2,0,625,1,0 S,0,0,625,0,0.6 R,0,0,625,0,3.1415 L,95657,1 M,0,0,625,70,350 F,2,0,625,1,0 S,0,0,625,0,0.6 R,0,0,625,0,3.1415 L,64408,1 M,0,0,625,70,350 F,2,0,625,1,0 S,0,0,625,0,0.6 R,0,0,625,0,3.1415 L,65033,1 M,0,0,625,30,190 F,2,0,625,1,0 S,0,0,625,0,0.6 R,0,0,625,0,3.1415 L,120970,1 M,0,0,625,70,350 F,2,0,625,1,0 S,0,0,625,0,0.6 R,0,0,625,0,3.1415 L,121595,1 M,0,0,625,30,190 F,2,0,625,1,0 S,0,0,625,0,0.6 R,0,0,625,0,3.1415
Sprite,Background,Centre,"SB\Stopp.gif",320,240 L,80970,1 M,0,0,625,90,60 F,2,0,625,1,0 S,0,0,625,0,0.6 R,0,0,625,0,3.1415 L,136907,1 M,0,0,625,90,60 F,2,0,625,1,0 S,0,0,625,0,0.6 R,0,0,625,0,3.1415 L,95970,1 M,0,0,625,90,60 F,2,0,625,1,0 S,0,0,625,0,0.6 R,0,0,625,0,3.1415 L,64702,1 M,0,0,625,90,60 F,2,0,625,1,0 S,0,0,625,0,0.6 R,0,0,625,0,3.1415 L,65033,1 M,0,0,625,415,85 F,2,0,625,1,0 S,0,0,625,0,0.6 R,0,0,625,0,3.1415 L,121282,1 M,0,0,625,90,60 F,2,0,625,1,0 S,0,0,625,0,0.6 R,0,0,625,0,3.1415 L,121595,1 M,0,0,625,415,85 F,2,0,625,1,0 S,0,0,625,0,0.6 R,0,0,625,0,3.1415
Sprite,Background,Centre,"SB\Stopp.gif",320,240 L,80657,1 M,0,0,625,570,260 F,2,0,625,1,0 S,0,0,625,0,0.6 R,0,0,625,0,3.1415 L,136595,1 M,0,0,625,570,260 F,2,0,625,1,0 S,0,0,625,0,0.6 R,0,0,625,0,3.1415 L,95657,1 M,0,0,625,570,260 F,2,0,625,1,0 S,0,0,625,0,0.6 R,0,0,625,0,3.1415 L,64408,1 M,0,0,625,570,260 F,2,0,625,1,0 S,0,0,625,0,0.6 R,0,0,625,0,3.1415 L,65345,1 M,0,0,625,170,220 F,2,0,625,1,0 S,0,0,625,0,0.6 R,0,0,625,0,3.1415 L,120970,1 M,0,0,625,570,260 F,2,0,625,1,0 S,0,0,625,0,0.6 R,0,0,625,0,3.1415 L,121907,1 M,0,0,625,170,220 F,2,0,625,1,0 S,0,0,625,0,0.6 R,0,0,625,0,3.1415
Sprite,Background,Centre,"SB\Stopp.gif",320,240 L,80970,1 M,0,0,625,520,150 F,2,0,625,1,0 S,0,0,625,0,0.6 R,0,0,625,0,3.1415 L,136907,1 M,0,0,625,520,150 F,2,0,625,1,0 S,0,0,625,0,0.6 R,0,0,625,0,3.1415 L,95970,1 M,0,0,625,520,150 F,2,0,625,1,0 S,0,0,625,0,0.6 R,0,0,625,0,3.1415 L,64720,1 M,0,0,625,520,150 F,2,0,625,1,0 S,0,0,625,0,0.6 R,0,0,625,0,3.1415 L,65345,1 M,0,0,625,540,140 F,2,0,625,1,0 S,0,0,625,0,0.6 R,0,0,625,0,3.1415 L,121282,1 M,0,0,625,520,150 F,2,0,625,1,0 S,0,0,625,0,0.6 R,0,0,625,0,3.1415 L,121907,1 M,0,0,625,540,140 F,2,0,625,1,0 S,0,0,625,0,0.6 R,0,0,625,0,3.1415
Sprite,Background,Centre,"SB\Stopp.gif",320,240 L,346,1 M,0,0,625,150,150 F,2,0,625,1,0 S,0,0,625,0,0.6 R,0,0,625,0,3.1415 L,6596,1 M,0,0,625,110,300 F,2,0,625,1,0 S,0,0,625,0,0.6 R,0,0,625,0,3.1415 L,12846,1 M,0,0,625,130,200 F,2,0,625,1,0 S,0,0,625,0,0.6 R,0,0,625,0,3.1415 L,19096,1 M,0,0,625,100,315 F,2,0,625,1,0 S,0,0,625,0,0.6 R,0,0,625,0,3.1415 L,25346,1 M,0,0,625,150,150 F,2,0,625,1,0 S,0,0,625,0,0.6 R,0,0,625,0,3.1415 L,28158,1 M,0,0,625,110,300 F,2,0,625,1,0 S,0,0,625,0,0.6 R,0,0,625,0,3.1415 L,31283,1 M,0,0,625,130,200 F,2,0,625,1,0 S,0,0,625,0,0.6 R,0,0,625,0,3.1415 L,34408,1 M,0,0,625,100,315 F,2,0,625,1,0 S,0,0,625,0,0.6 R,0,0,625,0,3.1415 L,37533,1 M,0,0,625,150,150 F,2,0,625,1,0 S,0,0,625,0,0.6 R,0,0,625,0,3.1415 L,39095,1 M,0,0,625,110,300 F,2,0,625,1,0 S,0,0,625,0,0.6 R,0,0,625,0,3.1415 L,40033,1 M,0,0,625,130,200 F,2,0,625,1,0 S,0,0,625,0,0.6 R,0,0,625,0,3.1415 L,40658,1 M,0,0,625,100,315 F,2,0,625,1,0 S,0,0,625,0,0.6 R,0,0,625,0,3.1415 L,46908,1 M,0,0,625,150,150 F,2,0,625,1,0 S,0,0,625,0,0.6 R,0,0,625,0,3.1415 L,48470,1 M,0,0,625,110,300 F,2,0,625,1,0 S,0,0,625,0,0.6 R,0,0,625,0,3.1415 L,50033,1 M,0,0,625,130,200 F,2,0,625,1,0 S,0,0,625,0,0.6 R,0,0,625,0,3.1415 L,53158,1 M,0,0,625,100,315 F,2,0,625,1,0 S,0,0,625,0,0.6 R,0,0,625,0,3.1415 L,56283,1 M,0,0,625,150,150 F,2,0,625,1,0 S,0,0,625,0,0.6 R,0,0,625,0,3.1415 L,59408,1 M,0,0,625,110,300 F,2,0,625,1,0 S,0,0,625,0,0.6 R,0,0,625,0,3.1415 L,60970,1 M,0,0,625,130,200 F,2,0,625,1,0 S,0,0,625,0,0.6 R,0,0,625,0,3.1415 L,62533,1 M,0,0,625,100,315 F,2,0,625,1,0 S,0,0,625,0,0.6 R,0,0,625,0,3.1415 L,64095,1 M,0,0,625,150,150 F,2,0,625,1,0 S,0,0,625,0,0.6 R,0,0,625,0,3.1415 L,67220,1 M,0,0,625,110,300 F,2,0,625,1,0 S,0,0,625,0,0.6 R,0,0,625,0,3.1415 L,70970,1 M,0,0,625,130,200 F,2,0,625,1,0 S,0,0,625,0,0.6 R,0,0,625,0,3.1415 L,74720,1 M,0,0,625,100,315 F,2,0,625,1,0 S,0,0,625,0,0.6 R,0,0,625,0,3.1415 L,78470,1 M,0,0,625,150,150 F,2,0,625,1,0 S,0,0,625,0,0.6 R,0,0,625,0,3.1415 L,79407,1 M,0,0,625,110,300 F,2,0,625,1,0 S,0,0,625,0,0.6 R,0,0,625,0,3.1415 L,80345,1 M,0,0,625,130,200 F,2,0,625,1,0 S,0,0,625,0,0.6 R,0,0,625,0,3.1415 L,81282,1 M,0,0,625,100,315 F,2,0,625,1,0 S,0,0,625,0,0.6 R,0,0,625,0,3.1415 L,85970,1 M,0,0,625,150,150 F,2,0,625,1,0 S,0,0,625,0,0.6 R,0,0,625,0,3.1415 L,89720,1 M,0,0,625,110,300 F,2,0,625,1,0 S,0,0,625,0,0.6 R,0,0,625,0,3.1415 L,91595,1 M,0,0,625,130,200 F,2,0,625,1,0 S,0,0,625,0,0.6 R,0,0,625,0,3.1415 L,93470,1 M,0,0,625,100,315 F,2,0,625,1,0 S,0,0,625,0,0.6 R,0,0,625,0,3.1415 L,94407,1 M,0,0,625,150,150 F,2,0,625,1,0 S,0,0,625,0,0.6 R,0,0,625,0,3.1415 L,95345,1 M,0,0,625,110,300 F,2,0,625,1,0 S,0,0,625,0,0.6 R,0,0,625,0,3.1415 L,96282,1 M,0,0,625,130,200 F,2,0,625,1,0 S,0,0,625,0,0.6 R,0,0,625,0,3.1415 L,97220,1 M,0,0,625,100,315 F,2,0,625,1,0 S,0,0,625,0,0.6 R,0,0,625,0,3.1415 L,100345,1 M,0,0,625,150,150 F,2,0,625,1,0 S,0,0,625,0,0.6 R,0,0,625,0,3.1415 L,103470,1 M,0,0,625,110,300 F,2,0,625,1,0 S,0,0,625,0,0.6 R,0,0,625,0,3.1415 L,106595,1 M,0,0,625,130,200 F,2,0,625,1,0 S,0,0,625,0,0.6 R,0,0,625,0,3.1415 L,108157,1 M,0,0,625,100,315 F,2,0,625,1,0 S,0,0,625,0,0.6 R,0,0,625,0,3.1415 L,109095,1 M,0,0,625,150,150 F,2,0,625,1,0 S,0,0,625,0,0.6 R,0,0,625,0,3.1415 L,109720,1 M,0,0,625,110,300 F,2,0,625,1,0 S,0,0,625,0,0.6 R,0,0,625,0,3.1415 L,112845,1 M,0,0,625,130,200 F,2,0,625,1,0 S,0,0,625,0,0.6 R,0,0,625,0,3.1415 L,115970,1 M,0,0,625,100,315 F,2,0,625,1,0 S,0,0,625,0,0.6 R,0,0,625,0,3.1415 L,117532,1 M,0,0,625,150,150 F,2,0,625,1,0 S,0,0,625,0,0.6 R,0,0,625,0,3.1415 L,119095,1 M,0,0,625,110,300 F,2,0,625,1,0 S,0,0,625,0,0.6 R,0,0,625,0,3.1415 L,120657,1 M,0,0,625,130,200 F,2,0,625,1,0 S,0,0,625,0,0.6 R,0,0,625,0,3.1415 L,123157,1 M,0,0,625,100,315 F,2,0,625,1,0 S,0,0,625,0,0.6 R,0,0,625,0,3.1415 L,130657,1 M,0,0,625,150,150 F,2,0,625,1,0 S,0,0,625,0,0.6 R,0,0,625,0,3.1415 L,132532,1 M,0,0,625,130,200 F,2,0,625,1,0 S,0,0,625,0,0.6 R,0,0,625,0,3.1415 L,134407,1 M,0,0,625,100,315 F,2,0,625,1,0 S,0,0,625,0,0.6 R,0,0,625,0,3.1415 L,135345,1 M,0,0,625,150,150 F,2,0,625,1,0 S,0,0,625,0,0.6 R,0,0,625,0,3.1415 L,136282,1 M,0,0,625,110,300 F,2,0,625,1,0 S,0,0,625,0,0.6 R,0,0,625,0,3.1415 L,137220,1 M,0,0,625,130,200 F,2,0,625,1,0 S,0,0,625,0,0.6 R,0,0,625,0,3.1415 L,82220,1 M,0,0,625,130,200 F,2,0,625,1,0 S,0,0,625,0,0.6 R,0,0,625,0,3.1415
Sprite,Background,Centre,"SB\Stopp.gif",320,240 L,346,1 M,0,0,625,490,90 F,2,0,625,1,0 S,0,0,625,0,0.6 R,0,0,625,0,3.1415 L,6596,1 M,0,0,625,540,150 F,2,0,625,1,0 S,0,0,625,0,0.6 R,0,0,625,0,3.1415 L,12846,1 M,0,0,625,420,120 F,2,0,625,1,0 S,0,0,625,0,0.6 R,0,0,625,0,3.1415 L,19096,1 M,0,0,625,465,70 F,2,0,625,1,0 S,0,0,625,0,0.6 R,0,0,625,0,3.1415 L,25346,1 M,0,0,625,490,90 F,2,0,625,1,0 S,0,0,625,0,0.6 R,0,0,625,0,3.1415 L,28158,1 M,0,0,625,540,150 F,2,0,625,1,0 S,0,0,625,0,0.6 R,0,0,625,0,3.1415 L,31283,1 M,0,0,625,420,120 F,2,0,625,1,0 S,0,0,625,0,0.6 R,0,0,625,0,3.1415 L,34408,1 M,0,0,625,465,70 F,2,0,625,1,0 S,0,0,625,0,0.6 R,0,0,625,0,3.1415 L,37533,1 M,0,0,625,490,90 F,2,0,625,1,0 S,0,0,625,0,0.6 R,0,0,625,0,3.1415 L,39095,1 M,0,0,625,540,150 F,2,0,625,1,0 S,0,0,625,0,0.6 R,0,0,625,0,3.1415 L,40033,1 M,0,0,625,420,120 F,2,0,625,1,0 S,0,0,625,0,0.6 R,0,0,625,0,3.1415 L,40658,1 M,0,0,625,465,70 F,2,0,625,1,0 S,0,0,625,0,0.6 R,0,0,625,0,3.1415 L,46908,1 M,0,0,625,490,90 F,2,0,625,1,0 S,0,0,625,0,0.6 R,0,0,625,0,3.1415 L,48470,1 M,0,0,625,540,150 F,2,0,625,1,0 S,0,0,625,0,0.6 R,0,0,625,0,3.1415 L,50033,1 M,0,0,625,420,120 F,2,0,625,1,0 S,0,0,625,0,0.6 R,0,0,625,0,3.1415 L,53158,1 M,0,0,625,465,70 F,2,0,625,1,0 S,0,0,625,0,0.6 R,0,0,625,0,3.1415 L,56283,1 M,0,0,625,490,90 F,2,0,625,1,0 S,0,0,625,0,0.6 R,0,0,625,0,3.1415 L,59408,1 M,0,0,625,540,150 F,2,0,625,1,0 S,0,0,625,0,0.6 R,0,0,625,0,3.1415 L,60970,1 M,0,0,625,420,120 F,2,0,625,1,0 S,0,0,625,0,0.6 R,0,0,625,0,3.1415 L,62533,1 M,0,0,625,465,70 F,2,0,625,1,0 S,0,0,625,0,0.6 R,0,0,625,0,3.1415 L,64095,1 M,0,0,625,490,90 F,2,0,625,1,0 S,0,0,625,0,0.6 R,0,0,625,0,3.1415 L,67220,1 M,0,0,625,540,150 F,2,0,625,1,0 S,0,0,625,0,0.6 R,0,0,625,0,3.1415 L,70970,1 M,0,0,625,420,120 F,2,0,625,1,0 S,0,0,625,0,0.6 R,0,0,625,0,3.1415 L,74720,1 M,0,0,625,465,70 F,2,0,625,1,0 S,0,0,625,0,0.6 R,0,0,625,0,3.1415 L,78470,1 M,0,0,625,490,90 F,2,0,625,1,0 S,0,0,625,0,0.6 R,0,0,625,0,3.1415 L,79407,1 M,0,0,625,540,150 F,2,0,625,1,0 S,0,0,625,0,0.6 R,0,0,625,0,3.1415 L,80345,1 M,0,0,625,420,120 F,2,0,625,1,0 S,0,0,625,0,0.6 R,0,0,625,0,3.1415 L,81282,1 M,0,0,625,465,70 F,2,0,625,1,0 S,0,0,625,0,0.6 R,0,0,625,0,3.1415 L,85970,1 M,0,0,625,490,90 F,2,0,625,1,0 S,0,0,625,0,0.6 R,0,0,625,0,3.1415 L,89720,1 M,0,0,625,540,150 F,2,0,625,1,0 S,0,0,625,0,0.6 R,0,0,625,0,3.1415 L,91595,1 M,0,0,625,420,120 F,2,0,625,1,0 S,0,0,625,0,0.6 R,0,0,625,0,3.1415 L,93470,1 M,0,0,625,465,70 F,2,0,625,1,0 S,0,0,625,0,0.6 R,0,0,625,0,3.1415 L,94407,1 M,0,0,625,490,90 F,2,0,625,1,0 S,0,0,625,0,0.6 R,0,0,625,0,3.1415 L,95345,1 M,0,0,625,540,150 F,2,0,625,1,0 S,0,0,625,0,0.6 R,0,0,625,0,3.1415 L,96282,1 M,0,0,625,420,120 F,2,0,625,1,0 S,0,0,625,0,0.6 R,0,0,625,0,3.1415 L,97220,1 M,0,0,625,465,70 F,2,0,625,1,0 S,0,0,625,0,0.6 R,0,0,625,0,3.1415 L,100345,1 M,0,0,625,490,90 F,2,0,625,1,0 S,0,0,625,0,0.6 R,0,0,625,0,3.1415 L,103470,1 M,0,0,625,540,150 F,2,0,625,1,0 S,0,0,625,0,0.6 R,0,0,625,0,3.1415 L,106595,1 M,0,0,625,420,120 F,2,0,625,1,0 S,0,0,625,0,0.6 R,0,0,625,0,3.1415 L,108157,1 M,0,0,625,465,70 F,2,0,625,1,0 S,0,0,625,0,0.6 R,0,0,625,0,3.1415 L,109095,1 M,0,0,625,490,90 F,2,0,625,1,0 S,0,0,625,0,0.6 R,0,0,625,0,3.1415 L,109720,1 M,0,0,625,540,150 F,2,0,625,1,0 S,0,0,625,0,0.6 R,0,0,625,0,3.1415 L,112845,1 M,0,0,625,420,120 F,2,0,625,1,0 S,0,0,625,0,0.6 R,0,0,625,0,3.1415 L,115970,1 M,0,0,625,465,70 F,2,0,625,1,0 S,0,0,625,0,0.6 R,0,0,625,0,3.1415 L,117532,1 M,0,0,625,490,90 F,2,0,625,1,0 S,0,0,625,0,0.6 R,0,0,625,0,3.1415 L,119095,1 M,0,0,625,540,150 F,2,0,625,1,0 S,0,0,625,0,0.6 R,0,0,625,0,3.1415 L,120657,1 M,0,0,625,420,120 F,2,0,625,1,0 S,0,0,625,0,0.6 R,0,0,625,0,3.1415 L,123157,1 M,0,0,625,465,70 F,2,0,625,1,0 S,0,0,625,0,0.6 R,0,0,625,0,3.1415 L,130657,1 M,0,0,625,490,90 F,2,0,625,1,0 S,0,0,625,0,0.6 R,0,0,625,0,3.1415 L,132532,1 M,0,0,625,420,120 F,2,0,625,1,0 S,0,0,625,0,0.6 R,0,0,625,0,3.1415 L,134407,1 M,0,0,625,465,70 F,2,0,625,1,0 S,0,0,625,0,0.6 R,0,0,625,0,3.1415 L,135345,1 M,0,0,625,490,90 F,2,0,625,1,0 S,0,0,625,0,0.6 R,0,0,625,0,3.1415 L,136282,1 M,0,0,625,540,150 F,2,0,625,1,0 S,0,0,625,0,0.6 R,0,0,625,0,3.1415 L,137220,1 M,0,0,625,420,120 F,2,0,625,1,0 S,0,0,625,0,0.6 R,0,0,625,0,3.1415 L,82220,1 M,0,0,625,420,120 F,2,0,625,1,0 S,0,0,625,0,0.6 R,0,0,625,0,3.1415
Sprite,Background,Centre,"SB\Mitori.png",320,240 F,0,-2000,0,0,1 S,0,-2000,138157,1.1 F,0,0,138157,1
Sprite,Background,Centre,"SB\Mitori.png",320,240 L,82220,1 F,0,0,652,1,0 S,0,0,652,1.1,1.2 L,346,1 F,0,0,652,1,0 S,0,0,652,1.1,1.2 L,6596,1 F,0,0,652,1,0 S,0,0,652,1.1,1.2 L,12846,1 F,0,0,652,1,0 S,0,0,652,1.1,1.2 L,19096,1 F,0,0,652,1,0 S,0,0,652,1.1,1.2 L,25346,1 F,0,0,652,1,0 S,0,0,652,1.1,1.2 L,28158,1 F,0,0,652,1,0 S,0,0,652,1.1,1.2 L,31283,1 F,0,0,652,1,0 S,0,0,652,1.1,1.2 L,34408,1 F,0,0,652,1,0 S,0,0,652,1.1,1.2 L,37533,1 F,0,0,652,1,0 S,0,0,652,1.1,1.2 L,39095,1 F,0,0,652,1,0 S,0,0,652,1.1,1.2 L,40033,1 F,0,0,652,1,0 S,0,0,652,1.1,1.2 L,40658,1 F,0,0,652,1,0 S,0,0,652,1.1,1.2 L,46908,1 F,0,0,652,1,0 S,0,0,652,1.1,1.2 L,48470,1 F,0,0,652,1,0 S,0,0,652,1.1,1.2 L,50033,1 F,0,0,652,1,0 S,0,0,652,1.1,1.2 L,53158,1 F,0,0,652,1,0 S,0,0,652,1.1,1.2 L,56283,1 F,0,0,652,1,0 S,0,0,652,1.1,1.2 L,59408,1 F,0,0,652,1,0 S,0,0,652,1.1,1.2 L,60970,1 F,0,0,652,1,0 S,0,0,652,1.1,1.2 L,62533,1 F,0,0,652,1,0 S,0,0,652,1.1,1.2 L,64095,1 F,0,0,652,1,0 S,0,0,652,1.1,1.2 L,67220,1 F,0,0,652,1,0 S,0,0,652,1.1,1.2 L,70970,1 F,0,0,652,1,0 S,0,0,652,1.1,1.2 L,74720,1 F,0,0,652,1,0 S,0,0,652,1.1,1.2 L,78470,1 F,0,0,652,1,0 S,0,0,652,1.1,1.2 L,79407,1 F,0,0,652,1,0 S,0,0,652,1.1,1.2 L,80345,1 F,0,0,652,1,0 S,0,0,652,1.1,1.2 L,81282,1 F,0,0,652,1,0 S,0,0,652,1.1,1.2 L,85970,1 F,0,0,652,1,0 S,0,0,652,1.1,1.2 L,89720,1 F,0,0,652,1,0 S,0,0,652,1.1,1.2 L,91595,1 F,0,0,652,1,0 S,0,0,652,1.1,1.2 L,93470,1 F,0,0,652,1,0 S,0,0,652,1.1,1.2 L,94407,1 F,0,0,652,1,0 S,0,0,652,1.1,1.2 L,95345,1 F,0,0,652,1,0 S,0,0,652,1.1,1.2 L,96282,1 F,0,0,652,1,0 S,0,0,652,1.1,1.2 L,97220,1 F,0,0,652,1,0 S,0,0,652,1.1,1.2 L,100345,1 F,0,0,652,1,0 S,0,0,652,1.1,1.2 L,103470,1 F,0,0,652,1,0 S,0,0,652,1.1,1.2 L,106595,1 F,0,0,652,1,0 S,0,0,652,1.1,1.2 L,108157,1 F,0,0,652,1,0 S,0,0,652,1.1,1.2 L,109095,1 F,0,0,652,1,0 S,0,0,652,1.1,1.2 L,109720,1 F,0,0,652,1,0 S,0,0,652,1.1,1.2 L,112845,1 F,0,0,652,1,0 S,0,0,652,1.1,1.2 L,115970,1 F,0,0,652,1,0 S,0,0,652,1.1,1.2 L,117532,1 F,0,0,652,1,0 S,0,0,652,1.1,1.2 L,119095,1 F,0,0,652,1,0 S,0,0,652,1.1,1.2 L,120657,1 F,0,0,652,1,0 S,0,0,652,1.1,1.2 L,123157,1 F,0,0,652,1,0 S,0,0,652,1.1,1.2 L,130657,1 F,0,0,652,1,0 S,0,0,652,1.1,1.2 L,132532,1 F,0,0,652,1,0 S,0,0,652,1.1,1.2 L,134407,1 F,0,0,652,1,0 S,0,0,652,1.1,1.2 L,135345,1 F,0,0,652,1,0 S,0,0,652,1.1,1.2 L,136282,1 F,0,0,652,1,0 S,0,0,652,1.1,1.2 L,137220,1 F,0,0,652,1,0 S,0,0,652,1.1,1.2
Sprite,Background,Centre,"SB\Mitori2.png",320,240 F,0,138157,154094,1 S,0,138157,154719,1.3 F,0,154094,154719,1,0
Sprite,Background,Centre,"SB\Mitori2.png",320,240 L,141907,1 F,0,0,652,1,0 S,0,0,652,1.3,1.4 L,145657,1 F,0,0,652,1,0 S,0,0,652,1.3,1.4 L,149407,1 F,0,0,652,1,0 S,0,0,652,1.3,1.4 L,150345,1 F,0,0,652,1,0 S,0,0,652,1.3,1.4 L,151282,1 F,0,0,652,1,0 S,0,0,652,1.3,1.4 L,153157,1 F,0,0,652,1,0 S,0,0,652,1.3,1.4
Sprite,Background,CentreLeft,"SB\warning.jpg",320,80 M,0,137220,139095,640,80,-640,80
Sprite,Background,CentreRight,"SB\warning.jpg",320,240 M,0,137220,139095,0,240,1280,240 P,0,137220,139095,V
Sprite,Background,CentreLeft,"SB\warning.jpg",320,400 M,0,137220,139095,640,400,-640,400
Sprite,Background,Centre,"SB\white.jpg",320,240 F,1,10814,11127,0,0.8 C,0,10814,12846,0,0,0 F,0,11127,12533,0.8 F,0,12533,12846,0.8,0
Sprite,Background,Centre,"SB\Forbid.png",320,240 F,1,10814,11127,0,1 M,0,10814,12846,320,80,400,80 C,0,10814,12846,230,0,0 F,0,11127,12533,1 F,0,12533,12846,1,0
Sprite,Background,Centre,"SB\Forbid.png",320,240 F,1,10814,11127,0,1 M,0,10814,12846,320,400,400,400 C,0,10814,12846,230,0,0 F,0,11127,12533,1 F,0,12533,12846,1,0
Sprite,Background,Centre,"SB\Stopp3.png",320,240 F,1,10814,11127,0,1 M,0,10814,12846,320,240,280,240 C,0,10814,12846,230,0,0 F,0,11127,12533,1 F,0,12533,12846,1,0
Sprite,Background,Centre,"SB\Stopp3.png",320,240 F,1,10814,11127,0,1 M,0,10814,12846,0,240,-80,240 C,0,10814,12846,230,0,0 F,0,11127,12533,1 F,0,12533,12846,1,0
Sprite,Background,Centre,"SB\Stopp3.png",320,240 F,1,10814,11127,0,1 M,0,10814,12846,640,240,600,240 C,0,10814,12846,230,0,0 F,0,11127,12533,1 F,0,12533,12846,1,0
//Storyboard Layer 1 (Fail)
//Storyboard Layer 2 (Pass)
//Storyboard Layer 3 (Foreground)
//Storyboard Sound Samples
Sample,10814,3,"caution.mp3",80
//Background Colour Transformations
3,100,163,162,255

[TimingPoints]
346,312.5,5,1,0,60,1,0
12846,-100,5,1,0,60,0,1
25346,312.5,3,1,0,60,1,0
28158,312.5,5,1,0,60,1,0
28158,-100,5,2,0,60,0,0
67220,312.5,3,1,0,60,1,0
74720,-100,3,1,0,60,0,1
82220,-100,3,1,0,60,0,0
97220,312.5,5,1,0,60,1,0
122220,312.5,3,1,0,60,1,0
145657,-100,3,1,0,60,0,1
153157,312.5,5,1,0,60,1,0

[Colours]
Combo1 : 219,121,62
Combo2 : 255,128,128
Combo3 : 146,88,69
Combo4 : 210,3,3

[HitObjects]
68,212,346,2,0,B|68:300|68:300|164:348,1,180,12|8,0:0|0:0,0:0:0:0:
332,344,1283,1,8,0:0:0:0:
444,296,1596,1,8,0:0:0:0:
444,176,1908,6,8,B|444:88|444:88|348:40,1,180,8|8,0:0|0:0,0:0:0:0:
180,44,2846,2,0,B|60:44,2,120,8|8|8,0:0|0:0|0:0,0:0:0:0:
60,180,3939,5,8,0:0:0:0:
148,336,4408,1,8,0:0:0:0:
268,336,4721,1,8,0:0:0:0:
368,272,5033,6,0,B|440:208|440:208|440:112,1,180,8|8,0:0|0:0,0:0:0:0:
260,104,5971,2,8,B|228:104|228:104|228:132|228:132|196:132|196:132|196:160|196:160|164:160|164:160|164:188|164:188|132:188|132:188|132:216,1,240,8|12,0:0|0:0,0:0:0:0:
52,44,7064,5,8,0:0:0:0:
52,224,7533,1,8,0:0:0:0:
124,320,7846,1,8,0:0:0:0:
244,320,8158,6,0,B|340:320|340:320|408:252,1,180,8|8,0:0|0:0,0:0:0:0:
268,140,9096,2,0,B|148:140,2,120,8|8|8,0:0|0:0|0:0,0:0:0:0:
428,56,10189,5,8,0:0:0:0:
428,236,10658,1,8,0:0:0:0:
356,332,10971,1,8,0:0:0:0:
236,332,11283,6,0,B|128:332|128:332|64:284,1,180,8|8,0:0|0:0,0:0:0:0:
84,108,12221,2,0,B|180:192,2,120,8|8|12,0:0|0:0|0:0,0:0:0:0:
192,60,13158,5,0,0:0:0:0:
312,60,13471,1,0,0:0:0:0:
388,152,13783,2,0,B|456:132|456:132|456:68,2,120,2|2|2,0:0|0:0|0:0,0:0:0:0:
388,272,14721,5,0,0:0:0:0:
288,336,15033,1,0,0:0:0:0:
168,336,15346,2,0,B|100:336|100:336|56:308,2,120,2|2|2,0:0|0:0|0:0,0:0:0:0:
136,220,16283,5,0,0:0:0:0:
256,220,16596,1,0,0:0:0:0:
364,172,16908,2,0,B|420:136|420:136|420:76,2,120,2|2|2,0:0|0:0|0:0,0:0:0:0:
300,72,17846,5,0,0:0:0:0:
180,72,18158,1,0,0:0:0:0:
76,136,18471,2,0,B|76:260,2,120,2|2|6,0:0|0:0|0:0,0:0:0:0:
180,72,19408,5,0,0:0:0:0:
300,72,19721,1,0,0:0:0:0:
376,164,20033,2,0,B|376:232|376:232|340:272,2,120,2|2|2,0:0|0:0|0:0,0:0:0:0:
260,200,20971,5,0,0:0:0:0:
140,200,21283,1,0,0:0:0:0:
44,272,21596,2,0,B|92:324|92:324|156:324,2,120,2|2|2,0:0|0:0|0:0,0:0:0:0:
44,152,22533,5,0,0:0:0:0:
124,60,22846,1,0,0:0:0:0:
244,60,23158,2,0,B|384:60,2,120,2|2|2,0:0|0:0|0:0,0:0:0:0:
244,180,24096,5,0,0:0:0:0:
364,180,24408,1,0,0:0:0:0:
460,256,24721,2,0,B|460:320|460:320|404:344,2,120,2|2|6,0:0|0:0|0:0,0:0:0:0:
256,192,25658,12,4,28158,0:0:0:0:
64,148,28783,5,8,0:0:0:0:
64,268,29095,1,8,0:0:0:0:
292,336,29720,1,8,0:0:0:0:
380,252,30033,2,0,B|480:336,2,120,8|8|8,0:0|0:0|0:0,0:0:0:0:
380,132,30970,1,8,0:0:0:0:
292,48,31283,6,0,B|188:48|188:48|120:88,1,180,12|8,0:0|0:0,0:0:0:0:
36,244,32220,1,8,0:0:0:0:
116,332,32533,1,8,0:0:0:0:
236,332,32845,6,0,B|324:332|324:332|400:280,1,180,8|8,0:0|0:0,0:0:0:0:
256,172,33783,2,0,B|372:92,2,120,8|8|12,0:0|0:0|0:0,0:0:0:0:
48,52,35033,5,8,0:0:0:0:
48,172,35345,1,8,0:0:0:0:
220,340,35970,1,8,0:0:0:0:
340,340,36283,2,0,B|372:340|412:336|432:304|448:276,2,120,8|8|8,0:0|0:0|0:0,0:0:0:0:
340,220,37220,1,8,0:0:0:0:
440,156,37533,6,0,B|440:88|440:88|328:48,1,180,12|8,0:0|0:0,0:0:0:0:
156,44,38470,1,8,0:0:0:0:
60,116,38783,1,8,0:0:0:0:
60,236,39095,6,0,B|60:316|60:316|160:348,1,180,12|8,0:0|0:0,0:0:0:0:
336,348,40033,2,4,B|368:348|368:348|368:320|368:320|400:320|400:320|400:292|400:292|432:292|432:292|432:264|432:264|464:264|464:264|464:236,1,240
316,336,50033,6,0,B|408:336|408:336|464:260,1,180,12|8,0:0|0:0,0:0:0:0:
456,84,50970,1,8,0:0:0:0:
340,48,51283,1,8,0:0:0:0:
220,48,51595,6,0,B|176:48|128:68|104:108|96:160,2,180,8|8|8,0:0|0:0|0:0,0:0:0:0:
216,168,52845,1,8,0:0:0:0:
336,184,53158,6,0,B|328:224|312:256|284:280|244:296|208:296|156:284|136:252,1,240,4|8,0:0|0:0,0:0:0:0:
216,168,54095,2,0,B|224:128|240:96|268:72|308:56|344:56|396:68|416:92,1,240
452,316,55345,1,8,0:0:0:0:
332,316,55658,2,0,B|224:344|224:280|92:320,1,240,0|4,0:0|0:0,0:0:0:0:
272,156,56908,5,8,0:0:0:0:
212,52,57220,2,0,B|216:40|268:28|304:28|348:48|368:68|388:100|392:148,2,240,0|0|8,0:0|0:0|0:0,0:0:0:0:
272,156,58783,2,0,B|275:198|295:230|315:250|358:270|394:270|446:258|451:246,1,240,0|4,0:0|0:0,0:0:0:0:
228,336,60033,5,0,0:0:0:0:
108,336,60345,1,8,0:0:0:0:
300,192,60970,1,4,0:0:0:0:
228,48,61595,1,0,0:0:0:0:
108,48,61907,1,8,0:0:0:0:
300,192,62533,5,4,0:0:0:0:
60,192,63158,2,0,B|120:168|120:216|188:192,1,120,0|8,0:0|0:0,0:0:0:0:
364,44,64095,6,0,B|412:76|424:144,1,120,12|8,0:0|0:0,0:0:0:0:
316,192,64720,1,8,0:0:0:0:
424,240,65033,2,0,B|412:308|364:340,1,120,8|8,0:0|0:0,0:0:0:0:
256,192,65658,12,4,67220,0:0:0:0:
164,112,67845,6,0,B|132:64|56:56,2,120,8|0|8,0:0|0:0|0:0,0:0:0:0:
72,192,68782,1,8,0:0:0:0:
56,312,69095,2,0,B|128:312|168:292|200:260|236:216|296:208|348:192|412:196,1,360
376,76,70345,1,8,0:0:0:0:
256,76,70657,2,0,B|208:80|172:104|144:128,1,120,0|4,0:0|0:0,0:0:0:0:
348,272,71595,6,0,B|380:320|456:328,2,120,8|0|8,0:0|0:0|0:0,0:0:0:0:
440,192,72532,1,8,0:0:0:0:
456,72,72845,2,0,B|384:72|344:92|312:124|276:168|216:176|164:192|100:188,1,360
136,308,74095,1,8,0:0:0:0:
256,308,74407,6,0,B|304:304|340:280|368:256,1,120,8|4,0:0|0:0,0:0:0:0:
428,160,75032,1,8,0:0:0:0:
464,44,75345,1,8,0:0:0:0:
344,44,75657,6,0,B|288:56|244:76|204:112|172:156|160:200,1,240,0|8,0:0|0:0,0:0:0:0:
284,188,76595,1,0,0:0:0:0:
404,188,76907,2,0,B|404:312,1,120,8|8,0:0|0:0,0:0:0:0:
284,328,77532,6,0,B|172:348|172:296|40:332,1,240,0|8,0:0|0:0,0:0:0:0:
48,208,78470,2,0,B|104:192|148:164|172:88,1,180,8|8,0:0|0:0,0:0:0:0:
304,208,79407,2,0,B|328:132|372:104|428:88,1,180,8|8,0:0|0:0,0:0:0:0:
416,268,80345,6,4,B|408:316|376:344|324:344,3,120,12|12|12|12,0:0|0:0|0:0|0:0,0:0:0:0:
88,80,82220,5,4,0:0:0:0:
103,80,89720,6,0,B|152:200|48:200|104:312,1,240,12|0,0:0|0:0,0:0:0:0:
220,336,90657,2,0,B|348:336,2,120,0|8|8,0:0|0:0|0:0,0:0:0:0:
296,240,91595,6,0,B|368:240|404:212|460:168|460:84,1,240,12|0,0:0|0:0,0:0:0:0:
348,52,92532,2,0,B|224:52,2,120,0|8|8,0:0|0:0|0:0,0:0:0:0:
459,96,93470,6,0,B|460:168|404:212|368:240|296:240,1,240,12|0,0:0|0:0,0:0:0:0:
216,144,94407,2,0,B|144:144|108:172|52:216|52:287,1,240,12|0,0:0|0:0,0:0:0:0:
164,332,95345,2,4,B|304:332,3,120,12|12|12|12,0:0|0:0|0:0|0:0,0:0:0:0:
60,96,97220,5,4,0:0:0:0:
60,336,97845,1,8,0:0:0:0:
60,336,98157,1,8,0:0:0:0:
304,336,98782,1,8,0:0:0:0:
380,252,99095,2,0,B|480:336,2,120,8|8|8,0:0|0:0|0:0,0:0:0:0:
380,132,100032,1,8,0:0:0:0:
292,48,100345,6,0,B|188:48|188:48|120:88,1,180,12|8,0:0|0:0,0:0:0:0:
36,244,101282,1,8,0:0:0:0:
116,332,101595,1,8,0:0:0:0:
236,332,101907,6,0,B|324:332|324:332|400:280,1,180,8|8,0:0|0:0,0:0:0:0:
256,172,102845,2,0,B|160:88,2,120,8|8|4,0:0|0:0|0:0,0:0:0:0:
464,52,104095,5,8,0:0:0:0:
464,172,104407,1,8,0:0:0:0:
292,340,105032,1,8,0:0:0:0:
172,340,105345,2,0,B|140:340|100:336|80:304|64:276,2,120,8|8|8,0:0|0:0|0:0,0:0:0:0:
172,220,106282,1,8,0:0:0:0:
72,156,106595,6,0,B|72:88|72:88|184:48,1,180,12|8,0:0|0:0,0:0:0:0:
356,44,107532,1,8,0:0:0:0:
452,116,107845,1,8,0:0:0:0:
452,236,108157,6,0,B|452:316|452:316|352:348,1,180,12|8,0:0|0:0,0:0:0:0:
176,344,109095,2,4,B|144:344|144:344|144:316|144:316|112:316|112:316|112:288|112:288|80:288|80:288|80:260|80:260|48:260|48:260|48:232,1,240
256,64,110345,5,8,0:0:0:0:
376,64,110657,2,0,B|413:143|413:143|403:161|403:161|432:147|432:147|423:165|423:165|457:238,1,240
256,320,111907,5,8,0:0:0:0:
136,320,112219,2,0,B|98:240|98:240|108:222|108:222|79:236|79:236|88:218|88:218|54:145,1,240,0|4,0:0|0:0,0:0:0:0:
292,192,113470,5,8,0:0:0:0:
356,296,113782,2,0,B|388:276|404:248|416:216|420:176|412:144|396:120|372:92|352:80,2,240,0|0|8,0:0|0:0|0:0,0:0:0:0:
292,192,115345,1,0,0:0:0:0:
76,88,115970,6,0,B|76:180|76:180|64:192|64:192|88:192|88:192|76:204|76:204|76:300,1,240
192,332,116907,2,0,B|308:308|308:360|432:332,1,240,0|4,0:0|0:0,0:0:0:0:
236,192,118157,5,8,0:0:0:0:
168,92,118470,2,0,B|292:64|292:116|408:92,1,240,0|4,0:0|0:0,0:0:0:0:
440,332,119720,5,8,0:0:0:0:
320,332,120032,2,0,B|220:332|176:296|136:240|136:192,1,240,0|12,0:0|0:0,0:0:0:0:
136,88,120970,2,12,B|264:88,3,120,12|12|12|12,0:0|0:0|0:0|0:0,0:0:0:0:
256,296,123157,5,4,0:0:0:0:
236,252,134407,6,0,B|180:252|124:236|96:184|96:132,1,180,12|8,0:0|0:0,0:0:0:0:
276,128,135345,2,0,B|332:128|388:144|416:196|416:248,1,180,12|8,0:0|0:0,0:0:0:0:
236,252,136282,2,4,B|204:272|160:280|116:280,3,120,12|12|12|12,0:0|0:0|0:0|0:0,0:0:0:0:
424,88,138157,6,0,B|424:152|464:200,2,120,4|8|8,0:0|0:0|0:0,0:0:0:0:
322,126,139095,2,0,B|292:185|318:242,1,120,0|8,0:0|0:0,0:0:0:0:
256,344,139720,1,8,0:0:0:0:
194,242,140032,6,0,B|220:185|188:124,1,120,0|8,0:0|0:0,0:0:0:0:
84,188,140657,2,0,B|64:236|60:284|84:324|116:348|148:352,2,180,8|8|8,0:0|0:0|0:0,0:0:0:0:
188,128,141907,6,0,B|160:88|124:68|80:72|64:80,2,120,4|8|8,0:0|0:0|0:0,0:0:0:0:
188,248,142845,2,0,B|216:288|252:308|296:304|312:296,1,120,0|8,0:0|0:0,0:0:0:0:
284,180,143470,1,8,0:0:0:0:
284,60,143782,6,0,B|277:57|321:53|357:73|385:113,1,120,0|8,0:0|0:0,0:0:0:0:
392,240,144407,2,0,B|376:280|420:320|420:320|368:296|332:316,2,180,8|8|8,0:0|0:0|0:0,0:0:0:0:
388,120,145657,5,4,0:0:0:0:
284,56,145970,1,8,0:0:0:0:
164,56,146282,1,8,0:0:0:0:
64,124,146595,2,0,B|64:184|40:244,2,120,0|8|8,0:0|0:0|0:0,0:0:0:0:
164,188,147532,5,0,0:0:0:0:
284,188,147845,1,8,0:0:0:0:
372,268,148157,1,8,0:0:0:0:
280,344,148470,2,0,B|212:344|144:316,2,120,0|8|8,0:0|0:0|0:0,0:0:0:0:
236,232,149407,6,0,B|160:224|104:176|92:116,1,180,12|8,0:0|0:0,0:0:0:0:
276,120,150345,2,0,B|352:128|408:176|420:236,1,180,12|8,0:0|0:0,0:0:0:0:
280,336,151282,2,4,B|400:336,3,120,12|12|12|12,0:0|0:0|0:0|0:0,0:0:0:0:
120,108,153157,5,4,0:0:0:0:
