osu file format v14

[General]
AudioFilename: Disguise.mp3
AudioLeadIn: 0
PreviewTime: 55203
Countdown: 0
SampleSet: Soft
StackLeniency: 0.7
Mode: 0
LetterboxInBreaks: 0
WidescreenStoryboard: 0

[Editor]
Bookmarks: 27828,41542,48400,55257,82685,86114,110971,137542
DistanceSpacing: 1
BeatDivisor: 2
GridSize: 4
TimelineZoom: 1.299999

[Metadata]
Title:Disguise
TitleUnicode:Disguise
Artist:Kiryu
ArtistUnicode:桐生
Creator:Seikatu
Version:Easy
Source:東方Project
Tags:le_kiriu extra stage dubstep Shadren touhou 妖怪裏参道 Youkai Back Shrine Road Ten Desires Nue Houjuu 東方神霊廟 Shinreibyou arrange Remix
BeatmapID:657520
BeatmapSetID:225957

[Difficulty]
HPDrainRate:2
CircleSize:3.2
OverallDifficulty:2.9
ApproachRate:3.5
SliderMultiplier:0.899999999999999
SliderTickRate:1

[Events]
//Background and Video events
0,0,"bg0012.jpg",0,0
//Break Periods
2,28040,40174
2,82897,84746
//Storyboard Layer 0 (Background)
//Storyboard Layer 1 (Fail)
//Storyboard Layer 2 (Pass)
//Storyboard Layer 3 (Foreground)
//Storyboard Sound Samples

[TimingPoints]
412,428.571428571429,4,2,0,45,1,0
50126,-100,4,2,0,50,0,0
54412,-100,4,2,0,45,0,0
55269,-100,4,2,0,70,0,1
68929,-100,4,2,0,70,0,0
68983,-100,4,2,0,70,0,1
75840,-100,4,2,0,70,0,0
76697,-100,4,2,0,70,0,1
81840,-100,4,2,0,70,0,0
86126,-100,4,2,0,70,0,1
96358,-100,4,2,0,70,0,0
96412,-100,4,2,0,70,0,1
103269,-100,4,2,0,70,0,0
104126,-100,4,2,0,70,0,1
110126,-100,4,2,0,70,0,0
110983,-100,4,2,0,100,0,1
111037,-100,4,2,0,70,0,0
123840,-100,4,2,0,70,0,1
123894,-100,4,2,0,70,0,0

[Colours]
Combo1 : 228,48,70
Combo2 : 34,101,224
Combo3 : 7,184,131

[HitObjects]
107,61,412,6,0,P|159:132|246:144,1,180,4|0,0:1|1:0,0:0:0:0:
399,50,2126,1,0,0:0:0:0:
451,123,2554,1,4,0:3:0:0:
392,191,2983,2,0,L|388:282,1,89.9999999999999,0|0,1:0|0:0,0:0:0:0:
322,342,3840,6,0,P|232:358|166:304,1,180,4|0,0:3|1:0,0:0:0:0:
205,224,5126,1,0,0:0:0:0:
125,182,5554,2,0,L|120:91,1,89.9999999999999,0|4,0:0|0:3,0:0:0:0:
173,19,6412,1,0,1:0:0:0:
345,69,7269,22,0,B|335:142|335:142|357:175|357:175|347:247,1,180,4|0,0:3|1:0,0:0:0:0:
183,313,8983,1,0,0:0:0:0:
102,352,9412,1,4,0:3:0:0:
32,295,9840,2,0,P|27:255|38:206,1,89.9999999999999,0|0,1:0|0:0,0:0:0:0:
92,135,10697,6,0,B|143:120|143:120|190:169|265:135,1,180,4|0,0:3|1:0,0:0:0:0:
213,60,11983,1,0,0:0:0:0:
296,26,12412,2,0,L|388:21,2,89.9999999999999,0|4|0,0:0|0:3|1:0,0:0:0:0:
213,60,13697,1,4,0:3:0:0:
147,121,14126,22,0,P|129:176|199:277,1,180,4|0,0:1|1:0,0:0:0:0:
363,318,15840,1,0,0:0:0:0:
424,252,16269,1,4,0:3:0:0:
351,199,16697,2,0,P|334:164|334:112,1,89.9999999999999,0|0,1:0|0:0,0:0:0:0:
390,44,17554,6,0,P|312:26|244:109,1,180,4|0,0:3|1:0,0:0:0:0:
211,174,18840,1,0,0:0:0:0:
139,228,19269,2,0,L|41:224,1,89.9999999999999,0|4,0:0|0:3,0:0:0:0:
21,310,20126,2,0,L|110:313,1,89.9999999999999,0|0,1:0|0:0,0:0:0:0:
199,296,20983,22,0,P|273:331|353:281,1,180,4|0,0:3|1:0,0:0:0:0:
374,105,22697,1,0,0:0:0:0:
297,58,23126,2,0,P|253:46|207:45,1,89.9999999999999,4|0,0:3|1:0,0:0:0:0:
124,76,23983,1,0,0:0:0:0:
179,147,24412,6,0,B|215:188|200:231|200:231|228:270|209:316,1,180,4|0,0:3|1:0,0:0:0:0:
125,284,25697,1,0,0:0:0:0:
55,226,26126,2,0,P|45:182|48:131,2,89.9999999999999,0|4|0,0:0|0:3|1:0,0:0:0:0:
212,312,27840,5,4,0:1:0:0:
405,210,41554,22,0,B|328:258|328:258|241:234,1,180,4|0,0:1|1:0,0:0:0:0:
157,205,42840,1,0,0:0:0:0:
75,243,43269,2,0,P|79:157|158:115,1,180,4|0,0:3|1:0,0:0:0:0:
242,271,44983,22,0,B|330:291|330:291|415:247,1,180,4|0,0:3|1:0,0:0:0:0:
355,178,46269,1,0,0:0:0:0:
420,116,46697,2,0,P|435:73|426:24,1,89.9999999999999,4|4,0:3|0:3,0:0:0:0:
346,66,47554,1,0,1:0:0:0:
196,166,48412,6,0,B|150:169|150:169|107:151,1,89.9999999999999,0|0,1:0|1:0,0:0:0:0:
121,62,49269,2,0,B|167:59|167:59|210:77,1,89.9999999999999,0|0,1:0|1:0,0:0:0:0:
295,96,50126,2,0,L|385:89,1,89.9999999999999,0|0,1:0|1:0,0:0:0:0:
428,168,50983,2,0,L|338:175,1,89.9999999999999,0|0,1:0|1:0,0:0:0:0:
268,232,51840,22,0,P|254:272|264:321,2,89.9999999999999,0|0|0,1:0|1:0|1:0,0:0:0:0:
344,280,53126,1,0,1:0:0:0:
392,355,53554,2,0,L|483:336,1,89.9999999999999,0|0,1:0|0:0,0:0:0:0:
480,246,54412,1,4,0:3:0:0:
381,96,55269,6,0,P|297:74|226:125,1,180,4|0,0:1|1:0,0:0:0:0:
268,204,56554,1,0,0:0:0:0:
198,261,56983,2,0,P|205:308|192:349,1,89.9999999999999,4|0,0:3|0:0,0:0:0:0:
102,343,57840,2,0,P|95:296|108:255,1,89.9999999999999,0|2,1:0|0:0,0:0:0:0:
162,184,58697,22,0,P|183:102|142:21,2,180,4|0|4,0:3|1:0|0:3,0:0:0:0:
107,256,60840,1,4,0:3:0:0:
177,313,61269,2,0,L|271:309,1,89.9999999999999,0|0,1:0|0:0,0:0:0:0:
352,280,62126,6,0,B|337:232|289:224|289:224|325:190|319:141,1,180,4|2,1:3|1:3,0:0:0:0:
230,155,63412,1,0,0:0:0:0:
154,107,63840,2,0,L|63:102,1,89.9999999999999,4|0,0:3|0:0,0:0:0:0:
30,185,64697,2,0,L|119:189,1,89.9999999999999,0|0,1:0|0:0,0:0:0:0:
198,235,65554,22,0,B|285:209|285:209|372:232,1,180,4|0,0:3|1:0,0:0:0:0:
457,258,66840,1,0,0:0:0:0:
504,181,67269,2,0,L|497:92,1,89.9999999999999,4|4,0:3|0:3,0:0:0:0:
422,41,68126,1,0,1:0:0:0:
333,31,68554,1,4,0:3:0:0:
268,93,68983,6,0,B|223:115|180:98|180:98|177:48|133:27,1,180,4|0,0:1|1:0,0:0:0:0:
88,105,70269,1,0,0:0:0:0:
19,163,70697,2,0,L|29:252,1,89.9999999999999,4|0,0:3|0:0,0:0:0:0:
118,265,71554,2,0,P|112:309|133:352,1,89.9999999999999,0|2,1:0|0:0,0:0:0:0:
201,292,72412,22,0,B|275:282|275:282|308:291|308:291|380:283,1,180,4|0,0:3|1:0,0:0:0:0:
436,214,73697,1,0,0:0:0:0:
362,163,74126,2,0,P|342:124|344:78,1,89.9999999999999,4|4,0:3|0:3,0:0:0:0:
400,9,74983,1,0,1:0:0:0:
244,99,75840,6,0,B|185:117|185:117|69:93,1,180,4|4,1:3|1:0,0:0:0:0:
182,233,77554,2,0,B|236:216|236:216|302:256|355:234,1,180,4|0,0:3|1:0,0:0:0:0:
429,186,78840,1,0,0:0:0:0:
392,104,79269,22,0,P|345:79|212:92,1,180,4|0,0:3|1:0,0:0:0:0:
136,61,80554,1,0,0:0:0:0:
71,124,80983,2,0,P|62:165|72:215,1,89.9999999999999,4|4,0:3|0:3,0:0:0:0:
136,274,81840,1,0,1:0:0:0:
225,262,82269,1,0,1:0:0:0:
314,250,82697,21,4,0:1:0:0:
361,138,86126,22,0,B|360:229|360:229|292:302,1,180,4|0,0:1|1:0,0:0:0:0:
230,351,87412,1,0,0:0:0:0:
171,283,87840,2,0,P|124:292|82:280,1,89.9999999999999,4|4,0:3|0:3,0:0:0:0:
90,191,88697,2,0,P|137:182|179:194,1,89.9999999999999,0|2,1:0|0:0,0:0:0:0:
253,241,89554,22,0,B|294:266|338:242|338:242|382:261|425:234,2,180,4|2|4,0:3|1:3|0:3,0:0:0:0:
177,193,91697,1,0,0:0:0:0:
243,132,92126,2,0,P|256:88|247:44,1,89.9999999999999,0|0,1:0|0:0,0:0:0:0:
166,84,92983,6,0,L|77:82,1,89.9999999999999,4|0,0:3|0:0,0:0:0:0:
9,142,93840,1,0,1:0:0:0:
71,207,94269,1,0,0:0:0:0:
17,279,94697,2,0,P|7:326|26:369,1,89.9999999999999,4|4,0:3|0:3,0:0:0:0:
98,315,95554,2,0,L|188:307,1,89.9999999999999,0|0,1:0|0:0,0:0:0:0:
273,337,96412,22,0,P|354:371|428:326,1,180,4|0,0:1|1:0,0:0:0:0:
466,246,97697,1,0,0:0:0:0:
402,182,98126,2,0,P|415:137|404:92,1,89.9999999999999,4|0,0:3|0:0,0:0:0:0:
316,93,98983,2,0,P|303:138|314:183,1,89.9999999999999,0|2,1:0|0:0,0:0:0:0:
352,260,99840,6,0,B|310:279|310:279|169:263,1,180,4|0,0:3|1:0,0:0:0:0:
88,251,101126,1,0,0:0:0:0:
52,169,101554,2,0,P|45:125|60:81,1,89.9999999999999,4|4,0:3|0:3,0:0:0:0:
141,44,102412,2,0,P|148:88|133:132,1,89.9999999999999,0|0,1:0|0:0,0:0:0:0:
130,220,103269,22,0,P|127:306|196:361,1,180,4|4,1:3|1:0,0:0:0:0:
312,225,104983,2,0,B|406:249|406:249|493:220,1,180,4|0,0:3|1:0,0:0:0:0:
504,135,106269,1,0,0:0:0:0:
414,142,106697,6,0,L|232:96,1,180,4|0,0:3|1:0,0:0:0:0:
150,110,107983,1,0,0:0:0:0:
91,178,108412,2,0,P|78:223|83:268,1,89.9999999999999,4|4,0:3|0:3,0:0:0:0:
172,277,109269,2,0,P|185:232|180:187,1,89.9999999999999,0|0,1:0|1:0,0:0:0:0:
418,317,110983,22,0,L|432:138,2,180,4|4|0,0:1|0:3|1:0,0:0:0:0:
240,344,113554,6,0,L|232:156,1,180,4|0,0:3|1:0,0:0:0:0:
233,74,114840,1,0,0:0:0:0:
313,33,115269,2,0,P|357:27|400:42,1,89.9999999999999,4|4,0:3|0:3,0:0:0:0:
395,132,116126,2,0,P|351:138|308:123,1,89.9999999999999,0|4,1:0|0:3,0:0:0:0:
233,74,116983,22,0,P|150:40|66:68,2,180,4|2|4,0:3|1:3|0:3,0:0:0:0:
278,152,119126,1,0,0:0:0:0:
354,200,119554,2,0,L|346:289,1,89.9999999999999,0|0,1:0|0:0,0:0:0:0:
270,338,120412,6,0,B|223:353|183:332|183:332|138:350|96:326,1,180,4|0,0:3|1:0,0:0:0:0:
146,251,121697,1,0,0:0:0:0:
98,175,122126,2,0,P|88:132|102:89,1,89.9999999999999,4|4,0:3|0:3,0:0:0:0:
178,137,122983,2,0,L|269:142,1,89.9999999999999,0|4,1:0|0:3,0:0:0:0:
321,69,123840,22,0,P|358:147|312:223,1,180,4|0,0:1|1:0,0:0:0:0:
258,292,125126,1,0,0:0:0:0:
194,229,125554,2,0,L|103:226,1,89.9999999999999,4|0,0:3|0:0,0:0:0:0:
14,221,126412,1,0,1:0:0:0:
146,99,127269,6,0,L|332:107,1,180,4|0,0:3|1:0,0:0:0:0:
400,158,128554,1,0,0:0:0:0:
442,238,128983,2,0,P|447:283|430:329,1,89.9999999999999,4|4,0:3|0:3,0:0:0:0:
359,376,129840,1,0,1:0:0:0:
300,308,130269,1,4,0:3:0:0:
225,358,130697,22,0,P|140:361|86:290,2,180,4|2|4,0:3|1:3|0:3,0:0:0:0:
300,308,132840,1,0,0:0:0:0:
351,234,133269,2,0,L|355:144,1,89.9999999999999,0|0,1:0|0:0,0:0:0:0:
256,192,134126,12,4,137554,1:0:0:0:
