osu file format v14

[General]
AudioFilename: Disguise.mp3
AudioLeadIn: 0
PreviewTime: 55203
Countdown: 0
SampleSet: Soft
StackLeniency: 0.7
Mode: 0
LetterboxInBreaks: 0
WidescreenStoryboard: 0

[Editor]
Bookmarks: 14114,27828,41542,48400,55257,68971,82685,86114,96400,110971,123828,137542
DistanceSpacing: 1.2
BeatDivisor: 8
GridSize: 4
TimelineZoom: 1.399999

[Metadata]
Title:Disguise
TitleUnicode:Disguise
Artist:Kiryu
ArtistUnicode:桐生
Creator:Seikatu
Version:Advanced
Source:東方Project
Tags:le_kiriu extra stage dubstep Shadren touhou 妖怪裏参道 Youkai Back Shrine Road Ten Desires Nue Houjuu 東方神霊廟 Shinreibyou arrange Remix
BeatmapID:730611
BeatmapSetID:225957

[Difficulty]
HPDrainRate:5
CircleSize:3.8
OverallDifficulty:5.8
ApproachRate:6.8
SliderMultiplier:1.45
SliderTickRate:1

[Events]
//Background and Video events
0,0,"bg0012.jpg",0,0
//Break Periods
2,28040,40411
//Storyboard Layer 0 (Background)
//Storyboard Layer 1 (Fail)
//Storyboard Layer 2 (Pass)
//Storyboard Layer 3 (Foreground)
//Storyboard Sound Samples

[TimingPoints]
412,428.571428571429,4,2,0,45,1,0
50126,-100,4,2,0,50,0,0
54412,-100,4,2,0,45,0,0
55269,-100,4,2,0,70,0,1
68929,-100,4,2,0,70,0,0
68983,-100,4,2,0,70,0,1
75840,-100,4,2,0,70,0,0
76697,-100,4,2,0,70,0,1
81840,-100,4,2,0,70,0,0
86126,-100,4,2,0,70,0,1
96358,-100,4,2,0,70,0,0
96412,-100,4,2,0,70,0,1
103269,-100,4,2,0,70,0,0
104126,-100,4,2,0,70,0,1
110126,-100,4,2,0,70,0,0
110983,-100,4,2,0,100,0,1
111037,-100,4,2,0,70,0,0
123840,-100,4,2,0,70,0,1
123894,-100,4,2,0,70,0,0

[Colours]
Combo1 : 228,48,70
Combo2 : 34,101,224
Combo3 : 7,184,131

[HitObjects]
61,79,412,5,4,0:1:0:0:
234,75,840,2,0,P|233:112|220:145,1,72.5,0|0,0:0|0:0,0:0:0:0:
151,198,1269,2,0,L|296:186,1,145,0|0,1:0|0:0,0:0:0:0:
380,204,1912,1,0,0:0:0:0:
363,289,2126,6,0,P|376:322|410:347,1,72.5,0|0,0:0|0:0,0:0:0:0:
449,270,2554,1,4,0:3:0:0:
368,115,2983,1,0,1:0:0:0:
284,138,3197,2,0,B|212:154|212:154|139:132,1,145,0|0,0:0|0:0,0:0:0:0:
61,104,3840,21,4,0:3:0:0:
149,253,4269,2,0,L|134:323,1,72.5,0|0,0:0|0:0,0:0:0:0:
218,304,4697,2,0,B|290:288|290:288|363:310,1,145,0|0,1:0|0:0,0:0:0:0:
440,336,5340,1,0,0:0:0:0:
433,249,5554,6,0,L|363:227,1,72.5,0|0,0:0|0:0,0:0:0:0:
279,205,5983,1,4,0:3:0:0:
412,93,6412,1,0,1:0:0:0:
474,32,6626,2,0,P|498:104|466:161,1,145,4|0,0:3|0:0,0:0:0:0:
379,170,7269,21,4,0:3:0:0:
215,110,7697,2,0,L|143:103,1,72.5,0|0,0:0|0:0,0:0:0:0:
94,30,8126,2,0,L|106:184,1,145,0|0,1:0|0:0,0:0:0:0:
184,210,8769,1,0,0:0:0:0:
111,257,8983,6,0,L|117:329,1,72.5,0|0,0:0|0:0,0:0:0:0:
199,358,9412,1,4,0:3:0:0:
284,206,9840,1,0,1:0:0:0:
323,128,10054,2,0,B|390:154|390:154|461:138,1,145,0|0,0:0|0:0,0:0:0:0:
495,218,10697,21,4,0:3:0:0:
398,73,11126,2,0,L|407:1,1,72.5,0|0,0:0|0:0,0:0:0:0:
325,32,11554,2,0,P|253:31|192:83,1,145,0|0,1:0|0:0,0:0:0:0:
119,33,12197,1,0,0:0:0:0:
125,120,12412,6,0,P|85:117|57:96,1,72.5,0|0,0:0|0:0,0:0:0:0:
39,183,12840,2,0,B|42:240|42:240|29:271|29:271|34:328,1,145,4|0,0:3|1:0,0:0:0:0:
119,307,13483,2,0,P|151:315|182:341,1,72.5,4|4,0:3|0:3,0:0:0:0:
242,277,13912,1,4,0:3:0:0:
242,277,14019,1,8,0:3:0:0:
242,277,14126,22,0,B|283:305|332:282|332:282|322:311|337:341,1,145,4|0,0:1|0:0,0:0:0:0:
415,303,14769,1,0,0:0:0:0:
479,245,14983,2,0,P|493:209|488:174,1,72.5,0|0,1:0|0:0,0:0:0:0:
404,199,15412,1,0,0:0:0:0:
463,35,15840,5,0,0:0:0:0:
383,69,16054,2,0,L|310:67,1,72.5,0|4,0:0|0:3,0:0:0:0:
231,104,16483,1,0,0:0:0:0:
172,39,16697,1,0,1:0:0:0:
107,97,16912,2,0,P|85:168|110:233,1,145,0|0,0:0|0:0,0:0:0:0:
48,293,17554,22,0,P|94:266|180:288,1,145,4|0,0:3|0:0,0:0:0:0:
243,345,18197,1,0,0:0:0:0:
308,286,18412,2,0,L|302:214,1,72.5,0|0,1:0|0:0,0:0:0:0:
292,127,18840,1,0,0:0:0:0:
461,85,19269,6,0,B|433:152|433:152|440:230,1,145,0|4,0:0|0:3,0:0:0:0:
354,202,19912,1,0,0:0:0:0:
365,115,20126,2,0,L|394:47,1,72.5,0|4,1:0|0:3,0:0:0:0:
229,106,20769,1,0,0:0:0:0:
229,106,20876,1,8,0:3:0:0:
229,106,20983,22,0,B|180:126|180:126|87:107,1,145,4|0,0:3|0:0,0:0:0:0:
33,174,21626,1,0,0:0:0:0:
113,207,21840,2,0,L|100:280,1,72.5,0|0,1:0|0:0,0:0:0:0:
81,363,22269,1,0,0:0:0:0:
197,233,22697,6,0,L|342:220,1,145,0|4,0:0|0:3,0:0:0:0:
401,283,23340,1,0,0:0:0:0:
424,199,23554,2,0,B|386:137|386:137|399:66,1,145,0|0,1:0|0:0,0:0:0:0:
269,80,24304,1,0,0:0:0:0:
269,80,24412,22,0,P|195:96|132:68,1,145,4|0,0:3|0:0,0:0:0:0:
59,113,25054,1,0,0:0:0:0:
109,184,25269,2,0,L|102:260,1,72.5,0|0,1:0|0:0,0:0:0:0:
93,342,25697,1,0,0:0:0:0:
256,281,26126,6,0,B|322:312|322:312|393:296,2,145,0|4|0,0:0|0:3|1:0,0:0:0:0:
182,234,27197,1,4,0:3:0:0:
261,198,27412,1,4,0:3:0:0:
261,198,27519,1,0,0:0:0:0:
261,198,27626,2,0,P|266:161|260:125,1,72.5,8|4,0:3|0:1,0:0:0:0:
87,180,41340,37,4,0:3:0:0:
87,180,41447,1,8,0:3:0:0:
87,180,41554,2,0,B|154:197|154:197|224:169,1,145,4|0,0:1|0:0,0:0:0:0:
304,135,42197,1,0,0:0:0:0:
380,177,42412,2,0,P|395:217|390:254,1,72.5,0|0,1:0|0:0,0:0:0:0:
321,295,42840,2,0,P|306:255|311:218,1,72.5,0|0,0:0|0:0,0:0:0:0:
304,135,43269,22,0,L|449:123,2,145,4|0|0,0:3|0:0|1:0,0:0:0:0:
217,143,44340,1,0,0:0:0:0:
69,234,44769,1,4,0:3:0:0:
69,234,44876,1,8,0:3:0:0:
69,234,44983,6,0,P|133:260|161:328,1,145,4|0,0:3|0:0,0:0:0:0:
238,366,45626,1,0,0:0:0:0:
292,298,45840,2,0,L|364:288,1,72.5,0|0,1:0|0:0,0:0:0:0:
383,203,46269,2,0,L|311:213,1,72.5,0|0,0:0|0:0,0:0:0:0:
229,183,46697,22,0,P|208:134|223:75,1,108.75,4|0,0:3|0:0,0:0:0:0:
219,81,47126,2,0,B|271:91|271:91|325:73,1,108.75,4|0,0:3|0:0,0:0:0:0:
324,73,47554,2,0,L|398:83,1,72.5,0|4,1:0|0:3,0:0:0:0:
481,64,47983,2,0,L|489:102,3,36.25,0|0|4|8,0:0|0:0|0:3|0:3,0:0:0:0:
490,143,48412,6,0,B|460:210|460:210|472:290,1,145,0|0,1:0|1:0,0:0:0:0:
384,291,49054,1,0,1:0:0:0:
384,291,49162,1,0,1:0:0:0:
384,291,49269,2,0,P|358:224|295:194,1,145,0|0,1:0|1:0,0:0:0:0:
218,235,49912,1,0,0:0:0:0:
286,288,50126,22,0,L|141:281,1,145,0|0,1:0|1:0,0:0:0:0:
72,120,50983,1,0,1:0:0:0:
72,120,51412,1,0,1:0:0:0:
242,86,51840,6,0,L|243:13,1,72.5,0|0,1:0|1:0,0:0:0:0:
328,35,52269,2,0,L|326:107,1,72.5,0|0,1:0|1:0,0:0:0:0:
390,166,52697,2,0,P|410:195|417:235,1,72.5,0|0,1:0|1:0,0:0:0:0:
357,294,53126,2,0,P|337:265|330:225,1,72.5,0|0,1:0|1:0,0:0:0:0:
265,170,53554,22,0,L|226:165,3,36.25,0|0|0|0,1:0|1:0|0:0|1:0,0:0:0:0:
185,158,53983,2,0,L|148:167,3,36.25,0|0|0|2,0:0|1:0|0:0|0:3,0:0:0:0:
106,173,54412,2,0,L|69:168,1,36.25,4|0,0:3|0:0,0:0:0:0:
321,339,55269,6,0,B|365:349|365:349|466:328,1,145,4|0,0:1|0:0,0:0:0:0:
490,245,55912,1,0,0:0:0:0:
415,200,56126,2,0,L|420:128,1,72.5,0|0,1:0|0:0,0:0:0:0:
347,79,56554,2,0,L|342:44,2,36.25,0|0|0,0:0|0:0|0:0,0:0:0:0:
296,149,56983,22,0,P|274:177|240:191,1,72.5,4|0,0:3|0:0,0:0:0:0:
222,105,57412,2,0,L|230:29,1,72.5,0|0,0:0|0:0,0:0:0:0:
145,54,57840,2,0,P|120:29|81:20,1,72.5,0|0,1:0|0:0,0:0:0:0:
32,89,58269,2,0,L|38:162,1,72.5,2|0,0:0|0:0,0:0:0:0:
125,165,58697,6,0,B|106:205|106:205|120:304,1,145,4|0,0:3|0:0,0:0:0:0:
202,334,59340,1,0,0:0:0:0:
265,274,59554,2,0,P|300:272|337:278,1,72.5,0|0,1:0|0:0,0:0:0:0:
405,223,59983,1,0,0:0:0:0:
405,223,60197,1,0,0:0:0:0:
343,160,60412,22,0,B|348:121|348:121|340:91|340:91|361:67|354:14,2,145,4|4|0,0:3|0:3|1:0,0:0:0:0:
261,130,61483,1,4,0:3:0:0:
201,67,61697,2,0,L|205:29,2,36.25,0|2|0,0:0|0:3|1:0,0:0:0:0:
131,120,62126,6,0,P|145:172|133:227,1,108.75,4|0,1:3|0:0,0:0:0:0:
133,224,62554,2,0,L|62:220,1,72.5,0|0,0:0|0:0,0:0:0:0:
91,301,62983,2,0,L|237:310,1,145,2|0,1:3|0:0,0:0:0:0:
308,262,63626,1,2,0:3:0:0:
308,262,63733,1,0,0:0:0:0:
308,262,63840,22,0,P|336:284|374:288,1,72.5,4|0,0:3|0:0,0:0:0:0:
434,227,64269,2,0,P|406:205|368:201,1,72.5,0|0,0:0|0:0,0:0:0:0:
285,182,64697,2,0,B|291:142|321:125|321:125|290:105|289:58,1,145,0|0,1:0|0:0,0:0:0:0:
376,55,65340,1,0,0:0:0:0:
436,118,65554,6,0,L|433:228,1,108.75,4|0,0:3|0:0,0:0:0:0:
433,226,65983,2,0,P|402:249|368:255,1,72.5,0|0,0:0|0:0,0:0:0:0:
283,237,66412,2,0,P|234:222|179:231,1,108.75,0|0,1:0|0:0,0:0:0:0:
178,231,66840,2,0,L|183:306,1,72.5,0|0,0:0|0:0,0:0:0:0:
98,280,67269,22,0,B|92:205|92:205|48:150,2,145,4|4|0,0:3|0:3|1:0,0:0:0:0:
161,118,68554,1,4,0:3:0:0:
238,158,68769,1,4,0:3:0:0:
238,158,68876,1,8,0:3:0:0:
238,158,68983,6,0,L|345:142,1,108.75,4|0,0:1|0:0,0:0:0:0:
345,141,69412,2,0,P|357:179|356:215,1,72.5,0|0,0:0|0:0,0:0:0:0:
327,294,69840,2,0,L|254:289,1,72.5,0|0,1:0|0:0,0:0:0:0:
173,321,70269,2,0,L|171:358,2,36.25,0|0|0,0:0|0:0|0:0,0:0:0:0:
98,275,70697,22,0,P|82:242|79:206,1,72.5,4|0,0:3|0:0,0:0:0:0:
119,129,71126,1,0,0:0:0:0:
119,129,71340,1,0,0:0:0:0:
196,168,71554,2,0,B|231:176|231:176|268:166,1,72.5,0|0,1:0|0:0,0:0:0:0:
313,93,71983,2,0,L|320:21,1,72.5,2|0,0:0|0:0,0:0:0:0:
394,68,72412,6,0,L|381:214,1,145,4|0,0:3|0:0,0:0:0:0:
299,243,73054,1,0,0:0:0:0:
368,296,73269,2,0,P|404:237|475:226,1,145,0|0,1:0|0:0,0:0:0:0:
453,310,73912,1,0,0:0:0:0:
397,376,74126,22,0,L|251:363,2,145,4|4|0,0:3|0:3|1:0,0:0:0:0:
453,310,75197,1,4,0:3:0:0:
460,223,75412,2,0,L|486:195,2,36.25,0|2|0,0:0|0:3|1:0,0:0:0:0:
376,198,75840,6,0,P|325:214|273:202,1,108.75,4|0,1:3|0:0,0:0:0:0:
272,201,76269,2,0,L|280:125,1,72.5,0|0,0:0|0:0,0:0:0:0:
206,81,76697,2,0,L|191:228,1,145,4|0,1:0|0:0,0:0:0:0:
113,264,77340,1,0,0:0:0:0:
186,309,77554,22,0,P|242:297|271:255,2,108.75,4|4|0,0:3|0:3|0:0,0:0:0:0:
113,264,78412,2,0,L|103:153,1,108.75,0|0,1:0|0:0,0:0:0:0:
103,155,78840,2,0,L|179:149,1,72.5,0|0,0:0|0:0,0:0:0:0:
250,194,79269,6,0,L|400:182,1,145,4|0,0:3|0:0,0:0:0:0:
473,219,79912,1,0,0:0:0:0:
412,281,80126,2,0,B|337:288|337:288|292:342,1,145,0|0,1:0|0:0,0:0:0:0:
232,277,80769,1,4,0:3:0:0:
179,346,80983,22,0,B|136:355|136:355|107:339|107:339|74:352|35:340,2,145,4|4|0,0:3|0:3|1:0,0:0:0:0:
232,277,82054,1,0,1:0:0:0:
222,190,82269,1,0,1:0:0:0:
212,103,82483,1,0,1:0:0:0:
203,16,82697,5,4,0:1:0:0:
256,192,82804,12,4,85269,0:3:0:0:
172,73,86126,22,0,B|185:146|185:146|156:213,1,145,4|0,0:1|0:0,0:0:0:0:
206,282,86769,1,0,0:0:0:0:
276,231,86983,2,0,P|338:228|407:276,1,145,0|0,1:0|0:0,0:0:0:0:
488,247,87626,1,0,0:0:0:0:
439,175,87840,6,0,B|430:140|430:140|445:113|445:113|425:81|434:38,2,145,4|4|0,0:3|0:3|1:0,0:0:0:0:
488,247,88912,1,0,0:0:0:0:
414,292,89126,2,0,L|421:331,2,36.25,2|0|0,0:0|0:0|0:0,0:0:0:0:
340,245,89554,22,0,B|297:232|297:232|197:249,1,145,4|0,0:3|0:0,0:0:0:0:
136,310,90197,1,0,0:0:0:0:
71,251,90412,2,0,P|53:205|60:147,1,108.75,2|2,1:3|0:3,0:0:0:0:
59,147,90840,2,0,L|132:137,1,72.5,0|0,0:0|0:0,0:0:0:0:
216,155,91269,6,0,P|286:130|350:152,1,145,4|0,0:3|0:0,0:0:0:0:
413,92,91912,1,0,0:0:0:0:
458,165,92126,2,0,B|470:217|470:217|450:275,1,108.75,0|0,1:0|0:0,0:0:0:0:
451,269,92554,2,0,L|377:264,1,72.5,0|0,0:0|0:0,0:0:0:0:
304,310,92983,22,0,B|257:308|257:308|223:347|169:341,1,145,4|0,0:3|0:0,0:0:0:0:
184,255,93626,1,0,0:0:0:0:
102,286,93840,2,0,P|99:233|126:185,1,108.75,0|0,1:0|0:0,0:0:0:0:
125,185,94269,2,0,L|117:112,1,72.5,0|0,0:0|0:0,0:0:0:0:
190,66,94697,6,0,L|204:182,1,108.75,4|0,0:3|0:0,0:0:0:0:
203,173,95126,2,0,P|238:172|276:162,1,72.5,4|0,0:3|0:0,0:0:0:0:
351,123,95554,1,0,1:0:0:0:
481,237,95983,1,0,0:0:0:0:
433,309,96197,1,4,0:3:0:0:
433,309,96304,1,8,0:3:0:0:
433,309,96412,22,0,B|362:292|362:292|291:311,1,145,4|0,0:1|0:0,0:0:0:0:
218,356,97054,1,0,0:0:0:0:
147,304,97269,2,0,P|142:268|149:233,1,72.5,0|0,1:0|0:0,0:0:0:0:
214,175,97697,2,0,L|251:178,2,36.25,0|0|0,0:0|0:0|0:0,0:0:0:0:
195,89,98126,6,0,L|269:84,1,72.5,4|0,0:3|0:0,0:0:0:0:
344,44,98554,2,0,P|356:78|350:115,1,72.5,0|0,0:0|0:0,0:0:0:0:
400,185,98983,1,0,1:0:0:0:
486,177,99197,1,0,0:0:0:0:
496,263,99412,1,2,0:0:0:0:
410,271,99626,1,0,0:0:0:0:
346,330,99840,22,0,L|236:322,1,108.75,4|0,0:3|0:0,0:0:0:0:
237,322,100269,2,0,P|247:288|238:245,1,72.5,0|0,0:0|0:0,0:0:0:0:
160,284,100697,2,0,L|52:278,1,108.75,0|0,1:0|0:0,0:0:0:0:
51,277,101126,2,0,P|41:239|43:204,1,72.5,0|0,0:0|0:0,0:0:0:0:
113,156,101554,6,0,B|124:124|124:124|114:101|114:101|142:63|119:14,2,145,4|4|0,0:3|0:3|1:0,0:0:0:0:
179,212,102626,1,4,0:3:0:0:
263,230,102840,2,0,L|266:270,2,36.25,0|2|0,0:0|0:3|1:0,0:0:0:0:
317,161,103269,22,0,B|371:153|371:153|409:166|409:166|460:157,1,145,4|0,1:3|0:0,0:0:0:0:
420,78,103912,1,0,0:0:0:0:
346,31,104126,2,0,L|200:26,1,145,4|0,1:0|0:0,0:0:0:0:
166,106,104769,1,0,0:0:0:0:
81,126,104983,6,0,B|92:167|92:167|77:235,2,108.75,4|4|0,0:3|0:3|0:0,0:0:0:0:
166,106,105840,2,0,L|276:109,1,108.75,0|0,1:0|0:0,0:0:0:0:
274,108,106269,2,0,P|283:146|280:185,1,72.5,0|0,0:0|0:0,0:0:0:0:
211,232,106697,22,0,L|358:217,1,145,4|0,0:3|0:0,0:0:0:0:
428,264,107340,1,0,0:0:0:0:
397,345,107554,2,0,L|289:329,1,108.75,0|0,1:0|0:0,0:0:0:0:
289,329,107983,2,0,L|215:337,1,72.5,0|0,0:0|0:0,0:0:0:0:
144,287,108412,6,0,B|111:253|127:201|127:201|101:195|81:169,2,145,4|4|0,0:3|0:3|1:0,0:0:0:0:
211,232,109483,1,0,1:0:0:0:
225,146,109697,1,0,1:0:0:0:
239,59,109912,1,0,1:0:0:0:
239,59,110983,22,0,B|242:112|242:112|264:149|264:149|269:201,1,145,4|0,0:1|0:0,0:0:0:0:
207,259,111626,1,0,0:0:0:0:
289,286,111840,2,0,P|325:274|348:246,1,72.5,4|0,0:3|0:0,0:0:0:0:
422,292,112269,1,0,0:0:0:0:
422,292,112483,1,0,0:0:0:0:
468,218,112697,2,0,P|480:185|477:149,1,72.5,0|0,1:0|0:0,0:0:0:0:
425,77,113126,2,0,L|353:73,1,72.5,2|0,0:0|0:0,0:0:0:0:
321,154,113554,6,0,L|247:159,1,72.5,4|0,0:3|0:0,0:0:0:0:
179,106,113983,2,0,P|145:99|105:107,1,72.5,0|0,0:0|0:0,0:0:0:0:
143,185,114412,1,0,1:0:0:0:
210,239,114626,1,0,0:0:0:0:
192,324,114840,1,0,0:0:0:0:
125,270,115054,1,0,0:0:0:0:
58,216,115269,22,0,B|45:158|79:125|79:125|65:104|60:83,2,145,4|4|0,0:3|0:3|1:0,0:0:0:0:
125,270,116340,1,4,0:3:0:0:
209,292,116554,2,0,P|202:309|192:323,2,36.25,4|0|0,0:3|0:0|0:0,0:0:0:0:
272,232,116983,6,0,B|309:218|309:218|413:236,1,145,4|0,0:3|0:0,0:0:0:0:
480,181,117626,1,0,0:0:0:0:
410,129,117840,2,0,P|419:94|389:26,1,108.75,2|2,1:3|0:3,0:0:0:0:
392,29,118269,2,0,L|320:25,1,72.5,0|0,0:0|0:0,0:0:0:0:
249,76,118697,22,0,L|103:84,1,145,4|0,0:3|0:0,0:0:0:0:
58,158,119340,1,0,0:0:0:0:
137,193,119554,2,0,L|146:302,1,108.75,0|0,1:0|0:0,0:0:0:0:
145,301,119983,2,0,P|182:312|217:310,1,72.5,0|0,0:0|0:0,0:0:0:0:
300,286,120412,6,0,P|376:280|437:311,1,145,4|0,0:3|0:0,0:0:0:0:
510,265,121054,1,0,0:0:0:0:
467,188,121269,2,0,L|471:115,1,72.5,0|0,1:0|0:0,0:0:0:0:
405,58,121697,1,0,0:0:0:0:
405,58,121912,1,0,0:0:0:0:
321,83,122126,22,0,B|247:97|247:97|170:77,2,145,4|4|0,0:3|0:3|1:0,0:0:0:0:
333,256,123412,1,4,0:3:0:0:
262,306,123626,1,4,0:3:0:0:
262,306,123733,1,8,0:3:0:0:
262,306,123840,6,0,B|212:294|212:294|118:306,1,145,4|0,0:1|0:0,0:0:0:0:
44,261,124483,1,0,0:0:0:0:
112,207,124697,2,0,L|107:133,1,72.5,0|0,1:0|0:0,0:0:0:0:
166,71,125126,2,0,L|167:34,2,36.25,0|0|0,0:0|0:0|0:0,0:0:0:0:
237,119,125554,22,0,P|283:129|374:98,1,145,4|0,0:3|0:0,0:0:0:0:
455,126,126197,1,0,0:0:0:0:
393,188,126412,2,0,L|389:263,1,72.5,0|0,1:0|0:0,0:0:0:0:
399,346,126840,2,0,P|364:346|333:328,1,72.5,2|0,0:0|0:0,0:0:0:0:
259,282,127269,6,0,L|250:357,1,72.5,4|0,0:3|0:0,0:0:0:0:
168,324,127697,2,0,L|176:252,1,72.5,0|0,0:0|0:0,0:0:0:0:
125,181,128126,1,0,1:0:0:0:
112,95,128340,1,0,0:0:0:0:
198,83,128554,1,0,0:0:0:0:
211,169,128768,1,0,0:0:0:0:
291,203,128983,22,0,B|325:206|350:192|350:192|368:200|368:200|394:184|435:187,2,145,4|4|0,0:3|0:3|1:0,0:0:0:0:
296,116,130054,1,4,0:3:0:0:
226,63,130269,2,0,P|242:48|260:39,2,36.25,4|0|0,0:3|0:0|0:0,0:0:0:0:
172,131,130697,6,0,P|132:143|33:110,1,145,4|0,0:3|0:0,0:0:0:0:
10,196,131340,1,0,0:0:0:0:
75,252,131554,2,0,L|65:364,1,108.75,2|2,1:3|0:3,0:0:0:0:
65,360,131983,2,0,L|138:354,1,72.5,0|0,0:0|0:0,0:0:0:0:
201,294,132412,22,0,L|310:286,2,108.75,4|4|0,0:3|0:3|0:0,0:0:0:0:
162,215,133269,2,0,P|143:157|160:108,1,108.75,0|0,1:0|0:0,0:0:0:0:
156,113,133697,2,0,L|231:107,1,72.5,0|0,0:0|0:0,0:0:0:0:
306,147,134126,6,0,B|378:132|378:132|455:150,2,145,4|0|0,0:3|0:0|1:0,0:0:0:0:
221,166,135197,1,0,0:0:0:0:
283,227,135412,2,0,P|292:262|284:305,1,72.5,0|0,0:0|0:0,0:0:0:0:
204,269,135840,22,0,B|148:264|148:264|115:277|115:277|59:271,2,145,4|4|0,0:3|0:3|1:0,0:0:0:0:
275,318,136912,1,0,1:0:0:0:
287,232,137126,1,0,1:0:0:0:
299,146,137340,1,0,1:0:0:0:
312,60,137554,5,4,1:0:0:0:
