osu file format v7

[General]
AudioFilename: kirsty hawkshaw - fine day.mp3
AudioLeadIn: 1015
PreviewTime: 106927
Countdown: 0
SampleSet: Soft
StackLeniency: 0.7
Mode: 0
LetterboxInBreaks: 1
StoryFireInFront: 0

[Editor]
DistanceSpacing: 0.800000011920929
BeatDivisor: 4
GridSize: 8

[Metadata]
Title:Fine Day (Mike Koglin Mix)
Artist:Kirsty Hawkshaw
Creator:j35u5891221
Version:Rhythmic
Source:
Tags:opus III 3

[Difficulty]
HPDrainRate:4
CircleSize:4
OverallDifficulty:4
SliderMultiplier:1.4
SliderTickRate:2

[Events]
//Background and Video events
Video,-961,"Kirsty Hawkshaw Fine Day (Mike Koglin Mix 2002)(2).flv"
0,0,"its a fine day.jpg"
//Break Periods
2,19536,23271
2,33987,37067
2,68587,79329
2,122893,135388
2,152674,163417
//Storyboard Layer 0 (Background)
//Storyboard Layer 1 (Fail)
Sprite,Fail,Centre,"section-fail sb.png",320,240 S,0,132547,,0.6416 F,0,132547,132657,0,1
Sprite,Fail,Centre,"section-fail sb.png",320,240 S,0,132766,,0.6415999 F,0,132766,134518,1,0
Sprite,Fail,Centre,"section-fail sb.png",320,240 S,0,156197,,0.6416003 F,0,156197,156306,0,1
Sprite,Fail,Centre,"section-fail sb.png",320,240 S,0,156416,,0.6415999 F,0,156416,157292,1,0
//Storyboard Layer 2 (Pass)
Sprite,Pass,Centre,"section-pass sb.png",320,240 M,0,132547,,320,240 S,0,132547,,0.6416001 F,0,132547,132657,0,1 F,0,132657,,1
Sprite,Pass,Centre,"section-pass sb.png",320,240 S,0,132766,,0.6416002 F,0,132766,134518,1,0
Sprite,Pass,Centre,"section-pass sb.png",320,240 S,0,156197,,0.6415999 F,0,156197,156306,0,1 F,0,156306,,1
Sprite,Pass,Centre,"section-pass sb.png",320,240 S,0,156416,,0.6416001 F,0,156416,157297,1,0
//Storyboard Layer 3 (Foreground)
//Storyboard Sound Samples
//Background Colour Transformations
3,100,0,0,0

[TimingPoints]
66,437.956204379562,4,2,0,60,1,0
17693,-100,4,2,1,60,0,1
19445,-100,4,2,0,60,0,0
30613,-100,4,2,0,40,0,0
31489,-100,4,2,0,20,0,0
32365,-100,4,2,0,10,0,0
33241,-100,4,2,0,0,0,0
38277,-100,4,2,0,60,0,0
43971,-100,4,2,0,40,0,0
44628,-100,4,2,0,20,0,0
45284,-100,4,2,0,60,0,0
50868,-100,4,2,1,60,0,0
52511,-100,4,2,0,60,0,0
66635,-100,4,2,1,60,0,1
68496,-100,4,2,0,60,0,0
87547,-200,4,2,0,60,0,0
94664,-100,4,2,0,60,0,1
108241,-100,4,2,0,60,0,0
108679,-100,4,2,0,60,0,1
109117,-100,4,2,0,60,0,0
142073,-100,4,2,0,40,0,0
142730,-100,4,2,0,21,0,0
143387,-100,4,2,0,60,0,0
150832,-100,4,2,1,60,0,1
152584,-100,4,2,0,60,0,0
184007,-100,4,2,1,60,0,1
185430,-100,4,2,0,60,0,0
189153,-200,4,2,0,60,0,0
192766,-100,4,2,1,60,0,1
194956,-200,4,2,1,60,0,0

[Colours]
Combo1 : 0,0,255
Combo2 : 0,128,255
Combo3 : 128,128,255
Combo4 : 0,255,255

[HitObjects]
392,80,3569,2,0,C|464:80,2,70,0|0|2
368,192,4445,2,0,C|440:224,2,70,0|0|2
288,272,5321,2,0,C|320:352,2,70,0|0|2
176,272,6197,2,0,C|128:360,2,70,0|0|8
80,200,7073,6,0,B|128:200|136:152,1,70
144,112,7511,1,2
216,32,7949,6,0,B|264:32|272:80,1,70
280,120,8387,1,2
392,128,8825,5,0
424,176,9044,1,0
408,232,9264,1,2
312,296,9701,2,0,B|272:312|232:248,1,70
224,224,10138,1,8
128,168,10576,6,0,L|152:120|136:80,1,70,0|2
88,104,11014,2,0,L|64:48|88:16,1,70,8|2
128,40,11452,1,8
216,40,11781,1,8
328,144,12328,6,0,L|384:144,2,35,0|0|2
360,192,12766,2,0,L|408:192,2,35,8|0|2
376,248,13204,2,0,C|352:256|328:248|304:256,1,70,8|2
280,248,13533,1,8
118,271,14080,6,4,L|116:238|69:222|64:176,1,105,4|2
200,120,14956,2,4,L|230:129|263:91|310:105,1,105,4|2
336,248,15832,2,4,L|366:257|399:219|446:233,1,105,4|2
424,104,16708,5,4
384,136,16927,1,2
336,104,17146,1,4
296,136,17365,1,2
248,104,17584,1,4
256,192,17693,12,0,19336
56,128,24591,6,8,B|48:224|144:216,1,140,0|8
160,104,25467,1,2
272,104,25905,1,8
360,160,26343,6,2,C|296:200,2,70,2|0|8
384,264,27219,1,2
280,328,27657,1,8
152,312,28095,6,0,C|152:360,2,35,2|0|0
96,296,28533,1,8
96,184,28971,2,8,B|104:128|160:96|224:120,1,140,2|8
312,120,29847,5,2
360,152,30066,1,0
360,208,30285,1,8
288,296,30722,6,2,B|208:320|168:240,1,140
168,136,31598,2,2,B|208:64|293:93,1,140
368,168,32474,2,2,B|392:248|312:288,1,140,2|2
260,185,33350,2,2,B|209:208|127:159,1,140,0|0
96,104,38387,6,0,C|96:144|104:176,1,70,2|0
128,224,38825,2,0,C|96:256,2,35,2|0|8
176,256,39263,2,0,C|208:280|256:296|320:296,1,140,2|0
440,88,41890,5,2
424,144,42110,1,0
376,168,42329,1,2
320,160,42548,1,8
264,152,42767,2,0,B|200:176|192:208|192:280,1,140,2|0
96,256,43423,5,2
96,256,43642,1,8
128,152,44080,5,2
128,152,44299,1,8
224,96,44737,5,2
224,96,44956,1,8
384,104,45394,6,0,B|344:112|344:176,1,70
376,200,45832,1,2
392,256,46051,2,0,C|384:296|344:320,1,70,8|2
232,248,46927,5,8
176,232,47146,1,0
152,184,47365,2,0,B|138:145|159:116,1,70,0|2
208,88,47803,1,8
264,88,48022,2,0,B|350:105|332:199,1,140,2|0
336,304,48898,5,0
392,304,49117,2,0,C|432:288,2,35,0|0|0
392,248,49555,2,0,C|424:232,2,35,8|0|0
392,192,49993,2,0,C|352:144,2,35
400,136,50430,2,0,C|360:80,2,35,8|0|0
256,192,50868,12,4,51744
432,56,52620,6,0,B|344:72|360:168,1,140,0|2
344,264,53496,2,0,B|280:264|264:216,1,70,0|2
248,200,53934,1,8
240,144,54153,1,2
40,40,55029,5,0
96,40,55248,2,0,B|141:35|152:88,1,70,0|2
96,104,55686,2,0,B|32:96|40:160,1,70,8|2
88,160,56124,2,0,B|104:248|200:240,1,140,0|2
256,152,57000,1,8
360,200,57438,2,0,B|384:248|363:296,1,70,0|8
144,272,58533,5,2
200,272,58752,2,0,C|200:328,2,35,0|0|2
200,216,59190,2,0,C|200:181,2,35,8|0|2
144,216,59628,2,0,B|49:208|59:108,1,140,0|2
168,120,60503,2,0,B|162:24|275:33,1,140,8|2
304,32,61160,1,8
344,264,62036,5,0
288,264,62255,2,0,B|288:216|248:200,1,70,0|2
200,200,62693,1,8
152,168,62912,1,2
200,136,63131,2,0,B|177:114|202:70,1,70,0|0
256,72,63569,1,8
328,152,64007,2,0,B|328:232,2,70,0|0|8
440,160,64883,6,0,B|454:122|435:86,1,70,0|2
424,40,65321,2,0,B|381:25|320:40,1,70,8|2
296,48,65759,1,0
240,64,65978,1,2
192,88,66197,2,8,B|147:106|132:150,1,70,8|2
256,192,66635,12,0,68387
472,192,80649,6,0,B|464:144|416:112|352:112,1,140,4|0
312,208,81525,1,8
224,280,81963,2,0,B|171:259|173:209,1,70,0|8
320,56,83058,5,0
264,56,83277,2,0,C|184:56,3,70,0|2|8|2
144,72,84153,2,0,B|112:112|104:168|152:224,1,140
240,160,85029,1,8
304,248,85467,2,8,C|392:248,1,70,2|8
440,72,87657,6,0,B|384:56|360:136|296:120,1,140,0|0
256,192,88971,1,4
195,252,89409,2,0,B|141:237|117:317|72:304,1,140,0|0
72,192,90722,1,4
112,88,91160,6,0,B|160:96|184:120,1,70,4|0
256,192,92036,1,8
368,256,92474,2,8,C|408:280,1,35,2|4
256,192,92912,12,0,94226
456,56,94664,6,0,B|400:56|392:120|360:128|304:104,1,140,0|2
232,80,95540,1,8
152,160,95978,1,8
256,280,96416,6,0,C|160:280,2,70,2|0|8
328,192,97292,1,8
256,104,97730,1,8
144,112,98168,6,0,B|96:120|56:152|56:208,1,140,2|8
160,240,99044,1,0
208,216,99263,1,2
208,272,99482,2,0,B|248:296|304:288,1,70,8|2
328,280,99920,2,8,B|376:264|400:224|392:168,3,140
272,168,101671,6,0,C|272:112,2,35,0|0|2
248,216,102109,2,0,C|212:222|158:203,1,70,8|2
144,168,102547,2,0,C|144:112,2,35,0|0|2
88,152,102985,2,0,B|48:160|40:216,1,70,8|2
40,256,103423,2,0,B|48:336|152:336,1,140,0|8
160,224,104299,2,0,B|168:176|216:136|288:144,1,140,0|8
264,256,105175,5,0
320,256,105394,1,2
376,256,105613,2,0,B|376:208|328:176,1,70,8|2
312,152,106051,5,0
256,136,106270,1,2
200,144,106489,2,0,C|128:168,1,70,8|2
256,192,106927,12,4,108241
392,72,108679,6,0,B|464:72,2,70,2|0|2
288,120,109555,1,0
240,152,109774,1,2
216,200,109993,1,8
296,280,110430,6,0,B|360:280|352:216,1,70,0|2
360,192,110868,2,0,B|376:144|424:152,1,70,8|2
416,96,111306,2,0,C|504:96,2,70,0|2|8
304,96,112182,6,0,C|272:80|216:104|160:88,1,140,0|2
64,96,113058,1,0
48,152,113277,1,2
64,208,113496,1,8
192,184,113934,6,0,B|248:152|296:160|344:200,1,140,0|8
192,288,114810,2,0,B|248:256|296:264|344:304,1,140,0|8
424,240,115686,5,0
440,184,115905,1,2
408,136,116124,1,8
312,192,116562,2,8,C|272:184|224:208|176:200,1,140
136,112,117438,6,0,C|136:77,2,35,0|0|2
184,80,117876,2,0,C|184:45,2,35,8|0|2
232,56,118314,2,0,B|320:56|328:144,1,140,0|8
328,280,119190,5,0
280,248,119409,1,2
232,280,119628,1,8
184,248,119847,1,2
136,280,120065,2,8,B|128:192|232:192,1,140
256,192,120941,12,4,122693
408,64,136708,6,0,B|320:56|288:136,1,140,2|8
248,232,137584,1,8
136,248,138022,1,8
80,104,139993,6,0,B|16:104,2,35,0|0|0
128,72,140430,1,2
184,56,140649,1,0
240,56,140868,2,2,B|328:48|334:151,1,140,4|0
392,216,141525,6,0,C|312:216,1,70,2|4
256,304,142182,6,0,C|184:304,1,70,2|4
120,216,142839,6,0,C|32:216,1,70,2|4
240,216,143496,6,0,C|304:216,2,35,2|0|0
240,160,143934,2,0,B|232:112|168:120,1,70,2|8
136,144,144372,1,4
136,312,145029,5,8
192,312,145248,1,2
248,312,145467,2,0,B|304:312|304:264,1,70,0|2
280,232,145905,1,8
336,232,146124,1,6
192,56,147000,5,2
144,72,147219,2,0,B|96:80|88:136,1,70,0|2
64,160,147657,1,8
88,208,147876,1,2
64,256,148095,2,0,B|48:296|96:344,1,70,0|2
136,320,148533,1,8
184,288,148752,1,2
224,328,148971,6,8,C|294:328,1,70
352,320,149409,2,0,C|368:232,1,70,8|2
368,192,149847,2,0,B|400:152,2,35,4|0|0
312,176,150284,2,0,B|312:128,2,35,4|0|0
256,192,150722,1,4
256,192,150832,12,0,152474
408,72,164737,5,0
376,112,164956,1,2
320,120,165175,2,0,B|320:64,2,35,8|0|2
264,104,165613,2,4,B|160:104|168:216,1,140
112,88,166489,6,0,B|112:32,2,35,0|0|2
56,104,166927,1,8
32,152,167146,1,2
32,208,167365,2,4,B|80:216|96:192|120:160|192:160,1,140
320,160,168241,5,0
376,184,168460,1,2
384,240,168679,2,0,B|312:280,1,70,8|0
264,280,169117,1,0
208,280,169336,1,2
152,272,169555,2,0,B|112:272|112:224,1,70,8|0
112,168,169993,6,0,B|112:112,2,35,0|0|2
160,144,170430,2,0,B|160:88,2,35,8|0|2
208,120,170868,2,0,B|256:112|256:64,1,70,0|2
304,104,171306,2,8,B|344:120|352:176,1,70,8|2
400,160,171744,6,0,B|437:231|392:304,1,140,0|4
288,296,172620,2,0,B|192:296,1,70
160,296,173058,1,8
112,272,173277,1,4
112,216,173496,2,0,B|112:136,1,70
160,176,173934,2,0,B|160:264,1,70,8|2
208,216,174372,6,0,B|208:136,1,70,0|2
232,96,174810,1,8
280,72,175029,1,2
336,80,175248,2,0,B|384:80|384:168|456:168,1,140,0|4
440,280,176124,5,8
336,328,176562,2,0,B|304:312|304:288|256:288,1,70,4|4
256,192,177000,12,0,177876
256,88,178752,6,0,B|256:40,2,35,0|0|0
208,144,179190,2,0,C|128:144,1,70,8|2
72,144,179628,2,8,B|64:184|80:240|120:264,1,140
216,304,180503,5,0
256,264,180722,1,2
216,224,180941,1,8
256,184,181160,1,2
216,152,181379,2,8,C|264:139|288:104|288:48,1,140
392,96,182255,6,0,C|392:144,2,35,0|0|2
392,40,182693,2,0,C|462:40,1,70,8|2
464,96,183131,2,0,C|520:96,2,35,0|0|2
464,152,183569,2,0,C|394:152,1,70,8|2
256,192,184007,12,4,185321
368,80,185759,6,0,B|336:104|320:152|320:224,1,140,4|2
312,320,186635,1,0
256,320,186854,1,2
200,320,187073,1,8
88,320,187511,6,0,C|88:248,1,70,0|2
88,192,187949,2,0,C|176:192,1,70,8|2
216,192,188387,2,8,B|216:136|240:104|264:88|304:88,1,140,8|8
416,88,189263,6,0,C|400:120|424:144|400:176|424:200|400:240|424:264,1,210,4|0
264,256,191014,2,0,C|256:243|280:203|256:179|280:147|256:123|272:91,1,210,4|0
256,192,192766,12,0,194956
