osu file format v7

[General]
AudioFilename: kirsty hawkshaw - fine day.mp3
AudioLeadIn: 1015
PreviewTime: 106927
Countdown: 0
SampleSet: Soft
StackLeniency: 0.7
Mode: 0
LetterboxInBreaks: 1
StoryFireInFront: 0

[Editor]
DistanceSpacing: 0.800000011920929
BeatDivisor: 4
GridSize: 8

[Metadata]
Title:Fine Day (Mike Koglin Mix)
Artist:Kirsty Hawkshaw
Creator:j35u5891221
Version:Relax...
Source:
Tags:opus III 3

[Difficulty]
HPDrainRate:2
CircleSize:3
OverallDifficulty:2
SliderMultiplier:1
SliderTickRate:2

[Events]
//Background and Video events
Video,-961,"Kirsty Hawkshaw Fine Day (Mike Koglin Mix 2002)(2).flv"
0,0,"its a fine day.jpg"
//Break Periods
2,19536,23031
2,31360,37046
2,68587,79089
//Storyboard Layer 0 (Background)
//Storyboard Layer 1 (Fail)
//Storyboard Layer 2 (Pass)
//Storyboard Layer 3 (Foreground)
//Storyboard Sound Samples
//Background Colour Transformations
3,100,0,0,0

[TimingPoints]
66,437.956204379562,4,2,0,60,1,0
17584,-100,4,2,1,60,0,1
19445,-100,4,2,0,60,0,0
66635,-100,4,2,1,60,0,1
68496,-100,4,2,0,60,0,0
94664,-100,4,2,0,60,0,1
108241,-100,4,2,0,60,0,0
108679,-100,4,2,0,60,0,1
109117,-100,4,2,0,60,0,0
120941,-100,4,2,0,60,0,1
122693,-100,4,2,0,60,0,0

[Colours]
Combo1 : 0,0,255
Combo2 : 0,128,255
Combo3 : 128,128,255
Combo4 : 0,255,255

[HitObjects]
160,56,3569,6,0,B|256:8|360:56,1,200,2|8
408,112,4883,1,8
352,168,5321,6,0,B|254:123|158:171,1,200,2|8
112,240,6635,1,8
168,296,7073,6,0,B|264:256|368:296,1,200,2|8
424,240,8387,1,8
368,184,8825,6,0,B|384:152|376:112|336:88|304:80|272:88|240:120,1,200,2|8
200,184,10138,1,8
176,264,10576,6,0,C|104:264,2,50,2|0|2
256,264,11452,2,0,C|256:314,2,50,8|0|8
336,264,12328,2,0,C|392:264,2,50,2|0|2
304,192,13204,2,8,B|256:176|208:192,1,100
176,264,14080,6,0,B|140:244|99:188|121:120|167:84,1,200,2|8
232,56,15394,1,8
312,56,15832,6,0,B|357:62|410:111|401:180|379:214,1,200,2|8
320,264,17146,1,8
256,192,17584,12,0,19336
424,56,24591,6,0,B|371:110|299:118|235:110,1,200,2|8
160,112,25905,1,8
80,112,26343,6,0,B|80:160|104:216|184:224|232:208,1,200,2|8
304,208,27657,1,8
384,208,28095,6,0,B|424:200|464:216|488:248|464:328|392:312,1,200,2|8
320,312,29409,1,8
240,312,29847,6,0,B|208:256|184:304|152:328|104:336|88:288|88:256,1,200,2|8
88,176,31160,1,8
448,112,38606,5,0
448,192,39044,1,8
448,272,39482,2,2,B|448:336,2,50
64,112,42109,5,0
64,192,42547,1,8
64,272,42985,2,2,B|64:336,2,50
256,272,45613,5,0
256,192,46051,1,8
256,112,46489,2,2,B|192:112,2,50
336,112,47365,6,0,B|344:200|320:280|240:272,1,200,4|8
184,240,48679,1,8
184,160,49117,6,0,B|184:40,1,100,4|2
256,24,49993,2,0,B|256:124,1,100,4|8
328,160,50868,2,4,B|352:216|312:272,1,100,4|2
256,296,51744,1,4
112,232,52620,6,0,B|112:208|128:176|168:176|184:192|256:192|264:120,1,200,2|8
344,128,53934,1,8
424,128,54372,1,8
424,288,55248,5,8
344,288,55686,1,8
264,288,56124,2,0,B|208:288|168:296|112:264|96:184,1,200,2|8
96,128,57438,1,8
96,48,57876,1,8
256,80,58752,5,8
336,80,59190,1,8
416,80,59628,2,8,B|408:144|360:176|304:152|248:160,1,200,2|8
200,208,60941,1,8
136,160,61379,1,8
272,80,62255,5,8
344,40,62693,1,8
416,72,63131,2,4,B|457:98|488:144|480:224|424:256,1,200
368,288,64445,1,8
288,288,64883,6,0,B|238:288,2,50,4|0|2
256,216,65759,2,0,B|206:216,2,50,4|0|8
256,192,66635,12,0,68387
480,64,80649,6,0,B|480:128|496:304|352:320,1,300,4|8
288,320,82401,1,2
216,176,83277,1,8
120,48,84153,6,0,B|58:71|-8:208|112:304,1,300,4|8
184,336,85905,1,4
256,192,86781,1,8
344,56,87657,6,0,B|399:45|434:99|349:159|400:240,1,200,4|0
392,296,88971,1,2
312,296,89409,2,0,B|272:280|240:280|192:304,2,100,4|0|0
312,216,90722,1,8
256,192,91160,12,4,92912
256,192,93788,5,4
120,112,94664,6,0,C|96:144|128:192|96:240|128:280,1,200,2|8
256,184,96416,6,0,C|231:152|263:104|231:56|255:24,1,200,2|8
384,112,98168,6,0,B|405:187|333:192|365:251|373:307,1,200,2|8
256,192,99920,6,0,B|200:200|141:232|136:160|37:186,1,200,2|8
176,72,101671,5,2
336,72,102547,1,8
336,232,103423,2,0,B|296:304|216:304|176:224,1,200,2|8
184,72,105175,6,0,B|304:72,1,100,2|8
328,144,106051,2,0,B|216:144,1,100,2|8
256,192,106927,12,4,108241
432,248,108679,6,0,B|432:320,2,50,4|0|8
352,248,109555,2,0,B|352:320,2,50,2|0|8
272,272,110430,2,0,B|216:288|160:264|120:224|104:168,1,200,2|8
112,104,111744,1,8
192,104,112182,6,0,B|312:104,1,100,2|8
296,184,113058,2,0,B|400:184,1,100,2|8
400,264,113934,2,0,B|472:264,2,50,2|0|8
336,304,114810,2,0,B|336:368,2,50,2|0|8
256,296,115686,6,0,B|211:295|177:274|147:236|143:183|180:136,1,200,2|8
224,96,117000,1,8
304,88,117438,6,0,B|341:80|385:112|403:155|405:196|382:234,1,200,2|8
320,280,118752,1,8
256,232,119190,6,0,B|224:200|184:240|144:224|80:240|96:152,1,200,4|4
96,88,120503,1,8
256,192,120941,12,4,122693
