osu file format v9

[General]
AudioFilename: Kiroro - Marai e.mp3
AudioLeadIn: 0
PreviewTime: 46052
Countdown: 0
SampleSet: Soft
StackLeniency: 0.5
Mode: 0
LetterboxInBreaks: 1

[Editor]
Bookmarks: 3676,27896,46061,70281,94500,121747,139868,164100,176208
DistanceSpacing: 1
BeatDivisor: 4
GridSize: 4

[Metadata]
Title:Best Friend
Artist:Kiroro
Creator:winber1
Version:Dream
Source:
Tags:Aqua Aqua92

[Difficulty]
HPDrainRate:6
CircleSize:4
OverallDifficulty:7
ApproachRate:7
SliderMultiplier:1
SliderTickRate:1

[Events]
//Background and Video events
0,0,"background.png"
//Break Periods
2,83388,95515
//Storyboard Layer 0 (Background)
//Storyboard Layer 1 (Fail)
//Storyboard Layer 2 (Pass)
//Storyboard Layer 3 (Foreground)
//Storyboard Sound Samples
//Background Colour Transformations
3,100,163,162,255

[TimingPoints]
690,378.787878787879,4,2,0,71,1,0
27947,375.704445835942,4,2,1,70,1,0
27947,-83.3333333333333,4,2,0,70,0,0
32455,378.787878787879,4,2,0,70,1,0
32455,-83.3333333333333,4,2,0,70,0,0
37021,379.386658235852,4,2,0,70,1,0
37021,-83.3333333333333,4,2,0,70,0,0
46110,378.190986448156,4,2,1,70,1,1
46110,-73.5294117647059,4,2,1,70,0,1
52866,-100,4,2,1,70,0,1
56839,-73.5294117647059,4,2,1,70,0,1
58163,-73.5294117647059,4,2,0,70,0,1
58541,-73.5294117647059,4,2,1,70,0,1
62765,378.787878787879,4,2,1,70,1,1
62765,-73.5294117647059,4,2,1,70,0,1
64280,-73.5294117647059,4,2,1,70,0,1
64972,-100,4,2,1,70,0,1
69134,-100,4,2,2,70,0,1
69890,-100,4,2,0,70,0,1
70340,-73.5294117647059,4,2,1,70,0,0
76390,375.234521575985,4,2,1,70,1,0
76390,-73.5294117647059,4,2,1,70,0,0
79348,-73.5294117647059,4,2,2,70,0,0
79391,379.746835443038,4,2,2,70,1,0
80105,-73.5294117647059,4,2,1,30,0,0
80294,-73.5294117647059,4,2,1,51,0,0
80483,-73.5294117647059,4,2,1,70,0,0
80861,-73.5294117647059,4,2,0,70,0,0
83131,-73.5294117647059,4,2,0,40,0,0
94522,378.787878787879,4,2,0,40,1,0
96445,-100,4,2,2,40,0,0
96810,378.787878787879,4,2,2,40,1,0
97129,-73.5294117647059,4,2,1,25,0,0
97507,-100,4,2,2,70,0,0
97556,378.787878787879,4,2,2,70,1,0
105086,-100,4,2,0,70,0,0
105275,-100,4,2,2,70,0,0
120206,-100,4,2,1,70,0,0
121719,-83.3333333333333,4,2,0,70,0,0
121775,377.595972309629,4,2,0,70,1,0
122135,-73.5294117647059,4,2,2,70,0,0
127825,378.787878787879,4,2,0,70,1,0
127825,-73.5294117647059,4,2,2,70,0,0
133825,-73.5294117647059,4,2,0,70,0,0
133967,-73.5294117647059,4,2,1,70,0,0
135400,375.234521575985,4,2,1,70,1,0
135716,-73.5294117647059,4,2,1,20,0,0
135905,-73.5294117647059,4,2,1,40,0,0
136095,-73.5294117647059,4,2,1,60,0,0
136473,-73.5294117647059,4,2,2,70,0,0
136870,380.952380952381,4,2,0,70,1,0
137229,-73.5294117647059,4,2,1,70,0,0
138012,-73.5294117647059,4,2,0,70,0,0
138743,-73.5294117647059,4,2,1,50,0,0
139121,-73.5294117647059,4,2,0,70,0,0
139499,-73.5294117647059,4,2,2,70,0,0
139950,378.190986448156,4,2,2,70,1,0
139950,-73.5294117647059,4,2,0,70,0,1
140634,-73.5294117647059,4,2,2,70,0,1
151624,-73.5294117647059,4,2,1,70,0,1
152003,-73.5294117647059,4,2,0,70,0,1
152759,-73.5294117647059,4,2,2,70,0,1
158103,-73.5294117647059,4,2,2,70,0,1
162408,-73.5294117647059,4,2,2,20,0,1
162502,-73.5294117647059,4,2,2,45,0,1
162597,-73.5294117647059,4,2,2,70,0,1
164154,-73.5294117647059,4,2,0,70,0,0
164299,-73.5294117647059,4,2,2,70,0,0
168840,-73.5294117647059,4,2,0,70,0,0
169029,-73.5294117647059,4,2,2,70,0,0
175839,-73.5294117647059,4,2,1,30,0,0
176028,-73.5294117647059,4,2,1,55,0,0
176218,-73.5294117647059,4,2,0,70,0,0

[Colours]
Combo1 : 253,156,142
Combo2 : 138,192,247
Combo3 : 160,245,75

[HitObjects]
120,160,3720,2,0,B|128:72|216:64,1,150,0|0
256,64,4477,2,0,B|256:176,1,100,2|0
354,200,5235,6,0,B|402:200,1,50,0|0
472,280,5614,2,0,B|416:280,1,50
352,328,5993,2,0,B|240:328,3,100,2|0|0|0
217,327,7318,1,0
184,328,7508,2,0,B|72:328,1,100,2|0
84,294,8076,2,0,B|92:206|180:198,1,150
313,198,9023,1,2
456,56,9402,5,0
456,56,9591,1,0
456,56,9780,2,0,B|456:168,2,100,0|0|2
280,56,10917,2,0,B|221:60|208:120,3,100,0|0|0|2
208,148,12243,1,0
208,179,12432,2,0,B|208:283,2,100
208,148,13379,2,0,B|317:148,1,100,2|0
337,148,13947,2,0,B|369:198|334:247,1,100
256,320,14705,5,0
256,304,15083,1,2
256,288,15462,1,0
256,192,15841,6,0,B|144:192,2,100,0|0|2
288,192,16788,1,0
320,192,16977,2,0,B|352:144|317:94,2,100
288,192,17924,2,0,B|288:304,1,100,2|0
256,292,18493,2,0,B|204:292,1,50
174,292,18871,2,0,B|112:288|102:224,2,100,0|0|2
206,291,19818,2,0,B|207:228,1,50
207,209,20197,2,0,B|207:97,2,100
248,208,21144,2,0,B|254:270|314:280,1,100,2|0
368,120,21902,5,0
368,120,22091,1,0
368,120,22280,2,0,B|368:224,1,100,0|2
488,208,23038,2,0,B|482:270|422:280,2,100,0|0|0
256,120,24174,1,2
24,208,24553,1,0
256,264,24932,6,0,B|368:264,1,100,0|0
356,264,25500,1,0
356,264,25689,1,2
416,184,26068,2,0,B|304:184,1,100
256,296,26826,5,0
256,280,27205,1,2
256,264,27583,1,0
256,48,27947,5,4
88,104,28698,6,0,B|88:248,1,120.000002861023,2|2
168,224,29261,2,0,B|176:296|248:304,1,120.000002861023,0|0
328,304,29825,2,0,B|400:304,1,60.0000014305115,2|0
328,144,30201,2,0,B|328:208,2,60.0000014305115,2|0|0
328,144,30952,2,0,B|208:144,2,120.000002861023,0|0|2
448,32,32079,1,0
328,144,32455,5,0
448,256,32833,2,0,B|328:256,1,120.000002861023,0|2
56,48,33591,5,0
128,104,33780,1,0
56,160,33970,2,0,B|56:280,2,120.000002861023,0|0|2
136,280,35106,1,0
136,280,35295,2,0,B|144:208|208:196,1,120.000002861023,2|0
224,280,35864,2,0,B|344:280,2,120.000002861023,0|2|0
136,280,36811,1,0
136,280,37021,2,0,B|136:152,1,120.000002861023
136,160,37590,1,0
224,160,37779,2,0,B|266:160|266:160|304:176|304:176|352:176,2,120.000002861023,2|0|0
224,72,38728,5,0
224,72,38917,2,0,B|363:72,1,120.000002861023,0|2
204,248,39676,1,0
204,248,40056,2,0,B|204:290|204:290|188:328|188:328|188:376,2,120.000002861023,0|0|2
256,64,41194,1,0
308,248,41573,2,0,B|308:290|308:290|324:328|324:328|324:376,2,120.000002861023,0|0|2
256,32,42711,1,0
256,120,43091,5,6
208,192,43470,1,0
304,192,43849,1,2
256,264,44229,1,4
256,352,44988,5,2
256,352,45367,1,4
256,80,46110,6,0,B|336:80|336:80|336:200|456:200,1,272.000005187988,2|8
252,80,47244,1,0
249,80,47433,2,0,B|105:80,1,136.000002593994,2|0
113,80,48000,1,2
117,213,48379,2,0,B|253:213,1,136.000002593994,8|0
256,368,49135,5,0
255,216,49513,1,0
255,216,49702,2,0,B|256:288,2,68.0000012969971,0|8|0
256,128,50270,2,0,B|344:128|347:227,1,136.000002593994,0|2
179,284,51026,2,0,B|94:283|88:200,1,136.000002593994,2|8
88,203,51593,1,0
256,40,52161,5,2
256,40,52539,1,0
256,120,52728,1,0
256,200,52917,2,0,B|256:312,2,100,8|0|2
328,160,54052,5,2
256,120,54241,1,0
184,160,54430,2,0,B|80:160,2,100,8|0|2
184,248,55564,6,0,B|184:368,1,100,0|8
328,348,56321,2,0,B|328:228,1,100,0|2
328,160,56888,2,0,B|376:160|376:160|416:184|416:184|456:184,1,136.000002593994,8|2
456,104,57455,1,8
456,104,57644,1,8
256,104,57833,2,0,B|256:240,2,136.000002593994,4|4|0
256,104,58968,6,0,B|168:104|168:200,1,136.000002593994,8|0
168,272,59535,1,0
168,272,59724,1,2
344,272,60103,1,2
344,272,60292,2,0,B|344:192,1,68.0000012969971,0|8
344,120,60670,2,0,B|296:120|296:120|256:136|256:136|208:136,1,136.000002593994
128,136,61237,2,0,B|128:272,1,136.000002593994,2|0
184,336,61804,1,0
272,336,61994,6,0,B|277:286|240:244|192:244,1,136.000002593994,8|0
184,336,62561,1,0
184,336,62765,2,0,B|48:336,1,136.000002593994,2|2
48,248,63333,1,0
48,248,63522,2,0,B|48:168,1,68.0000012969971,8|0
48,248,63901,2,0,B|96:248|96:248|136:232|136:232|184:232,1,136.000002593994,0|2
456,200,64658,5,0
424,120,64848,1,0
392,40,65037,2,0,B|280:40,1,100,8|0
292,40,65795,1,2
208,40,66174,5,2
240,120,66363,1,0
272,200,66552,2,0,B|272:304,2,100,8|0|2
136,200,67689,6,0,B|136:96,2,100,0|8|0
112,296,68825,1,4
112,296,69204,1,4
256,352,69583,1,8
392,296,69961,1,4
360,184,70340,6,0,B|408:136,1,68.0000012969971,2|0
256,104,70719,2,0,B|256:32,1,68.0000012969971
152,184,71098,2,0,B|104:136,1,68.0000012969971,8|0
192,304,71477,1,0
192,304,71666,2,0,B|256:266|320:304,1,136.000002593994,2|2
320,304,72234,1,0
256,208,72613,1,8
256,208,72802,1,0
256,208,73181,5,0
176,120,73371,2,0,B|88:120,1,68.0000012969971,2|0
336,120,73749,2,0,B|408:120,1,68.0000012969971
256,296,74128,2,0,B|256:368,1,68.0000012969971,8|0
256,72,74507,1,0
256,72,74696,2,0,B|256:208,1,136.000002593994,2|2
256,208,75265,1,0
256,208,75643,1,8
192,280,75833,6,0,B|112:280,1,68.0000012969971
124,280,76211,1,0
48,208,76390,2,0,B|52:128|128:112,1,136.000002593994,2|0
256,32,77140,6,0,B|256:104,1,68.0000012969971,8|0
328,160,77515,1,0
328,160,77703,1,0
424,160,77890,2,0,B|424:296,2,136.000002593994,2|0|8
256,296,79016,5,0
176,296,79204,2,8,B|144:320,2,34.0000006484985,0|8|12
88,192,79960,5,8
176,72,80150,1,4
336,72,80340,1,4
424,192,80530,1,4
256,192,80909,5,2
256,192,81669,12,2,83188
256,96,96415,5,4
256,176,96810,1,8
256,256,97188,1,4
256,336,97556,6,0,B|144:336,2,100,2|0|8
408,336,98692,2,0,B|408:264,1,50
408,256,99071,2,0,B|408:144,2,100,2|4|8
256,256,100207,2,0,B|192:256|184:184,1,100,0|2
256,56,100965,5,0
176,56,101343,1,8
96,56,101722,1,0
96,56,101912,2,0,B|96:168,1,100,2|2
96,156,102480,1,4
96,240,102859,1,8
256,336,103237,5,0
288,336,103427,1,0
320,336,103616,2,0,B|384:336|432:336,1,100,2|0
456,336,104184,2,0,B|456:280,1,50,0|8
456,256,104563,1,0
456,224,104752,2,0,B|432:184|392:192|352:184|328:224,1,150,0|2
328,224,105510,1,4
240,224,105889,1,8
152,224,106268,5,0
304,80,106646,2,0,B|256:56|208:80,1,100,2|2
168,80,107215,2,0,B|168:136,1,50,0|8
136,72,107593,2,0,B|104:128,1,50,0|0
256,312,108162,5,2
256,296,108540,1,4
256,280,108919,1,8
256,264,109298,1,4
256,48,109677,6,0,B|288:48|288:48|320:64|320:64|352:64,1,100,2|0
432,64,110434,2,0,B|432:96|432:96|416:128|416:128|416:160,1,100,8|0
416,200,111002,1,0
416,240,111192,2,0,B|304:240,1,100,2|4
168,48,111949,6,0,B|168:160,1,100,8|0
248,152,112707,2,0,B|248:184|248:184|232:216|232:216|232:248,2,100,2|0|8
256,336,113843,5,0
256,336,114033,2,0,B|204:320|152:336,1,100,2|2
128,312,114601,2,0,B|80:320|20:311,2,100,4|8|0
56,88,115737,6,0,B|112:88|112:88|168:88,1,100,2|0
240,88,116495,2,0,B|240:120|240:120|256:152|256:152|256:184,2,100,8|0|2
240,88,117631,1,4
448,192,118010,6,0,B|344:192,1,100,8|0
64,192,118768,2,0,B|168:192,1,100,2|0
256,192,119525,2,0,B|256:304,2,100,8|0|8
256,104,120472,2,4,B|320:96|344:168,1,100
352,248,121040,1,8
256,288,121230,1,8
160,248,121419,1,4
256,192,121775,5,4
200,88,122530,2,0,B|224:48|256:48|288:48|312:88,1,136.000002593994,8|0
312,128,123096,2,0,B|288:168|256:168|224:168|200:128,1,136.000002593994,0|2
256,112,123662,2,0,B|256:184,1,68.0000012969971,0|0
256,216,124040,2,0,B|256:304,1,68.0000012969971,8|0
256,320,124418,1,0
152,320,124795,5,2
424,264,125173,1,0
368,16,125550,1,8
104,64,125928,1,0
104,272,126306,5,2
136,64,126683,1,4
344,96,127061,1,8
312,312,127438,1,0
312,312,127627,1,0
312,312,127825,5,2
400,160,128203,1,0
240,64,128582,1,8
152,224,128961,1,0
152,224,129150,2,2,B|288:224,1,136.000002593994
320,224,129718,2,0,B|320:144|232:136,1,136.000002593994,4|8
40,192,130476,5,2
40,192,130665,1,2
40,192,130855,1,8
256,352,131234,1,2
472,192,131612,1,8
256,32,131991,1,0
352,312,132370,5,10
104,144,132749,1,0
408,144,133128,1,8
160,312,133506,1,0
256,28,133885,1,4
256,176,134643,5,8
256,176,135400,1,2
160,80,135775,5,4
256,48,135962,1,4
352,80,136150,1,4
256,256,136525,1,4
160,328,136870,5,4
104,160,137250,1,0
352,328,137631,1,8
416,160,138012,1,6
256,192,138774,5,4
216,120,139155,1,4
296,120,139536,1,4
256,272,139950,5,4
456,272,140706,2,0,B|448:188|360:176,1,136.000002593994,8|0
288,176,141273,2,0,B|288:312,1,136.000002593994,2|2
288,312,141840,2,0,B|216:312,1,68.0000012969971,4|0
152,232,142219,2,0,B|72:224|56:144,1,136.000002593994,8|0
64,64,142786,1,0
152,64,142975,2,0,B|232:73|248:152,1,136.000002593994,2|0
152,232,143542,2,0,B|56:232,1,68.0000012969971,0|8
152,232,143921,2,0,B|232:221|248:144,1,136.000002593994,0|0
151,147,144488,5,2
152,64,144677,2,0,B|232:64,1,68.0000012969971,0|2
151,147,145055,2,0,B|78:147,1,68.0000012969971,0|8
151,147,145433,2,0,B|151:299,1,136.000002593994
232,232,146001,6,0,B|243:312|320:320,1,136.000002593994,2|0
320,232,146568,2,0,B|320:152,1,68.0000012969971,0|8
320,164,147135,1,0
320,164,147513,6,0,B|312:88|230:80,1,136.000002593994,2|2
144,80,148081,2,0,B|64:80,2,68.0000012969971,0|8|0
229,79,148648,2,0,B|229:236,1,136.000002593994,0|2
321,164,149404,6,0,B|253:160|177:164,1,136.000002593994,0|8
184,320,150161,2,0,B|253:325|328:320,1,136.000002593994
320,240,150728,1,8
320,240,150917,2,0,B|252:224|212:156,1,136.000002593994,4|8
128,112,151484,1,8
128,208,151673,1,4
256,32,152052,5,4
440,128,152808,2,0,B|440:192|440:192|410:214|408:256,1,136.000002593994,8|0
352,160,153375,2,0,B|288:160|288:160|266:130|224:128,1,136.000002593994,2|2
304,72,153943,2,0,B|304:152,1,68.0000012969971,4|0
227,128,154321,2,0,B|227:200,1,68.0000012969971,8|0
168,272,154699,1,0
168,272,154888,1,0
168,272,155077,2,0,B|88:261|80:184,1,136.000002593994,2|0
80,104,155644,1,0
80,104,155834,2,0,B|216:104,2,136.000002593994,8|0|2
424,192,156968,5,2
424,112,157157,2,0,B|344:112,1,68.0000012969971,0|8
280,112,157535,2,0,B|280:160|280:160|256:200|256:200|256:248,1,136.000002593994
256,328,158103,2,0,B|176:317|168:240,1,136.000002593994,2|0
168,152,158670,5,0
80,152,158859,2,0,B|160:141|168:64,2,136.000002593994,8|0|2
80,152,159994,5,2
168,152,160183,1,0
256,152,160372,2,0,B|176:163|168:240,2,136.000002593994,8|0|2
480,352,161506,5,0
256,256,161885,1,8
32,352,162263,1,0
96,208,162452,1,8
96,208,162546,1,8
96,208,162641,1,8
408,208,163019,1,4
256,48,163397,1,8
256,48,163776,1,8
256,48,163965,1,8
256,136,164154,6,0,B|256:208,1,68.0000012969971,4|0
168,48,164532,2,0,B|96:96,1,68.0000012969971,2|0
344,48,164910,2,0,B|416:96,1,68.0000012969971,8|0
256,48,165288,1,0
256,48,165477,2,0,B|256:208,1,136.000002593994,2|2
256,264,166045,2,0,B|320:264|320:264|342:294|384:296,1,136.000002593994,4|8
384,216,166612,2,0,B|373:136|296:128,1,136.000002593994,0|0
384,128,167179,6,0,B|464:128,1,68.0000012969971,2|0
256,344,167557,2,0,B|256:256,1,68.0000012969971
128,128,167936,2,0,B|48:128,1,68.0000012969971,8|0
256,192,168314,1,0
184,136,168503,2,0,B|248:120|256:72|256:72|264:120|328:136,1,204.000003890991,2|4
256,288,169448,5,8
184,240,169637,1,0
256,192,169827,1,0
328,240,170016,1,0
256,288,170205,1,2
256,32,170583,1,4
352,152,170961,5,8
352,336,171150,1,0
160,336,171339,1,0
160,152,171528,1,0
256,192,171718,5,0
128,240,172096,1,4
256,288,172474,1,8
384,240,172852,1,2
200,96,173230,6,0,B|184:40|252:-8|328:40|312:96,2,204.000003890991,0|8|2
256,192,174743,1,4
256,328,175499,5,8
184,192,175878,1,4
256,240,176067,1,4
328,192,176256,1,4
