osu file format v7

[General]
AudioFilename: Kasane Teto - Fukkireta.mp3
AudioLeadIn: 1213
PreviewTime: -1
Countdown: 1
SampleSet: Soft
StackLeniency: 0.7
Mode: 0
LetterboxInBreaks: 1

[Editor]
DistanceSpacing: 2
BeatDivisor: 4
GridSize: 8

[Metadata]
Title:Fukkireta
Artist:Kirisame Marisa
Creator:HatsunoWind
Version:Rin
Source:
Tags:

[Difficulty]
HPDrainRate:6
CircleSize:5
OverallDifficulty:8
SliderMultiplier:2
SliderTickRate:1

[Events]
//Background and Video events
Video,-38,"X.flv"
0,0,"1.JPG"
//Break Periods
//Storyboard Layer 0 (Background)
//Storyboard Layer 1 (Fail)
//Storyboard Layer 2 (Pass)
//Storyboard Layer 3 (Foreground)
//Storyboard Sound Samples
//Background Colour Transformations
3,100,163,162,255

[TimingPoints]
1038,400,4,2,0,35,1,0
5538,-100,4,1,0,30,0,0
5738,-100,4,2,0,35,0,0
5938,-100,4,2,0,45,0,0
6838,-100,4,2,0,40,0,0
7538,-100,4,2,0,50,0,0
13338,-100,4,2,0,55,0,0
13738,-100,4,2,0,50,0,0
20238,-100,4,1,0,25,0,0
23438,-100,4,2,0,50,0,0
38938,-100,4,2,0,40,0,0
39338,-100,4,2,0,50,0,0

[HitObjects]
376,104,1038,2,0,B|432:120|448:176,1,100
352,200,1438,1,2
376,296,1638,2,0,B|336:312|304:280,1,50,0|2
256,232,1938,2,0,B|240:200|256:168,1,50,2|0
208,88,2238,1,2
144,168,2438,1,0
74,233,2638,6,0,B|130:219|146:163,1,100
240,128,3038,1,2
216,32,3238,2,0,B|256:16|288:48,1,50,0|2
336,104,3538,2,0,B|352:136|336:168,1,50,2|0
424,208,3838,1,0
360,288,4038,1,0
288,360,4238,6,0,B|248:336|200:392|168:344,2,100,0|0|2
240,272,4838,1,0
240,272,4938,1,2
192,184,5138,1,2
192,184,5238,1,0
144,96,5438,2,0,B|80:112|128:32|56:48,1,100,2|0
72,45,5838,5,4
256,192,6138,1,4
439,45,6438,1,4
440,344,6838,6,0,B|320:344,2,100,0|0|0
488,256,7438,5,2
440,168,7638,1,0
352,216,7838,2,0,B|296:256|240:208,1,100,0|2
216,192,8138,2,0,B|136:136|40:208,1,150
24,272,8638,1,0
112,320,8838,1,2
168,240,9038,6,0,B|120:184|192:120,1,100,2|0
232,72,9438,2,0,B|184:40|136:64,1,100,0|2
120,112,9738,2,0,B|104:200|224:192,1,150
296,248,10238,1,2
344,160,10438,1,0
392,241,10638,6,0,B|344:273|280:241,1,100,2|0
392,241,11038,2,0,B|344:224|344:144,1,100,0|2
376,120,11338,2,0,B|456:152|440:256,1,150
370,312,11838,1,2
296,248,12038,1,0
392,208,12238,2,0,B|392:280|296:320,1,150,2|0
256,304,12638,2,0,B|208:248|256:192,2,100,2|0|0
392,208,13238,5,2
256,304,13438,2,0,B|208:344|152:328,1,100,2|0
96,256,13838,5,2
48,168,14038,1,0
128,104,14238,2,0,B|176:64|256:80,1,100,0|2
224,128,14538,2,0,B|304:136|376:88,1,150
496,16,15038,5,0
432,152,15238,1,2
496,288,15438,5,2
408,336,15638,2,0,B|344:312|344:232,1,100
328,168,16038,1,2
328,168,16138,2,0,B|304:248|192:264,1,150
88,336,16638,5,2
88,184,16838,1,0
176,64,17038,6,0,B|248:80|272:144,1,100,2|0
176,176,17438,2,0,B|200:232|256:240,1,100,0|2
248,238,17738,1,0
368,144,18038,2,0,B|496:144,2,100
312,56,18638,2,0,B|240:16|152:64,1,150,2|0
120,80,19038,2,0,B|72:112|64:192,1,100,2|0
256,184,19638,5,2
256,192,19738,1,2
256,200,19838,1,0
400,344,20238,6,0,B|264:344,1,100
200,344,20638,1,8
104,344,20838,2,0,B|48:344,2,50,0|8|0
104,248,21238,2,0,B|104:144,1,100,0|8
104,48,21638,1,8
120,48,21738,1,8
136,48,21838,6,0,B|248:48,1,100
336,48,22238,1,8
408,120,22438,1,0
408,160,22538,1,8
336,232,22738,1,0
296,232,22838,1,8
296,192,22938,1,0
256,192,23038,1,4
72,120,23438,6,0,B|112:64|192:88,1,100,2|0
216,136,23838,1,0
208,216,24038,2,0,B|168:272|88:248,1,100,0|2
55,213,24438,2,0,B|33:158|87:101,1,100
85,22,24838,2,0,B|143:28|165:97,1,100,2|0
135,160,25238,2,0,B|102:213|37:216,2,100,2|0|2
208,88,25838,2,0,B|240:40|312:40,1,100
336,128,26238,1,2
424,88,26438,1,0
472,176,26638,5,2
384,216,26838,2,0,B|352:272|280:274,1,100
296,168,27238,1,0
222,235,27438,2,0,B|257:276|318:275,1,100,2|0
222,235,27838,1,0
296,168,28038,1,2
216,231,28238,1,0
128,176,28438,1,2
208,112,28638,1,0
296,168,28838,1,2
376,104,29038,2,0,B|424:72|480:64,1,100
384,224,29438,2,0,B|432:256|496:240,1,100,2|0
336,344,29838,6,0,B|448:344,2,100,2|0|0
240,344,30438,1,0
200,336,30538,1,0
160,320,30638,2,0,B|104:296|80:232,2,100,2|0|0
240,344,31238,1,2
304,272,31438,1,0
208,240,31638,1,2
272,312,31838,1,0
248,216,32038,1,2
264,216,32138,1,0
288,216,32238,2,0,B|352:216|408:152,1,100
440,56,32638,2,0,B|376:56|320:120,1,100,2|0
256,48,33038,5,2
168,96,33238,2,0,B|112:136|64:128,1,100
128,216,33638,1,0
184,296,33838,2,0,B|120:304|80:352,2,100,2|0|0
280,336,34438,1,0
408,256,34638,5,2
448,112,34838,1,0
304,72,35038,1,0
256,216,35238,1,2
152,104,35438,1,0
56,216,35638,1,0
152,328,35838,1,2
352,192,36238,6,0,B|296:184|264:120,2,100,2|0|0
360,88,36838,1,0
273,136,37038,2,0,B|232:176|176:160,2,100,2|0|0
200,64,37638,1,2
181,161,37838,2,0,B|160:224|120:248,1,100,0|2
32,288,38238,2,0,B|64:336|144:344,1,100,0|2
216,336,38638,1,0
312,336,38838,2,0,B|312:280,2,50
408,336,39238,1,0
468,254,39438,5,2
410,177,39638,2,0,B|482:273,1,100
410,177,40038,1,0
309,177,40238,2,0,B|421:177,2,100,2|0|0
209,178,40838,1,2
176,272,41038,2,0,B|112:256|88:200,1,100,0|2
32,136,41438,2,0,B|72:72|144:72,1,100,0|2
200,112,41838,1,0
272,40,42038,1,0
344,112,42238,1,2
440,80,42438,1,0
440,176,42638,6,0,B|440:288,2,100,2|0|0
344,208,43238,1,0
256,248,43438,2,0,B|256:352,2,100,2|0|0
168,288,44038,1,2
96,224,44238,1,0
168,288,44438,1,2
256,248,44638,1,0
232,152,44838,1,2
136,136,45038,2,0,C|104:96|144:48,1,100
232,48,45438,2,0,C|272:80|312:48,1,100,2|0
400,88,45838,6,0,B|440:120|448:216,1,100,2|0
344,168,46238,1,0
336,264,46438,2,0,B|272:240|240:184,1,100,0|2
272,112,46838,2,0,B|232:64|160:48,2,100
144,192,47438,5,2
16,112,47638,1,0
144,40,47838,1,0
272,112,48038,1,2
400,192,48238,1,0
344,336,48438,1,0
192,336,48638,1,2
112,240,49238,6,0,B|72:192|120:112,1,100,2|0
200,184,49638,1,2
288,224,49838,2,0,B|340:247,2,50,0|0|0
320,128,50238,2,0,B|376:144|408:192,1,100,2|0
416,232,50538,2,0,B|416:296|352:328,1,100
328,336,50838,2,0,B|272:360|216:328,1,100,2|2
144,288,51238,1,0
144,288,51438,2,0,B|88:264,1,50,0|2
136,192,51638,2,0,B|128:128,1,50,2|0
128,88,51838,2,0,B|160:40|232:24,1,100,0|2
256,40,52138,1,2
296,72,52238,6,0,B|264:120|208:128,1,100
344,136,52638,2,0,B|312:184|256:192,1,100,2|0
224,200,52938,1,2
192,224,53038,1,0
168,256,53138,1,0
200,280,53238,1,2
240,296,53338,1,0
280,304,53438,1,0
360,240,53638,6,0,B|424:224,2,50,0|0|2
472,152,54038,2,0,B|416:120,3,50,0|2|2|0
408,80,54438,2,0,B|352:48,1,50,2|0
320,72,54638,2,0,B|264:112|200:56,3,100,2|0|0|2
176,56,55338,1,0
128,40,55438,5,0
72,128,55638,2,0,B|88:184,1,50,2|0
136,176,55838,2,0,B|160:240,1,50,2|0
208,224,56038,2,0,B|232:280,1,50,2|0
248,320,56238,2,0,B|192:344,2,50,2|2|0
296,336,56538,2,0,B|360:368|448:288,1,150,2|2
456,256,56938,1,0
472,208,57038,5,0
440,112,57238,1,0
368,184,57438,1,2
328,88,57638,1,0
280,72,57738,1,0
232,64,57838,1,2
184,72,57938,1,2
136,88,58038,2,0,B|32:128|32:248,1,200
56,288,58538,1,0
88,320,58638,6,0,B|144:360,1,50,2|2
192,336,58838,2,0,B|136:296,1,50
144,248,59038,2,0,C|248:320,1,100,2|0
272,336,59338,1,0
320,348,59438,2,0,C|400:316,1,50,2|0
352,284,59638,2,0,C|408:260,1,50,2|2
384,212,59838,2,0,C|440:188,1,50,2|0
429,192,60238,5,4
256,48,60538,1,4
82,192,60838,1,4
256,224,61238,5,0
256,192,61438,1,0
256,160,61638,1,2
184,88,61838,6,0,B|136:112|112:160,1,100,2|0
328,88,62238,2,0,B|376:112|400:160,1,100,0|2
416,192,62538,1,0
368,272,62738,1,0
416,272,62838,1,2
448,232,62938,1,0
416,192,63038,2,0,C|368:192|336:240,1,100,0|2
200,288,63438,6,0,B|232:336|312:344,1,100,2|0
200,216,63838,2,0,B|168:168|88:160,1,100,0|2
117,164,64138,1,0
48,240,64338,1,0
48,240,64438,1,2
117,164,64638,2,0,B|64:144|40:80,1,100,0|2
192,48,65038,5,2
288,88,65238,2,0,B|344:112,2,50,2|0|0
344,224,65638,2,0,B|408:208,1,50,2|0
248,184,65938,2,0,B|224:240,1,50,0|2
288,312,66238,1,0
192,296,66438,1,2
64,224,66638,6,0,B|32:128|160:80,1,150,2|0
118,99,67038,2,0,B|168:72|224:88,2,100,2|0|0
320,104,67638,5,2
320,280,67838,1,2
