osu file format v7

[General]
AudioFilename: Kasane Teto - Fukkireta.mp3
AudioLeadIn: 1213
PreviewTime: -1
Countdown: 1
SampleSet: Soft
StackLeniency: 0.7
Mode: 0
LetterboxInBreaks: 1

[Editor]
DistanceSpacing: 0.800000011920929
BeatDivisor: 4
GridSize: 8

[Metadata]
Title:Fukkireta
Artist:Kirisame Marisa
Creator:HatsunoWind
Version:Pokie mo fukkireta
Source:
Tags:

[Difficulty]
HPDrainRate:0
CircleSize:3
OverallDifficulty:3
SliderMultiplier:1.2
SliderTickRate:0.5

[Events]
//Background and Video events
Video,-38,"X.flv"
0,0,"1.JPG"
//Break Periods
//Storyboard Layer 0 (Background)
//Storyboard Layer 1 (Fail)
//Storyboard Layer 2 (Pass)
//Storyboard Layer 3 (Foreground)
//Storyboard Sound Samples
//Background Colour Transformations
3,100,163,162,255

[TimingPoints]
1038,400,4,2,0,70,1,0
20138,-100,4,2,0,50,0,0
23338,-100,4,2,0,60,0,0
34538,-100,4,2,0,40,0,0
34938,-100,4,2,0,60,0,0
35338,-100,4,2,0,40,0,0
35738,-100,4,2,0,60,0,0
48938,-100,4,2,0,40,0,0
49338,-100,4,2,0,60,0,0
60138,-100,4,2,0,50,0,0
60738,-100,4,2,0,60,0,0
61838,-100,4,2,0,70,0,1
74538,-100,4,2,0,50,0,1
75338,-100,4,2,0,70,0,1
77638,-200,4,2,0,70,0,1
78638,-100,4,2,0,70,0,1
84238,-200,4,2,0,70,0,1
85038,-100,4,2,0,70,0,1
87038,-100,4,2,0,70,0,0
87538,-100,4,2,0,50,0,0

[HitObjects]
312,208,7438,2,0,B|256:216|184:256,3,120,2|0|0|0
200,152,9038,6,0,B|256:144|328:104,3,120,2|0|0|0
400,72,10638,6,0,B|456:112|456:184,1,120,2|0
376,232,11438,1,0
456,288,11838,1,0
368,328,12238,6,0,B|299:350|228:339,1,120,2|0
249,342,12838,1,2
160,312,13238,1,0
160,312,13438,1,2
176,216,13838,6,0,B|168:160|128:88,3,120,2|0|0|0
232,88,15438,6,0,B|240:144|280:216,3,120,2|0|0|0
368,184,17038,5,2
424,264,17438,1,0
352,328,17838,2,0,B|312:344|264:336,3,60,2|0|0|0
248,344,18638,5,2
168,296,19038,1,0
208,208,19438,1,2
288,264,19838,1,0
288,264,20238,5,6
256,80,23438,5,2
256,80,24238,1,2
96,192,25038,2,0,B|64:240|56:320,2,120,2|0|2
256,304,26638,5,2
256,304,27438,1,2
416,192,28238,1,2
416,192,28638,1,0
416,192,29038,1,2
288,56,29838,6,0,B|216:32|152:40,2,120,2|0|2
256,144,31038,1,0
224,232,31438,2,0,B|296:256|360:248,2,120,2|0|2
96,88,33038,6,0,B|40:136|32:200,1,120,2|0
128,192,33838,2,0,B|184:240|192:304,1,120,2|0
272,344,34638,5,4
272,344,35038,1,0
272,344,35438,1,6
272,344,35838,1,0
272,248,36238,6,0,B|272:168|312:112,1,120,2|0
336,40,37038,1,2
336,40,37438,1,0
400,112,37838,2,0,B|451:173|456:241,2,120,2|0|2
296,272,39438,6,0,B|216:272|160:304,2,120,2|0|2
272,176,40638,1,0
256,80,41038,2,0,B|178:100|116:84,2,120,2|0|2
448,56,42638,5,2
496,136,43038,1,0
440,216,43438,1,2
440,216,43838,1,0
360,264,44238,2,0,B|296:296|240:312,2,120,2|0|2
296,88,45838,6,0,B|228:110|177:138,2,120,2|0|2
328,176,47038,2,0,B|368:168|392:144,2,60,2|0|2
240,208,47838,1,2
240,208,48238,2,0,B|192:232|160:232,2,60,2|0|2
248,112,49038,5,6
168,64,49438,1,0
80,96,49838,1,0
56,192,50238,1,0
136,240,50638,5,2
224,208,51038,1,0
312,240,51438,2,0,B|352:264|376:264,4,60,2|0|0|0|2
344,152,52638,5,0
368,64,53038,2,0,B|312:32|232:40,1,120,2|0
160,40,53838,1,2
160,40,54238,1,0
112,120,54638,2,0,B|72:176|72:256,1,120,2|0
72,328,55438,5,2
72,328,55838,1,0
152,280,56238,2,0,B|223:273|290:298,1,120,2|0
368,304,57038,6,0,B|400:320|424:352,2,60,2|0|0
328,216,57838,1,2
328,216,58238,1,0
352,120,58638,6,0,B|281:126|233:107,3,120,2|0|2|0
192,192,60238,2,0,B|160:240|152:288,2,90,6|0|4
400,80,61838,5,2
400,80,62238,1,0
400,80,62638,1,0
400,80,63038,1,0
440,168,63438,5,2
440,168,63838,1,0
440,168,64238,1,0
440,168,64638,1,0
400,256,65038,6,0,B|360:312|296:312,1,120,2|0
200,320,65838,2,0,B|132:331|86:286,1,120,2|0
72,192,66638,6,0,B|112:135|176:136,1,120,2|0
172,136,67238,1,2
268,125,67638,1,0
268,125,67838,1,2
352,176,68238,5,2
352,176,68638,1,0
352,176,69038,1,2
352,176,69438,1,0
384,264,69838,5,2
384,264,70238,1,0
384,264,70638,1,2
384,264,71038,1,0
296,304,71438,6,0,B|224:336|152:328,3,120,2|0|2|0
104,272,73038,2,0,B|24:296,2,60,2|0|0
152,192,73838,2,0,B|216:176,2,60,2|0|0
88,120,74638,5,4
256,32,75438,5,2
256,32,75838,1,0
344,72,76238,1,2
344,72,76638,1,0
384,160,77038,2,0,B|368:216|320:270,1,120,2|0
312,280,77638,2,0,B|272:312|199:247|152:272,1,150,2|0
72,280,79038,5,0
48,184,79438,2,0,B|40:152|72:104,2,60,2|0|0
144,160,80238,1,2
144,160,80638,1,0
240,144,81038,6,0,B|200:96|216:24,2,120,2|0|2
336,128,82238,1,0
336,128,82638,2,0,B|384:176|366:242,2,120,2|0|2
280,208,83838,5,0
200,256,84238,2,0,B|152:304|85:286,1,120,2|2
120,200,85438,1,0
40,155,85838,1,2
81,68,86238,1,0
164,120,86638,1,2
164,120,87038,5,0
164,120,87438,1,2
256,192,87638,12,6,90238
