osu file format v7

[General]
AudioFilename: Kasane Teto - Fukkireta.mp3
AudioLeadIn: 1213
PreviewTime: -1
Countdown: 1
SampleSet: Soft
StackLeniency: 0.7
Mode: 0
LetterboxInBreaks: 1

[Editor]
DistanceSpacing: 0.800000011920929
BeatDivisor: 4
GridSize: 8

[Metadata]
Title:Fukkireta
Artist:Kirisame Marisa
Creator:HatsunoWind
Version:Hatsunoob
Source:
Tags:

[Difficulty]
HPDrainRate:5
CircleSize:4
OverallDifficulty:7
SliderMultiplier:1.8
SliderTickRate:1

[Events]
//Background and Video events
Video,-38,"X.flv"
0,0,"1.JPG"
//Break Periods
//Storyboard Layer 0 (Background)
//Storyboard Layer 1 (Fail)
//Storyboard Layer 2 (Pass)
//Storyboard Layer 3 (Foreground)
//Storyboard Sound Samples
//Background Colour Transformations
3,100,163,162,255

[TimingPoints]
1038,400,4,2,1,70,1,0
5838,-200,4,1,1,70,0,0
6438,-100,4,2,1,68,0,0
12238,-100,4,1,1,62,0,0
13638,-100,4,2,1,78,0,0
18638,-100,4,1,1,49,0,0
23438,-100,4,2,1,80,0,0
26238,-50,4,2,1,0,0,0
26438,-100,4,2,1,79,0,0
33438,-100,4,2,1,78,0,0
34638,-100,4,1,1,63,0,0
35838,-50,4,2,1,0,0,0
36038,-100,4,2,1,79,0,0
39038,-50,4,2,1,0,0,0
39238,-100,4,2,1,79,0,0
45438,-50,4,2,1,0,0,0
45638,-100,4,2,1,79,0,0
47438,-100,4,1,1,69,0,0
48838,-50,4,1,1,0,0,0
49038,-100,4,1,1,49,0,0
61838,-100,4,2,1,82,0,0
78238,-100,4,1,1,48,0,0
79438,-100,4,2,1,81,0,0
89838,-100,4,1,1,51,0,0

[HitObjects]
72,88,1038,2,0,B|88:32|136:24,1,90,2|2
152,96,1438,1,0
194,38,1638,1,0
246,87,1838,2,0,B|312:104|349:75,2,90,2|2|0
246,87,2438,1,0
281,149,2638,5,0
230,199,2838,1,2
184,143,3038,1,0
138,198,3238,1,0
84,246,3438,2,0,B|84:350,3,90,2|2|0|0
156,341,4238,6,0,B|199:366|245:342,1,90
245,271,4638,2,0,B|288:246|334:270,1,90,2|2
344,336,5038,2,0,B|387:361|433:337,1,90,0|0
448,272,5438,2,0,B|480:225|449:177,1,90,2|0
448,112,5838,2,0,B|412:93|408:129|373:92,2,67.5
340,185,6838,5,0
238,287,7038,1,0
381,290,7238,1,0
284,183,7438,1,2
284,183,7838,1,2
284,184,8038,1,0
284,183,8238,1,2
284,183,8438,2,0,B|336:136|336:80,1,90
376,168,8838,2,0,B|344:224|312:232,1,90,0|2
284,183,9238,5,0
160,120,9438,1,2
80,232,9638,1,0
80,232,9838,1,2
80,232,10038,2,0,B|88:272|64:344,1,90
144,328,10438,2,0,B|152:256|200:216,1,90,0|2
240,216,10838,5,0
264,352,11038,1,2
368,264,11238,1,0
368,264,11438,2,0,B|448:304|464:312,1,90,2|0
448,224,11838,1,0
448,152,12038,1,0
384,80,12238,6,0,B|288:32,1,90
224,136,12638,2,0,B|320:112,1,90
216,240,13038,1,0
184,176,13238,1,0
144,232,13438,1,0
176,296,13638,6,0,B|208:320|288:328,1,90,0|2
336,320,14038,1,0
328,168,14238,1,2
456,256,14438,1,0
464,184,14638,1,2
464,184,14838,2,0,B|496:128|464:80,2,90
400,160,15438,5,2
256,56,15638,1,0
264,224,15838,1,2
112,144,16038,1,0
112,72,16238,1,2
112,72,16438,2,0,B|56:48|0:88,2,90
176,104,17038,5,2
328,168,17238,1,0
328,320,17438,1,2
176,256,17638,1,0
248,256,17838,1,2
248,256,18038,2,0,B|288:280|336:256,2,90
128,200,18638,5,0
184,72,18838,1,0
328,72,19038,1,0
376,208,19238,1,0
376,208,19638,1,0
256,296,19838,1,0
256,192,20238,12,4,23038
392,72,23438,5,2
320,72,23638,2,0,B|216:72,1,90
216,144,24038,1,0
288,144,24238,2,0,B|400:144,1,90,2|0
448,144,24638,1,0
448,144,24838,2,0,B|472:192|448:240,1,90,0|2
392,192,25238,2,0,B|376:240|408:288,3,90
328,320,26038,1,0
328,320,26238,2,0,B|112:320,1,180
80,320,26638,5,2
80,320,26838,1,0
80,320,27038,1,0
80,248,27238,2,0,B|48:208|128:192|72:136,1,90,0|2
88,96,27638,1,0
88,96,27838,2,0,B|64:48|120:16,1,90
160,72,28238,1,2
224,96,28438,1,0
264,40,28638,1,0
328,64,28838,1,0
400,32,29038,2,0,B|400:152,1,90,2|0
400,192,29438,2,0,B|400:312,1,90
400,352,29838,5,2
400,352,30038,1,0
400,352,30238,1,0
328,352,30438,2,0,B|264:352|232:320,1,90,0|2
296,280,30838,1,0
336,216,31038,1,0
264,216,31238,2,0,B|200:136,1,90,0|2
192,216,31638,2,0,B|136:288,1,90
120,216,32038,2,0,B|56:136,1,90,0|2
56,216,32438,2,0,B|136:312,1,90,0|2
176,328,32838,1,0
240,336,33038,6,0,B|272:312|304:368|344:328,1,90,2|0
360,272,33438,1,0
400,336,33638,1,0
456,288,33838,1,2
344,32,34238,2,0,B|248:48,1,90
160,96,34638,5,0
256,144,34838,1,0
352,184,35038,1,0
256,232,35238,1,0
160,280,35438,1,0
256,336,35638,1,0
352,288,35838,2,0,B|432:224|448:88,1,180
440,64,36238,6,0,B|344:64,1,90,2|0
280,64,36638,1,0
280,64,36838,1,0
208,64,37038,2,0,B|152:64|88:112,1,90,2|0
64,128,37438,1,0
64,128,37638,1,0
56,200,37838,2,0,B|160:200,1,90,2|0
200,248,38238,2,0,B|304:248,1,90
336,304,38638,2,0,B|384:328|432:304,1,90,2|0
432,240,39038,2,0,B|432:32,1,180
360,64,39438,5,2
288,64,39638,1,0
216,56,39838,2,0,B|192:96|224:160,1,90
288,144,40238,1,2
288,64,40438,1,0
216,56,40638,2,0,B|112:56,1,90
120,120,41038,1,2
120,120,41238,1,0
120,120,41438,2,0,B|48:120,2,45
120,192,41838,2,2,B|80:240|136:296,1,90
160,328,42238,2,0,B|288:328,1,90
320,328,42638,5,2
376,280,42838,1,0
344,216,43038,1,0
376,280,43238,1,0
408,344,43438,2,0,B|456:328|440:240,1,90,2|0
440,200,43838,2,0,B|440:96,1,90
440,40,44238,1,2
392,96,44438,1,0
360,32,44638,2,0,B|264:32,1,90
200,32,45038,2,0,B|152:48|152:104,1,90,2|0
88,104,45438,2,0,B|16:192|72:320,1,180,0|0
112,320,45838,6,0,B|160:240,1,90,2|0
272,304,46238,2,0,B|280:184,1,90
304,96,46638,2,0,B|336:56|424:72,2,90,2|0|0
360,144,47238,1,0
424,176,47438,5,0
424,248,47638,1,0
360,208,47838,1,0
360,280,48038,1,0
424,320,48238,1,0
360,352,48438,1,0
360,352,48638,1,0
288,352,48838,2,0,B|88:352,1,180
64,296,49238,5,0
64,224,49438,1,0
64,152,49638,2,0,B|64:40,1,90
120,104,50038,2,0,B|184:24,1,90,0|0
224,88,50438,2,0,B|288:72,2,45
240,160,50838,6,0,B|352:184|424:104,1,180,0|0
464,168,51438,2,0,B|376:216,1,90
360,280,51838,2,0,B|448:232,1,90
456,304,52238,1,0
392,344,52438,1,0
320,344,52638,1,0
288,280,52838,2,0,B|272:232|232:200,1,90
192,152,53238,2,0,B|160:200|192:264,1,90
208,304,53638,1,0
208,304,53838,1,0
136,304,54038,2,0,B|96:336|40:304,3,90
48,240,54838,1,0
48,168,55038,1,0
48,96,55238,6,0,B|88:48|144:56,1,90
200,56,55638,2,0,B|264:40,2,45
224,120,56038,2,0,B|288:136|336:88,1,90
328,176,56438,1,0
376,232,56638,1,0
432,184,56838,2,0,B|472:248|408:296,1,90
392,328,57238,1,0
320,328,57438,1,0
248,328,57638,1,0
176,328,57838,2,0,B|112:256,1,90
224,176,58238,6,0,B|296:112,1,90
296,48,58638,2,0,B|240:16,2,45
368,64,59038,1,0
368,136,59238,1,0
432,176,59438,2,0,B|472:128,2,45
432,248,59838,1,0
368,288,60038,1,0
296,288,60238,2,0,B|200:312|96:272,1,180
80,216,60838,1,0
32,80,61238,5,0
88,32,61438,1,0
112,96,61638,1,0
168,48,61838,2,0,B|272:32,1,90,2|0
240,104,62238,2,0,B|344:152,1,90
328,72,62638,1,2
392,104,62838,1,0
448,144,63038,2,0,B|400:192|432:264,1,90
488,208,63438,5,2
420,225,63638,1,0
352,240,63838,1,0
280,248,64038,2,0,B|288:296|336:352,1,90,0|2
384,304,64438,5,0
352,240,64638,1,0
320,176,64838,1,0
304,104,65038,2,0,B|216:152,1,90,2|0
160,112,65438,2,0,B|144:232,1,90
136,272,65838,1,2
184,320,66038,6,0,B|240:344|304:320,1,90
336,304,66438,1,0
336,232,66638,2,0,B|336:136,1,90,2|0
336,72,67038,1,0
336,72,67238,1,0
192,72,67638,1,0
192,72,67838,1,0
192,144,68038,6,0,B|136:144|72:176,1,90,0|2
64,216,68438,1,0
88,288,68638,1,0
136,232,68838,2,0,B|184:272|144:336,1,90,0|2
376,232,69238,2,0,B|328:272|368:336,1,90
424,288,69638,1,0
448,216,69838,1,2
456,144,70038,2,0,B|408:96|352:96,1,90
384,176,70438,5,0
320,144,70638,1,2
248,144,70838,2,0,B|152:144,2,90
248,216,71438,5,2
248,288,71638,1,0
312,256,71838,1,0
248,216,72038,1,0
248,144,72238,1,2
192,96,72438,1,0
256,64,72638,2,0,B|352:24,1,90
352,104,73038,2,0,B|448:64,2,90,2|0|0
320,168,73638,2,0,B|320:224|416:240,1,90,0|2
400,160,74038,1,0
448,216,74238,1,0
344,312,74638,1,2
448,104,75238,6,0,B|232:104,1,180,0|2
192,104,75838,1,0
232,168,76038,1,2
160,168,76238,1,0
120,104,76438,5,2
160,168,76638,1,0
88,168,76838,1,2
160,168,77038,1,0
120,224,77238,1,2
160,168,77438,1,0
40,168,77638,2,0,B|56:256|136:296|184:304,1,180,2|0
232,304,78238,6,0,B|288:232,1,90
416,264,78638,2,0,B|408:144,1,90
400,104,79038,1,0
336,64,79238,1,0
264,64,79438,2,0,B|208:40|152:72,2,90,2|0|0
256,136,80038,2,0,B|184:216,1,90,0|2
152,264,80438,1,0
208,312,80638,1,0
272,288,80838,5,0
272,288,81038,1,2
272,288,81238,1,0
272,288,81438,2,0,B|408:288|416:176,1,180,0|2
440,136,82038,5,0
472,72,82238,1,0
416,32,82438,1,0
344,32,82638,2,0,B|288:8|232:40,3,90,2|0|0|0
320,176,83638,2,0,B|352:224|296:272,1,90
248,224,84038,1,0
192,264,84238,1,2
144,216,84438,2,0,B|80:192|80:48|80:48,1,180
152,56,85038,2,0,B|248:56,2,90
176,128,85638,5,0
248,128,85838,1,2
248,200,86038,1,0
320,200,86238,1,0
320,272,86438,1,0
392,272,86638,1,2
392,200,86838,2,0,B|392:104,2,90
256,192,87438,12,0,90038
256,192,90238,5,0
