osu file format v14

[General]
AudioFilename: optc.mp3
AudioLeadIn: 2000
PreviewTime: 48421
Countdown: 0
SampleSet: Soft
StackLeniency: 0.7
Mode: 0
LetterboxInBreaks: 0
WidescreenStoryboard: 1

[Editor]
DistanceSpacing: 0.5
BeatDivisor: 4
GridSize: 4
TimelineZoom: 1.6

[Metadata]
Title:Sleep zzz...
TitleUnicode:Sleep zzz...
Artist:Kirisaki Chitoge (Touyama Nao)
ArtistUnicode:桐崎千棘 (東山奈央)
Creator:Zero__wind
Version:Insane
Source:ニセコイ:
Tags:Nisekoi False Fake Love Second season ED3 Ending 桐崎千棘 SHAFT
BeatmapID:692627
BeatmapSetID:309873

[Difficulty]
HPDrainRate:7
CircleSize:4
OverallDifficulty:7.5
ApproachRate:8.3
SliderMultiplier:2.5
SliderTickRate:2

[Events]
//Background and Video events
0,0,"chitoge.jpg",0,0
Video,0,"optc.flv"
//Break Periods
//Storyboard Layer 0 (Background)
//Storyboard Layer 1 (Fail)
//Storyboard Layer 2 (Pass)
//Storyboard Layer 3 (Foreground)
//Storyboard Sound Samples

[TimingPoints]
-1200,606.060606060606,4,1,1,40,1,0
1224,-100,4,1,1,60,0,0
5921,-100,4,1,1,30,0,0
6072,-100,4,1,1,60,0,0
7133,-100,4,1,1,30,0,0
7284,-100,4,1,1,60,0,0
9103,-100,4,1,1,80,0,0
9406,-100,4,1,1,60,0,0
10012,-75.187969924812,4,1,1,60,0,0
10315,-100,4,1,1,60,0,0
10921,-100,4,2,1,70,0,0
11224,-100,4,2,1,50,0,0
15618,-100,4,2,1,30,0,0
15769,-100,4,2,1,50,0,0
16830,-100,4,2,1,30,0,0
16981,-100,4,2,1,50,0,0
19709,-75.187969924812,4,2,1,70,0,0
20012,-100,4,2,1,50,0,0
25315,-100,4,2,1,30,0,0
25466,-100,4,2,1,50,0,0
26527,-100,4,2,1,30,0,0
26678,-100,4,2,1,50,0,0
28496,-100,4,2,1,70,0,0
28799,-100,4,2,1,50,0,0
30315,-133.333333333333,4,2,1,70,0,0
30618,-133.333333333333,4,2,1,40,0,0
48345,-100,4,2,1,30,0,0
48496,-100,4,2,1,50,0,0
49709,-100,4,1,1,60,0,1
51072,-100,4,1,1,40,0,1
51224,-100,4,1,1,60,0,1
55921,-100,4,1,1,40,0,1
56072,-100,4,1,1,60,0,1
60769,-100,4,1,1,40,0,1
60921,-100,4,1,1,60,0,1
63951,-100,4,1,1,30,0,1
64103,-100,4,1,1,40,0,1
64254,-100,4,1,1,60,0,1
65315,-100,4,1,1,30,0,1
65466,-100,4,1,1,60,0,1
65618,-100,4,1,1,40,0,1
65769,-100,4,1,1,60,0,1
67284,-75.187969924812,4,1,1,80,0,1
67587,-100,4,1,1,60,0,1
69103,-100,4,1,1,70,0,1
69406,-100,4,1,1,60,0,1
70466,-100,4,1,1,40,0,1
70618,-100,4,1,1,60,0,1
75315,-100,4,1,1,40,0,1
75466,-100,4,1,1,60,0,1
80163,-100,4,1,1,40,0,1
80315,-100,4,1,1,60,0,1
83345,-100,4,1,1,40,0,1
83648,-100,4,1,1,60,0,1
85012,-100,4,1,1,40,0,1
85163,-100,4,1,1,60,0,1
88496,-100,4,2,1,40,0,0

[Colours]
Combo1 : 214,137,143
Combo2 : 69,142,224
Combo3 : 240,186,104
Combo4 : 148,117,213

[HitObjects]
256,80,12,5,2,2:0:0:0:
160,196,315,2,0,P|159:236|168:264,1,62.5,2|0,2:0|0:0,0:0:0:0:
300,208,618,1,8,2:0:0:0:
384,156,769,1,8,2:0:0:0:
388,256,921,2,0,P|389:296|380:324,1,62.5,0|0,0:0|2:0,0:0:0:0:
176,288,1224,5,4,0:2:0:0:
271,371,1527,1,0,0:0:0:0:
472,303,1830,2,0,P|484:236|449:180,1,125,2|0,0:0|0:0,0:0:0:0:
324,200,2234,1,0,2:0:0:0:
312,204,2335,1,0,2:0:0:0:
300,208,2436,6,0,L|228:200,1,62.5,2|8,2:0|2:0,0:0:0:0:
184,128,2739,1,0,0:0:0:0:
232,52,2890,2,0,P|268:39|292:40,1,62.5,2|2,2:0|0:0,0:0:0:0:
112,180,3193,2,0,P|77:163|61:146,1,62.5,2|0,2:0|0:0,0:0:0:0:
232,176,3446,1,0,2:0:0:0:
236,188,3547,1,0,2:0:0:0:
237,201,3648,6,0,L|228:336,1,125,2|0,2:0|2:0,0:0:0:0:
24,300,4254,1,2,0:0:0:0:
112,180,4557,1,0,1:0:0:0:
172,132,4709,6,0,P|150:109|140:80,1,62.5,2|0,2:0|2:0,0:0:0:0:
221,260,5012,2,0,P|191:252|168:231,1,62.5,2|4,2:0|0:2,0:0:0:0:
324,350,5315,2,0,P|294:358|264:352,1,62.5,2|2,2:0|0:0,0:0:0:0:
300,188,5618,1,0,2:0:0:0:
388,140,5769,2,0,L|456:144,1,62.5,2|0,2:0|0:0,0:0:0:0:
508,192,5996,1,0,0:0:0:0:
508,192,6072,5,2,0:2:0:0:
364,256,6375,1,0,1:0:0:0:
500,60,6678,2,0,L|375:52,1,125,2|0,0:0|0:0,0:0:0:0:
240,72,7133,1,0,0:0:0:0:
240,72,7209,1,0,0:0:0:0:
240,72,7284,6,0,P|235:110|244:140,1,62.5,2|8,2:0|2:0,0:0:0:0:
288,264,7587,1,0,1:0:0:0:
200,220,7739,2,0,L|128:224,1,62.5,2|2,2:0|0:0,0:0:0:0:
288,264,8042,2,0,L|360:268,1,62.5,2|0,2:0|0:0,0:0:0:0:
240,341,8294,1,0,2:0:0:0:
228,344,8395,1,0,2:0:0:0:
216,348,8496,5,2,2:0:0:0:
64,349,8800,1,0,0:0:0:0:
164,120,9103,2,0,P|140:216|144:264,1,125,4|0,0:2|2:0,0:0:0:0:
252,192,9557,6,0,P|276:164|304:148,1,62.5,2|0,2:0|0:0,0:0:0:0:
372,112,9860,1,2,2:0:0:0:
264,24,10012,2,0,L|180:24,1,83.1249965753557,4|2,1:2|2:0,0:0:0:0:
36,80,10315,1,8,2:0:0:0:
64,276,10466,1,8,2:0:0:0:
189,192,10618,2,0,L|252:192,1,62.5,8|0,3:0|2:0,0:0:0:0:
340,240,10921,6,0,P|356:308|332:368,1,125,4|0,1:2|1:0,0:0:0:0:
114,359,11527,1,8,0:0:0:0:
64,276,11678,1,2,0:0:0:0:
84,180,11830,2,0,L|84:136,2,41.6666666666667,0|0|0,1:0|0:0|0:0,0:0:0:0:
152,232,12133,6,0,P|187:233|216:228,1,62.5,2|8,0:0|0:0,0:0:0:0:
243,131,12436,2,0,P|293:165|313:224,1,125,0|8,1:0|0:0,0:0:0:0:
296,324,12890,1,0,0:0:0:0:
396,316,13042,2,0,L|440:316,2,41.6666666666667,0|0|0,1:0|0:0|0:0,0:0:0:0:
400,232,13345,5,0,0:0:0:0:
484,240,13496,2,0,P|508:184|484:120,1,125,2|0,0:0|0:0,0:0:0:0:
368,32,13951,1,8,0:0:0:0:
348,128,14103,2,0,P|384:128|417:117,1,62.5,2|0,0:0|1:0,0:0:0:0:
280,56,14406,2,0,L|216:40,1,62.5,2|0,0:0|0:0,0:0:0:0:
240,148,14709,5,2,0:0:0:0:
308,243,14860,2,0,P|251:266|190:253,1,125,4|8,1:2|0:0,0:0:0:0:
84,56,15466,1,0,1:0:0:0:
128,144,15618,1,0,1:0:0:0:
128,144,15693,1,0,1:0:0:0:
128,144,15769,5,0,1:0:0:0:
56,212,15921,2,0,P|48:253|52:280,1,62.5,2|0,0:0|1:0,0:0:0:0:
112,356,16224,1,2,0:0:0:0:
244,192,16375,1,8,0:0:0:0:
304,255,16527,2,0,P|278:273|248:280,1,62.5,2|0,0:0|1:0,0:0:0:0:
150,243,16830,2,0,L|110:251,2,31.25,0|0|0,1:0|1:0|0:0,0:0:0:0:
208,100,17133,5,2,0:0:0:0:
288,132,17284,2,0,L|413:129,1,125,0|8,1:0|0:0,0:0:0:0:
220,260,17890,1,0,1:0:0:0:
216,272,17991,1,0,0:0:0:0:
212,284,18092,1,0,0:0:0:0:
208,296,18193,5,0,0:0:0:0:
304,328,18345,2,0,P|343:321|363:312,1,62.5,2|0,0:0|1:0,0:0:0:0:
448,256,18648,1,2,0:0:0:0:
420,132,18800,1,8,0:0:0:0:
352,83,18951,2,0,P|352:51|360:15,2,62.5,2|0|0,0:0|0:0|0:0,0:0:0:0:
328,188,19406,2,0,L|248:192,1,62.5,0|0,1:0|0:0,0:0:0:0:
384,224,19709,6,0,L|165:234,1,166.249993150711,4|8,1:2|0:0,0:0:0:0:
116,120,20163,1,8,0:0:0:0:
64,264,20315,2,0,L|60:336,1,62.5,4|0,1:3|0:0,0:0:0:0:
172,324,20618,6,0,P|229:311|288:336,1,125,4|0,1:2|1:0,0:0:0:0:
376,256,21072,1,2,0:0:0:0:
324,112,21224,1,8,0:0:0:0:
268,168,21375,2,0,L|268:232,1,62.5,2|0,0:0|1:0,0:0:0:0:
176,216,21628,1,0,0:0:0:0:
164,220,21729,1,0,0:0:0:0:
152,224,21830,5,0,0:0:0:0:
184,104,21981,1,8,0:0:0:0:
76,192,22133,2,0,P|76:256|120:300,1,125,0|8,1:0|0:0,0:0:0:0:
268,168,22587,1,0,0:0:0:0:
300,288,22739,1,0,1:0:0:0:
296,300,22840,1,0,0:0:0:0:
284,304,22941,1,0,0:0:0:0:
272,308,23042,5,0,0:0:0:0:
176,228,23193,2,0,P|161:147|185:96,1,125,2|2,0:0|0:0,0:0:0:0:
296,32,23648,1,8,0:0:0:0:
376,56,23799,2,0,L|444:56,1,62.5,2|0,0:0|1:0,0:0:0:0:
284,120,24103,2,0,L|332:168,1,62.5,2|0,0:0|0:0,0:0:0:0:
200,24,24406,5,2,0:0:0:0:
64,104,24557,2,0,L|64:240,1,125,4|8,1:2|0:0,0:0:0:0:
328,164,25163,1,2,0:0:0:0:
332,260,25315,1,0,1:0:0:0:
332,260,25390,1,0,1:0:0:0:
332,260,25466,5,0,1:0:0:0:
248,215,25618,2,0,P|212:212|188:222,1,62.5,2|0,0:0|1:0,0:0:0:0:
232,320,25921,1,2,0:0:0:0:
420,360,26072,1,8,0:0:0:0:
488,312,26224,2,0,P|488:277|486:248,1,62.5,2|0,0:0|1:0,0:0:0:0:
420,160,26527,1,0,1:0:0:0:
420,160,26603,1,0,1:0:0:0:
420,160,26678,5,0,0:0:0:0:
468,60,26830,1,2,0:0:0:0:
328,164,26981,2,0,P|264:156|200:136,1,125,0|8,1:0|0:0,0:0:0:0:
24,12,27587,2,0,L|0:48,3,41.6666666666667,2|0|0|2,1:2|0:0|0:0|0:0,0:0:0:0:
92,247,28193,5,2,1:2:0:0:
136,331,28345,1,2,0:0:0:0:
160,183,28496,2,0,P|212:135|284:127,1,125,4|2,1:2|0:0,0:0:0:0:
320,344,28951,1,0,0:0:0:0:
392,300,29103,6,0,P|423:296|453:288,1,62.5,2|0,1:2|0:0,0:0:0:0:
309,227,29406,2,0,P|278:224|248:215,1,62.5,4|0,1:2|0:0,0:0:0:0:
452,180,29709,1,8,1:2:0:0:
496,36,29860,1,8,1:2:0:0:
316,64,30012,2,0,P|288:49|263:30,1,62.5,4|0,1:3|0:0,0:0:0:0:
104,128,30315,6,0,P|146:110|193:113,1,93.7500035762788,4|0,1:2|0:0,0:0:0:0:
309,227,30921,1,2,0:0:0:0:
192,340,31224,2,0,L|96:332,1,93.7500035762788,0|2,1:0|0:0,0:0:0:0:
158,184,31830,1,0,1:0:0:0:
307,311,32133,2,0,P|353:301|385:267,1,93.7500035762788,8|0,0:0|0:0,0:0:0:0:
388,188,32587,1,0,0:0:0:0:
388,188,32739,6,0,L|272:192,1,93.7500035762788,2|0,1:2|0:0,0:0:0:0:
156,260,33345,1,2,0:0:0:0:
48,144,33648,2,0,P|48:92|72:60,1,93.7500035762788,0|2,1:0|0:0,0:0:0:0:
264,52,34254,1,4,1:2:0:0:
236,256,34557,1,4,1:3:0:0:
84,292,34860,2,0,L|28:288,1,46.8750017881394
144,352,35163,6,0,L|256:344,1,93.7500035762788,2|0,1:2|0:0,0:0:0:0:
380,172,35769,1,2,0:0:0:0:
420,332,36072,2,0,P|440:284|444:232,1,93.7500035762788,0|2,1:0|0:0,0:0:0:0:
460,164,36527,1,0,0:0:0:0:
380,172,36678,2,0,P|353:169|332:160,1,46.8750017881394,0|0,1:0|0:0,0:0:0:0:
264,88,36981,2,0,L|252:212,1,93.7500035762788,8|0,0:0|0:0,0:0:0:0:
276,260,37436,1,0,0:0:0:0:
276,260,37587,6,0,P|232:296|180:304,1,93.7500035762788,2|0,1:2|0:0,0:0:0:0:
40,280,38193,1,2,0:0:0:0:
112,136,38496,1,0,1:0:0:0:
112,136,38648,2,0,L|116:112,2,23.4375008940697,0|0|2,0:0|0:0|0:0,0:0:0:0:
88,210,38951,1,0,0:0:0:0:
121,281,39103,1,4,1:2:0:0:
328,200,39406,2,0,L|388:192,1,46.8750017881394,4|0,1:3|0:0,0:0:0:0:
368,288,39709,2,0,L|428:280,1,46.8750017881394,0|0,1:0|0:0,0:0:0:0:
448,128,40012,5,4,1:2:0:0:
296,72,40315,2,0,L|184:57,1,93.7500035762788,0|2,0:0|0:0,0:0:0:0:
400,48,40921,2,0,P|452:36|488:8,1,93.7500035762788,0|2,1:0|0:0,0:0:0:0:
508,200,41527,1,0,1:0:0:0:
352,304,41830,2,0,P|280:308|240:296,1,93.7500035762788,8|0,0:0|0:0,0:0:0:0:
212,240,42284,1,0,0:0:0:0:
212,240,42436,6,0,L|144:228,1,46.8750017881394,2|0,1:2|0:0,0:0:0:0:
116,312,42739,2,0,L|48:324,2,46.8750017881394,0|0|2,0:0|0:0|0:0,0:0:0:0:
72,112,43345,2,0,P|52:164|64:208,1,93.7500035762788,0|2,1:0|0:0,0:0:0:0:
232,48,43951,1,4,1:2:0:0:
4,16,44254,1,8,1:2:0:0:
144,168,44557,2,0,L|200:164,1,46.8750017881394,8|0,0:0|0:0,0:0:0:0:
280,128,44860,6,0,P|332:116|372:128,1,93.7500035762788,2|0,1:2|0:0,0:0:0:0:
456,256,45466,1,2,0:0:0:0:
352,372,45769,1,0,0:0:0:0:
352,372,45921,1,0,0:0:0:0:
352,372,46072,2,0,L|248:376,1,93.7500035762788,2|0,1:2|0:0,0:0:0:0:
152,304,46678,1,0,0:0:0:0:
264,240,46981,1,0,0:0:0:0:
212,168,47133,1,0,0:0:0:0:
208,152,47209,1,0,0:0:0:0:
212,136,47284,1,4,0:0:0:0:
212,136,48345,5,0,1:0:0:0:
208,152,48420,1,0,1:0:0:0:
212,168,48496,1,8,1:2:0:0:
291,266,48648,1,8,1:2:0:0:
140,304,48799,1,0,1:0:0:0:
274,199,48951,1,8,0:0:0:0:
248,320,49103,2,0,L|248:384,1,62.5,4|8,3:0|3:0,0:0:0:0:
104,208,49406,2,0,L|104:144,1,62.5,4|0,3:0|0:0,0:0:0:0:
272,24,49709,6,0,L|396:36,1,125,4|0,0:2|0:0,0:0:0:0:
472,112,50163,1,0,2:0:0:0:
384,180,50315,2,0,P|398:207|423:227,1,62.5,8|0,0:0|2:0,0:0:0:0:
288,120,50618,2,0,P|227:134|192:188,1,125,2|0,0:2|2:0,0:0:0:0:
208,316,51072,1,8,2:0:0:0:
280,360,51224,2,0,L|360:368,1,62.5,0|0,0:0|2:0,0:0:0:0:
88,356,51527,1,8,0:0:0:0:
272,200,51830,6,0,P|297:143|277:85,1,125,2|0,0:2|2:0,0:0:0:0:
213,16,52284,1,0,2:0:0:0:
129,56,52436,2,0,P|89:56|61:48,1,62.5,2|0,2:0|2:0,0:0:0:0:
84,150,52739,2,0,L|209:140,1,125,8|0,0:0|0:0,0:0:0:0:
392,136,53193,1,0,2:0:0:0:
356,212,53345,2,0,P|352:252|356:280,1,62.5,2|0,2:0|2:0,0:0:0:0:
496,64,53648,2,0,L|368:48,1,125,4|8,0:2|0:0,0:0:0:0:
283,16,54103,1,0,2:0:0:0:
211,77,54254,2,0,L|208:140,1,62.5,2|0,2:0|2:0,0:0:0:0:
188,312,54557,6,0,P|114:325|68:304,1,125
16,220,55012,1,0,2:0:0:0:
80,144,55163,2,0,L|80:80,1,62.5,8|0,0:0|2:0,0:0:0:0:
132,252,55466,2,0,L|132:380,1,125,2|0,0:2|2:0,0:0:0:0:
260,336,55921,1,8,2:0:0:0:
340,308,56072,2,0,L|412:304,1,62.5,0|0,0:0|2:0,0:0:0:0:
492,156,56375,1,8,0:0:0:0:
212,160,56678,6,0,P|241:213|298:237,1,125,2|0,0:2|2:0,0:0:0:0:
307,140,57133,1,0,2:0:0:0:
348,48,57284,2,0,L|424:60,1,62.5,0|0,0:0|2:0,0:0:0:0:
392,232,57587,1,8,0:0:0:0:
228,268,57739,1,0,2:0:0:0:
299,200,57890,2,0,P|308:171|307:140,1,62.5,2|0,2:0|2:0,0:0:0:0:
180,156,58193,2,0,L|112:148,1,62.5,0|0,0:0|2:0,0:0:0:0:
236,28,58496,1,4,0:2:0:0:
320,292,58799,2,0,L|312:360,1,62.5,8|0,0:0|0:0,0:0:0:0:
96,324,59103,2,0,L|164:332,1,62.5,8|0,3:0|3:0,0:0:0:0:
24,188,59406,6,0,P|12:112|40:68,1,125,4|0,0:2|0:0,0:0:0:0:
184,12,59860,1,0,2:0:0:0:
272,56,60012,2,0,P|308:60|332:52,1,62.5,8|0,0:0|2:0,0:0:0:0:
224,153,60315,2,0,P|163:162|108:136,1,125,2|0,0:2|2:0,0:0:0:0:
175,84,60769,1,8,2:0:0:0:
168,248,60921,2,0,L|152:324,1,62.5,0|0,0:0|2:0,0:0:0:0:
24,224,61224,1,8,0:0:0:0:
260,380,61527,6,0,P|330:373|374:342,1,125,2|0,0:2|2:0,0:0:0:0:
468,232,61981,1,0,2:0:0:0:
440,152,62133,2,0,L|444:88,1,62.5,2|0,2:0|2:0,0:0:0:0:
376,248,62436,1,8,0:0:0:0:
216,128,62739,2,0,P|292:124|340:132,1,125,2|0,0:2|2:0,0:0:0:0:
188,276,63193,1,0,2:0:0:0:
104,208,63345,2,0,L|104:80,1,125,4|8,0:2|0:0,0:0:0:0:
184,28,63799,1,2,2:0:0:0:
276,192,63951,1,0,0:0:0:0:
280,199,64027,1,0,0:0:0:0:
284,206,64103,1,0,0:0:0:0:
288,214,64178,1,0,0:0:0:0:
288,214,64254,6,0,L|296:284,1,62.5,0|0,0:0|2:0,0:0:0:0:
164,300,64557,2,0,L|92:296,1,62.5,0|0,0:0|2:0,0:0:0:0:
184,180,64860,1,8,0:0:0:0:
332,376,65163,2,0,P|376:374|408:356,1,62.5,2|0,0:2|0:0,0:0:0:0:
424,344,65390,1,0,0:0:0:0:
436,308,65466,2,0,L|432:240,1,62.5,0|8,0:0|2:0,0:0:0:0:
412,136,65769,1,0,0:0:0:0:
295,276,66072,1,8,0:0:0:0:
120,332,66375,6,0,P|54:335|1:313,1,125,2|0,0:2|2:0,0:0:0:0:
60,140,66830,1,0,2:0:0:0:
144,192,66981,2,0,P|179:193|208:180,1,62.5,2|2,0:2|0:2,0:0:0:0:
128,16,67284,6,0,L|304:32,1,166.249993150711,4|2,0:2|2:0,0:0:0:0:
404,92,67739,1,2,2:0:0:0:
392,176,67890,2,0,P|392:216|400:240,1,62.5,0|0,0:0|3:0,0:0:0:0:
256,168,68193,2,0,P|224:152|196:152,1,62.5,0|0,0:0|3:0,0:0:0:0:
336,360,68496,2,0,L|400:348,1,62.5,4|0,0:3|0:0,0:0:0:0:
208,296,68800,2,0,P|180:310|149:312,1,62.5,8|0,0:3|3:0,0:0:0:0:
16,100,69103,6,0,P|56:32|120:8,1,125,4|0,0:2|0:0,0:0:0:0:
203,16,69557,1,0,2:0:0:0:
300,64,69709,2,0,L|364:60,1,62.5,8|0,0:0|2:0,0:0:0:0:
236,152,70012,2,0,L|111:159,1,125,2|0,0:2|2:0,0:0:0:0:
136,284,70466,1,8,2:0:0:0:
216,316,70618,2,0,P|244:284|252:260,1,62.5,0|0,0:0|2:0,0:0:0:0:
232,81,70921,1,8,0:0:0:0:
24,232,71224,6,0,L|28:360,1,125,2|0,2:2|2:0,2:0:0:0:
136,284,71678,1,0,2:0:0:0:
216,240,71830,2,0,P|284:256|348:224,1,125,2|8,2:0|0:0,0:0:0:0:
148,108,72436,2,0,L|84:116,1,62.5,0|0,0:0|2:0,0:0:0:0:
272,164,72739,2,0,P|290:125|291:101,1,62.5,2|0,2:0|2:0,0:0:0:0:
124,12,73042,2,0,L|252:28,1,125,4|8,0:2|0:0,0:0:0:0:
416,53,73496,1,0,2:0:0:0:
420,144,73648,2,0,P|423:185|416:212,1,62.5,2|0,2:0|2:0,0:0:0:0:
272,164,73951,6,0,P|210:158|160:192,1,125
60,128,74406,1,0,2:0:0:0:
36,228,74557,2,0,L|20:296,1,62.5,8|0,0:0|2:0,0:0:0:0:
164,296,74860,2,0,L|296:308,1,125,2|0,0:2|2:0,0:0:0:0:
380,264,75315,1,8,2:0:0:0:
448,336,75466,2,0,P|471:309|479:275,1,62.5,0|0,0:0|2:0,0:0:0:0:
488,92,75769,1,8,0:0:0:0:
256,184,76072,6,0,L|124:196,1,125,2|0,0:2|2:0,0:0:0:0:
60,128,76527,1,0,2:0:0:0:
104,40,76678,2,0,P|136:25|164:24,1,62.5,2|2,0:2|2:0,0:0:0:0:
196,216,76981,2,0,L|176:284,1,62.5,8|0,0:0|2:0,0:0:0:0:
64,228,77284,1,2,2:0:0:0:
172,108,77436,6,0,P|208:104|232:111,1,62.5,4|0,0:2|2:0,0:0:0:0:
336,208,77739,1,8,0:2:0:0:
452,96,77890,2,0,L|456:24,1,62.5,4|0,0:2|2:0,0:0:0:0:
448,212,78193,2,0,P|476:224|508:224,1,62.5,8|0,0:0|3:0,0:0:0:0:
396,352,78496,2,0,P|362:333|348:312,1,62.5,4|0,0:3|0:0,0:0:0:0:
312,108,78800,6,0,P|248:140|232:192,1,125,4|0,0:2|0:0,0:0:0:0:
216,292,79254,1,0,2:0:0:0:
128,352,79406,2,0,L|48:348,1,62.5,8|0,0:0|2:0,0:0:0:0:
160,228,79709,2,0,L|13:220,1,125,2|0,0:2|2:0,0:0:0:0:
160,228,80163,1,8,2:0:0:0:
244,168,80315,2,0,P|264:131|268:104,1,62.5,0|0,0:0|2:0,0:0:0:0:
128,24,80618,1,8,0:0:0:0:
256,264,80921,6,0,P|308:308|373:308,1,125,2|0,0:2|2:0,0:0:0:0:
456,272,81375,1,0,2:0:0:0:
448,168,81527,2,0,L|452:124,2,41.6666666666667,0|0|0,2:0|0:0|0:0,0:0:0:0:
368,159,81830,2,0,L|244:167,1,125,8|0,0:0|0:0,0:0:0:0:
140,100,82284,1,0,2:0:0:0:
56,116,82436,2,0,P|41:147|41:179,1,62.5,2|0,2:0|2:0,0:0:0:0:
124,16,82739,1,4,0:2:0:0:
116,296,83042,2,0,P|72:304|44:300,1,62.5,8|0,0:0|2:0,0:0:0:0:
176,204,83345,1,4,2:0:0:0:
252,256,83496,1,0,0:0:0:0:
252,348,83648,6,0,P|289:343|319:320,1,62.5,2|0,0:2|2:0,0:0:0:0:
392,228,83951,2,0,L|388:160,1,62.5,0|0,0:0|2:0,0:0:0:0:
304,28,84254,1,8,0:0:0:0:
176,204,84557,2,0,P|240:188|288:152,1,125,2|0,1:2|2:0,0:0:0:0:
216,48,85012,1,8,2:0:0:0:
304,28,85163,2,0,L|384:32,1,62.5,0|0,0:0|2:0,0:0:0:0:
504,48,85466,1,8,0:0:0:0:
392,228,85769,6,0,P|392:320|400:372,1,125,2|0,0:2|2:0,0:0:0:0:
280,296,86224,1,0,2:0:0:0:
224,184,86375,2,0,P|228:148|228:120,1,62.5,2|2,2:0|0:2,0:0:0:0:
60,200,86678,1,4,0:2:0:0:
116,360,86830,1,4,0:3:0:0:
200,268,86981,1,8,0:3:0:0:
68,287,87133,1,4,0:3:0:0:
200,268,87284,6,0,P|264:268|328:256,1,125
408,180,87739,1,0,2:0:0:0:
304,120,87890,2,0,L|308:56,1,62.5
424,300,88193,2,0,L|428:364,1,62.5,8|4,0:3|0:3,0:0:0:0:
512,168,88496,1,0,3:0:0:0:
