osu file format v14

[General]
AudioFilename: optc.mp3
AudioLeadIn: 2000
PreviewTime: 48421
Countdown: 0
SampleSet: Normal
StackLeniency: 0.7
Mode: 0
LetterboxInBreaks: 0
WidescreenStoryboard: 1

[Editor]
DistanceSpacing: 0.5
BeatDivisor: 4
GridSize: 4
TimelineZoom: 1.6

[Metadata]
Title:Sleep zzz...
TitleUnicode:Sleep zzz...
Artist:Kirisaki Chitoge (Touyama Nao)
ArtistUnicode:桐崎千棘 (東山奈央)
Creator:Zero__wind
Version:Hard
Source:ニセコイ:
Tags:Nisekoi False Fake Love Second season ED3 Ending 桐崎千棘 SHAFT
BeatmapID:693521
BeatmapSetID:309873

[Difficulty]
HPDrainRate:6
CircleSize:4
OverallDifficulty:6
ApproachRate:7
SliderMultiplier:2.1
SliderTickRate:2

[Events]
//Background and Video events
0,0,"chitoge.jpg",0,0
Video,0,"optc.flv"
//Break Periods
//Storyboard Layer 0 (Background)
//Storyboard Layer 1 (Fail)
//Storyboard Layer 2 (Pass)
//Storyboard Layer 3 (Foreground)
//Storyboard Sound Samples

[TimingPoints]
-1200,606.060606060606,4,1,1,40,1,0
1224,-100,4,1,1,60,0,0
5921,-100,4,1,1,30,0,0
6072,-100,4,1,1,60,0,0
7133,-100,4,1,1,30,0,0
7284,-100,4,1,1,60,0,0
9103,-100,4,1,1,80,0,0
9406,-100,4,1,1,60,0,0
10920,-100,4,2,1,70,0,0
11224,-100,4,2,1,50,0,0
15618,-100,4,2,1,30,0,0
15769,-100,4,2,1,50,0,0
16830,-100,4,2,1,30,0,0
16981,-100,4,2,1,50,0,0
19709,-83.3333333333333,4,2,1,70,0,0
20012,-100,4,2,1,50,0,0
25315,-100,4,2,1,30,0,0
25466,-100,4,2,1,50,0,0
26527,-100,4,2,1,30,0,0
26678,-100,4,2,1,50,0,0
28496,-100,4,2,1,70,0,0
28799,-100,4,2,1,50,0,0
30315,-133.333333333333,4,2,1,70,0,0
30618,-133.333333333333,4,2,1,40,0,0
48496,-100,4,2,1,50,0,0
49709,-100,4,1,1,60,0,1
51072,-100,4,1,1,40,0,1
51224,-100,4,1,1,60,0,1
55921,-100,4,1,1,40,0,1
56072,-100,4,1,1,60,0,1
60769,-100,4,1,1,40,0,1
60921,-100,4,1,1,60,0,1
63951,-100,4,1,1,30,0,1
64103,-100,4,1,1,40,0,1
64254,-100,4,1,1,60,0,1
65618,-100,4,1,1,40,0,1
65769,-100,4,1,1,60,0,1
67284,-83.3333333333333,4,1,1,80,0,1
67587,-100,4,1,1,60,0,1
69103,-100,4,1,1,70,0,1
69406,-100,4,1,1,60,0,1
70466,-100,4,1,1,40,0,1
70618,-100,4,1,1,60,0,1
75315,-100,4,1,1,40,0,1
75466,-100,4,1,1,60,0,1
80163,-100,4,1,1,40,0,1
80315,-100,4,1,1,60,0,1
83345,-100,4,1,1,40,0,1
83648,-100,4,1,1,60,0,1
84709,-100,4,1,1,40,0,1
84860,-100,4,1,1,60,0,1
85012,-100,4,1,1,40,0,1
85163,-100,4,1,1,60,0,1
88496,-100,4,2,1,40,0,0

[Colours]
Combo1 : 214,137,143
Combo2 : 69,142,224
Combo3 : 240,186,104
Combo4 : 148,117,213

[HitObjects]
356,112,12,6,0,P|372:168|360:212,1,105,2|2,2:0|2:0,0:0:0:0:
324,280,466,1,0,0:0:0:0:
352,352,618,2,0,L|408:348,1,52.5,8|8,2:0|2:0,0:0:0:0:
472,308,921,1,0,0:0:0:0:
232,308,1224,6,0,L|104:304,1,105,4|0,0:2|0:0,0:0:0:0:
168,100,1830,2,0,L|272:103,1,105,2|0,0:0|0:0,0:0:0:0:
108,200,2436,2,0,P|75:187|60:172,1,52.5,2|8,2:0|2:0,0:0:0:0:
28,104,2739,1,0,0:0:0:0:
60,32,2890,2,0,P|85:28|116:36,1,52.5,2|2,2:0|0:0,0:0:0:0:
232,172,3345,1,0,1:0:0:0:
240,328,3648,6,0,P|288:339|340:317,1,105,2|0,2:0|2:0,0:0:0:0:
464,192,4254,2,0,L|448:80,1,105,2|0,0:0|0:0,0:0:0:0:
384,16,4709,2,0,P|348:20|332:28,1,52.5,2|0,2:0|2:0,0:0:0:0:
312,120,5012,2,0,P|332:135|357:143,1,52.5,2|4,2:0|0:2,0:0:0:0:
376,236,5315,2,0,P|359:256|337:270,1,52.5,2|2,2:0|0:0,0:0:0:0:
260,276,5618,1,0,2:0:0:0:
188,248,5769,2,0,L|136:252,1,52.5,2|0,2:0|0:0,0:0:0:0:
122,254,5996,1,0,0:0:0:0:
110,260,6072,6,0,L|104:368,1,105,2|0,0:2|0:0,0:0:0:0:
40,164,6678,2,0,L|34:56,1,105,2|0,0:0|0:0,0:0:0:0:
104,24,7133,1,0,0:0:0:0:
168,72,7284,2,0,P|228:75|268:56,1,105,2|0,2:0|0:0,0:0:0:0:
336,12,7739,2,0,L|392:20,1,52.5,2|2,2:0|0:0,0:0:0:0:
472,156,8193,1,0,0:0:0:0:
364,276,8496,6,0,L|260:261,1,105,2|0,2:0|0:0,0:0:0:0:
148,72,9103,2,0,P|123:123|128:172,1,105,4|0,0:2|2:0,0:0:0:0:
144,268,9557,2,0,P|119:286|96:292,1,52.5,2|0,2:0|0:0,0:0:0:0:
198,207,9860,1,2,2:0:0:0:
260,261,10012,2,0,P|315:258|348:225,1,105,4|8,0:2|2:0,0:0:0:0:
372,148,10466,1,8,2:0:0:0:
372,68,10618,1,8,3:0:0:0:
200,136,10921,6,0,L|72:136,1,105,4|0,1:2|1:0,0:0:0:0:
48,288,11527,2,0,P|68:304|96:308,1,52.5,8|2,0:0|0:0,0:0:0:0:
176,312,11830,1,0,1:0:0:0:
308,224,12133,2,0,P|360:208|412:220,1,105,2|0,0:0|1:0,0:0:0:0:
472,264,12587,1,0,0:0:0:0:
480,344,12739,1,8,0:0:0:0:
324,368,13042,1,0,1:0:0:0:
176,312,13345,6,0,P|160:256|180:216,1,105,2|0,0:0|0:0,0:0:0:0:
260,80,13951,2,0,L|364:88,1,105,8|0,0:0|1:0,0:0:0:0:
432,128,14406,1,2,0:0:0:0:
504,96,14557,2,0,P|511:66|508:36,1,52.5,0|2,0:0|0:0,0:0:0:0:
412,4,14860,1,4,1:2:0:0:
348,204,15163,2,0,P|293:220|248:208,1,105,8|0,0:0|0:0,0:0:0:0:
180,168,15618,1,0,1:0:0:0:
180,168,15693,1,0,1:0:0:0:
180,168,15769,6,0,L|180:112,1,52.5,0|2,1:0|0:0,0:0:0:0:
232,36,16072,2,0,L|284:32,2,52.5,0|2|8,1:0|0:0|0:0,0:0:0:0:
48,80,16678,1,0,1:0:0:0:
8,148,16830,1,0,1:0:0:0:
20,226,16981,2,0,L|40:278,1,52.5,0|2,0:0|0:0,0:0:0:0:
120,324,17284,2,0,L|180:312,2,52.5,0|0|8,1:0|0:0|0:0,0:0:0:0:
100,164,17890,1,0,1:0:0:0:
256,252,18193,6,0,P|276:319|267:357,1,105,2|0,0:0|1:0,0:0:0:0:
344,376,18648,1,2,0:0:0:0:
424,372,18800,2,0,P|449:358|464:340,1,52.5,8|2,0:0|0:0,0:0:0:0:
488,264,19103,1,0,0:0:0:0:
448,112,19406,2,0,L|392:120,1,52.5,0|0,1:0|0:0,0:0:0:0:
500,44,19709,6,0,L|364:36,1,125.999996154785,4|8,1:2|0:0,0:0:0:0:
280,40,20163,1,8,0:0:0:0:
216,112,20315,2,0,L|216:172,1,52.5,4|0,1:3|0:0,0:0:0:0:
256,252,20618,5,4,1:2:0:0:
124,336,20921,1,0,1:0:0:0:
136,176,21224,1,8,0:0:0:0:
4,260,21527,1,0,1:0:0:0:
16,100,21830,2,0,P|32:76|52:64,1,52.5,0|2,0:0|0:0,0:0:0:0:
148,72,22133,2,0,P|200:88|246:73,1,105,0|8,1:0|0:0,0:0:0:0:
400,116,22739,1,0,1:0:0:0:
296,236,23042,6,0,L|184:220,1,105,2|0,0:0|0:0,0:0:0:0:
150,289,23496,1,2,0:0:0:0:
188,360,23648,2,0,P|243:366|291:340,1,105,8|0,0:0|1:0,0:0:0:0:
348,296,24103,1,2,0:0:0:0:
424,272,24254,2,0,L|480:276,1,52.5,0|2,0:0|0:0,0:0:0:0:
440,376,24557,1,4,1:2:0:0:
336,192,24860,2,0,P|344:136|380:108,1,105,8|0,0:0|0:0,0:0:0:0:
456,76,25315,1,0,1:0:0:0:
456,76,25390,1,0,1:0:0:0:
456,76,25466,6,0,L|504:100,1,52.5,0|2,1:0|0:0,0:0:0:0:
502,192,25769,2,0,L|456:216,2,52.5,0|2|8,1:0|0:0|0:0,0:0:0:0:
364,32,26375,2,0,P|288:44|268:64,1,105,0|0,1:0|0:0,0:0:0:0:
226,129,26830,1,2,0:0:0:0:
232,208,26981,2,0,L|232:313,1,105,0|8,1:0|0:0,0:0:0:0:
32,232,27587,6,0,L|32:127,1,105,2|2,1:2|0:0,0:0:0:0:
132,256,28193,2,0,L|132:312,1,52.5,2|2,1:2|0:0,0:0:0:0:
156,160,28496,2,0,P|204:124|252:120,1,105,4|2,1:2|0:0,0:0:0:0:
328,128,28951,1,0,0:0:0:0:
368,200,29103,2,0,L|364:256,1,52.5,2|0,1:2|0:0,0:0:0:0:
488,280,29406,2,0,L|491:227,1,52.5,4|0,1:2|0:0,0:0:0:0:
496,96,29709,1,8,1:2:0:0:
440,40,29860,1,8,1:2:0:0:
360,24,30012,2,0,L|304:28,1,52.5,4|0,1:3|0:0,0:0:0:0:
232,56,30315,6,0,P|213:93|216:132,1,78.7500030040742,4|0,1:2|0:0,0:0:0:0:
256,240,30921,1,2,0:0:0:0:
184,336,31224,2,0,P|136:341|80:328,2,78.7500030040742,0|2|0,1:0|0:0|1:0,0:0:0:0:
304,316,32133,2,0,P|336:292|344:244,1,78.7500030040742,8|0,0:0|0:0,0:0:0:0:
296,124,32739,6,0,L|196:132,1,78.7500030040742,2|0,1:2|0:0,0:0:0:0:
120,196,33345,1,2,0:0:0:0:
72,304,33648,2,0,P|34:283|16:253,1,78.7500030040742,0|2,1:0|0:0,0:0:0:0:
41,107,34254,2,0,P|71:83|109:78,1,78.7500030040742,4|4,1:2|1:3,0:0:0:0:
217,130,34860,1,0,0:0:0:0:
217,130,35012,1,0,0:0:0:0:
217,130,35163,6,0,L|216:224,1,78.7500030040742,2|0,1:2|0:0,0:0:0:0:
292,296,35769,1,2,0:0:0:0:
412,292,36072,2,0,P|447:268|460:236,1,78.7500030040742,0|2,1:0|0:0,0:0:0:0:
479,116,36678,1,0,1:0:0:0:
364,152,36981,2,0,L|280:156,1,78.7500030040742,8|0,0:0|0:0,0:0:0:0:
292,296,37587,6,0,L|208:292,1,78.7500030040742,2|0,1:2|0:0,0:0:0:0:
100,324,38193,1,2,0:0:0:0:
48,220,38496,2,0,P|58:197|60:180,2,39.3750015020371,0|0|2,1:0|0:0|0:0,0:0:0:0:
148,108,39103,2,0,P|166:142|172:181,1,78.7500030040742,4|4,1:2|1:3,0:0:0:0:
100,324,39709,2,0,L|52:332,1,39.3750015020371,0|0,1:0|0:0,0:0:0:0:
168,268,40012,5,4,1:2:0:0:
256,344,40315,1,0,0:0:0:0:
332,256,40618,1,2,0:0:0:0:
420,332,40921,2,0,P|442:298|447:261,2,78.7500030040742,0|2|0,1:0|0:0|1:0,0:0:0:0:
304,344,41830,2,0,L|220:352,1,78.7500030040742,8|0,0:0|0:0,0:0:0:0:
148,340,42284,1,0,0:0:0:0:
148,340,42436,6,0,P|136:296|148:264,1,78.7500030040742,2|0,1:2|0:0,0:0:0:0:
216,168,43042,1,2,0:0:0:0:
332,160,43345,2,0,P|325:114|302:90,1,78.7500030040742,0|2,1:0|0:0,0:0:0:0:
164,20,43951,1,4,1:2:0:0:
60,140,44254,1,8,1:2:0:0:
216,168,44557,1,8,1:2:0:0:
216,300,44860,6,0,P|141:349|76:341,1,157.500006008148,2|2,1:2|0:0,0:0:0:0:
120,232,45769,1,0,0:0:0:0:
216,300,46072,2,0,P|291:349|356:341,1,157.500006008148,2|2,1:2|0:0,0:0:0:0:
312,232,46981,1,0,0:0:0:0:
216,168,47284,1,4,0:0:0:0:
216,168,48496,5,8,1:2:0:0:
216,168,48648,1,8,1:2:0:0:
288,228,48799,2,0,P|311:234|340:232,1,52.5,0|8,1:0|0:0,0:0:0:0:
128,200,49103,2,0,P|111:217|98:243,1,52.5,4|8,3:0|3:0,0:0:0:0:
232,76,49406,2,0,P|226:53|210:29,1,52.5,4|0,3:0|0:0,0:0:0:0:
125,96,49709,6,0,L|20:92,1,105,4|0,1:2|0:0,0:0:0:0:
4,178,50163,1,0,2:0:0:0:
60,246,50315,1,8,0:0:0:0:
216,168,50618,2,0,P|274:154|316:168,1,105,2|0,0:2|2:0,0:0:0:0:
380,228,51072,1,8,2:0:0:0:
380,316,51224,1,0,0:0:0:0:
208,352,51527,1,8,0:0:0:0:
380,316,51830,6,0,P|435:297|464:255,1,105,2|0,0:2|2:0,0:0:0:0:
451,174,52284,1,0,2:0:0:0:
422,91,52436,2,0,P|423:62|436:42,1,52.5,2|0,2:0|2:0,0:0:0:0:
451,174,52739,2,0,L|343:176,1,105,8|0,0:0|0:0,0:0:0:0:
188,252,53345,2,0,P|166:268|154:289,1,52.5,2|0,2:0|2:0,0:0:0:0:
68,220,53648,2,0,P|61:194|44:174,1,52.5,4|0,0:2|2:0,0:0:0:0:
200,96,53951,2,0,P|188:120|189:145,1,52.5,8|0,0:0|2:0,0:0:0:0:
92,80,54254,2,0,P|98:54|94:29,1,52.5,2|0,2:0|2:0,0:0:0:0:
204,16,54557,6,0,L|332:24,1,105
396,32,55012,1,0,2:0:0:0:
435,110,55163,1,8,0:0:0:0:
352,264,55466,2,0,P|294:265|256:236,1,105,2|0,0:2|2:0,0:0:0:0:
211,164,55921,1,8,2:0:0:0:
128,136,56072,2,0,P|77:145|43:184,1,105,0|8,0:0|0:0,0:0:0:0:
88,356,56678,6,0,L|192:356,1,105,2|0,0:2|2:0,0:0:0:0:
280,360,57133,1,0,2:0:0:0:
364,332,57284,2,0,P|379:309|384:280,1,52.5,0|0,0:0|2:0,0:0:0:0:
288,228,57587,2,0,P|279:201|282:172,1,52.5,8|0,0:0|2:0,0:0:0:0:
380,124,57890,2,0,L|436:128,1,52.5,2|0,2:0|2:0,0:0:0:0:
488,196,58193,1,0,0:0:0:0:
504,8,58496,1,4,0:2:0:0:
296,40,58799,2,0,L|240:44,1,52.5,8|0,0:0|0:0,0:0:0:0:
172,156,59103,2,0,L|228:152,1,52.5,8|0,3:0|3:0,0:0:0:0:
161,10,59406,6,0,P|114:44|93:89,1,105,4|0,0:2|0:0,0:0:0:0:
68,168,59860,1,0,2:0:0:0:
130,228,60012,1,8,0:0:0:0:
228,372,60315,2,0,P|172:380|125:365,1,105,2|0,0:2|2:0,0:0:0:0:
76,296,60769,1,8,2:0:0:0:
130,228,60921,2,0,P|153:167|144:128,1,105,0|8,0:0|0:0,0:0:0:0:
228,292,61527,6,0,P|288:295|329:271,1,105,2|0,0:2|2:0,0:0:0:0:
408,120,62133,1,2,2:0:0:0:
236,156,62436,1,8,0:0:0:0:
397,226,62739,2,0,P|410:290|388:332,1,105,2|0,0:2|2:0,0:0:0:0:
321,372,63193,1,0,2:0:0:0:
244,328,63345,2,0,L|136:328,1,105,4|8,0:2|0:0,0:0:0:0:
52,342,63799,1,2,2:0:0:0:
84,260,63951,2,0,L|85:234,3,26.25
88,208,64254,6,0,L|128:112,1,105,2|0,0:2|0:0,0:0:0:0:
288,40,64860,1,8,0:0:0:0:
424,152,65163,2,0,P|392:193|342:206,1,105,2|0,0:2|2:0,0:0:0:0:
256,196,65618,1,8,2:0:0:0:
184,244,65769,2,0,L|180:348,1,105,0|8,0:0|0:0,0:0:0:0:
356,372,66375,6,0,P|405:358|437:317,1,105,2|0,0:2|2:0,0:0:0:0:
455,233,66830,1,0,2:0:0:0:
424,152,66981,2,0,L|420:96,1,52.5,2|2,0:2|0:2,0:0:0:0:
300,136,67284,6,0,L|172:140,1,125.999996154785,4|2,0:2|2:0,0:0:0:0:
108,200,67739,1,2,2:0:0:0:
148,280,67890,2,0,P|170:292|197:294,1,52.5,0|0,0:0|3:0,0:0:0:0:
344,220,68193,2,0,P|337:244|319:265,1,52.5,0|0,0:0|3:0,0:0:0:0:
200,172,68496,2,0,P|195:146|201:121,1,52.5,4|0,0:3|0:0,0:0:0:0:
336,16,68800,2,0,P|342:41|337:66,1,52.5,8|0,0:3|3:0,0:0:0:0:
228,16,69103,6,0,P|169:17|105:69,1,105,4|0,0:2|0:0,0:0:0:0:
50,67,69557,1,0,2:0:0:0:
28,149,69709,1,8,0:0:0:0:
88,306,70012,2,0,L|192:308,1,105,2|0,0:2|2:0,0:0:0:0:
252,244,70466,1,8,2:0:0:0:
339,227,70618,2,0,P|394:230|432:260,1,105,0|8,0:0|0:0,0:0:0:0:
285,357,71224,6,0,L|192:307,1,105,2|0,0:2|2:0,0:0:0:0:
160,228,71678,1,0,2:0:0:0:
168,140,71830,1,2,2:0:0:0:
340,112,72133,2,0,P|388:72|396:28,1,105,8|0,0:0|0:0,0:0:0:0:
308,32,72587,1,0,2:0:0:0:
252,100,72739,2,0,P|256:140|264:156,1,52.5,2|0,2:0|2:0,0:0:0:0:
339,227,73042,2,0,L|395:231,1,52.5,4|0,0:2|2:0,0:0:0:0:
268,304,73345,2,0,L|212:308,1,52.5,8|0,0:2|2:0,0:0:0:0:
116,264,73648,2,0,P|107:239|107:213,1,52.5,2|0,2:0|2:0,0:0:0:0:
40,132,73951,6,0,P|56:80|96:52,1,105
184,44,74406,1,0,2:0:0:0:
252,100,74557,1,8,0:0:0:0:
223,273,74860,2,0,L|215:381,1,105,2|0,0:2|2:0,0:0:0:0:
128,360,75315,1,8,2:0:0:0:
50,321,75466,2,0,P|29:265|50:204,1,105,0|8,0:0|0:0,0:0:0:0:
208,188,76072,6,0,L|312:200,1,105,2|0,0:2|2:0,0:0:0:0:
388,244,76527,1,0,2:0:0:0:
476,240,76678,2,0,P|488:216|493:191,1,52.5,2|2,0:2|2:0,0:0:0:0:
504,104,76981,1,8,0:0:0:0:
328,104,77284,1,2,2:0:0:0:
264,44,77436,2,0,L|212:38,1,52.5,4|0,0:2|2:0,0:0:0:0:
104,72,77739,1,8,0:2:0:0:
168,132,77891,2,0,L|220:138,1,52.5,4|0,0:2|2:0,0:0:0:0:
308,220,78193,2,0,P|304:251|296:272,1,52.5,8|0,0:0|2:0,0:0:0:0:
196,356,78496,2,0,P|165:351|144:343,1,52.5,4|0,0:3|0:0,0:0:0:0:
43,243,78800,6,0,L|47:135,1,105,4|0,0:2|0:0,0:0:0:0:
104,72,79254,1,0,2:0:0:0:
191,56,79406,1,8,0:0:0:0:
320,176,79709,2,0,P|376:184|416:160,1,105,2|0,0:2|2:0,0:0:0:0:
433,74,80163,1,8,2:0:0:0:
500,132,80315,2,0,P|504:156|501:184,1,52.5,0|0,0:0|2:0,0:0:0:0:
484,269,80618,1,8,0:0:0:0:
345,375,80921,6,0,L|237:379,1,105,2|0,0:2|2:0,0:0:0:0:
161,344,81375,1,0,2:0:0:0:
146,258,81527,2,0,P|145:235|150:214,3,35,0|0|0|8,2:0|0:0|0:0|0:0,0:0:0:0:
28,352,82133,2,0,P|14:300|16:240,1,105,2|0,0:2|2:0,0:0:0:0:
23,162,82587,1,0,2:0:0:0:
79,95,82739,1,4,0:2:0:0:
226,192,83042,2,0,P|255:190|278:180,1,52.5,8|0,0:0|2:0,0:0:0:0:
324,108,83345,1,4,2:0:0:0:
127,159,83648,6,0,P|123:211|146:258,1,105,2|0,0:2|0:0,0:0:0:0:
221,304,84103,1,0,2:0:0:0:
308,292,84254,2,0,L|424:296,1,105,8|2,0:0|0:2,0:0:0:0:
364,212,84709,2,0,L|311:210,1,52.5,0|2,0:0|2:0,0:0:0:0:
226,192,85012,1,8,2:0:0:0:
220,104,85163,1,0,0:0:0:0:
392,76,85466,1,8,0:0:0:0:
508,208,85769,6,0,L|504:316,1,105,2|0,0:2|2:0,0:0:0:0:
436,368,86224,1,0,2:0:0:0:
365,315,86375,2,0,P|332:310|312:313,1,52.5,2|2,2:0|0:2,0:0:0:0:
224,243,86678,2,0,P|221:216|226:191,1,52.5,4|4,0:2|0:3,0:0:0:0:
324,136,86981,2,0,P|327:109|322:84,1,52.5,8|4,0:3|0:3,0:0:0:0:
268,16,87284,1,0,0:0:0:0:
94,31,87587,1,0,0:0:0:0:
136,200,87890,2,0,L|132:252,1,52.5
44,256,88193,2,0,L|48:308,1,52.5,8|4,0:3|0:3,0:0:0:0:
104,376,88496,1,0,3:0:0:0:
