osu file format v14

[General]
AudioFilename: optc.mp3
AudioLeadIn: 2000
PreviewTime: 48421
Countdown: 0
SampleSet: Normal
StackLeniency: 0.7
Mode: 0
LetterboxInBreaks: 0
WidescreenStoryboard: 1

[Editor]
DistanceSpacing: 0.5
BeatDivisor: 4
GridSize: 4
TimelineZoom: 1.6

[Metadata]
Title:Sleep zzz...
TitleUnicode:Sleep zzz...
Artist:Kirisaki Chitoge (Touyama Nao)
ArtistUnicode:桐崎千棘 (東山奈央)
Creator:Zero__wind
Version:Easy
Source:ニセコイ:
Tags:Nisekoi False Fake Love Second season ED3 Ending 桐崎千棘 SHAFT
BeatmapID:693634
BeatmapSetID:309873

[Difficulty]
HPDrainRate:2
CircleSize:3
OverallDifficulty:2
ApproachRate:3
SliderMultiplier:1.3
SliderTickRate:2

[Events]
//Background and Video events
0,0,"chitoge.jpg",0,0
Video,0,"optc.flv"
//Break Periods
//Storyboard Layer 0 (Background)
//Storyboard Layer 1 (Fail)
//Storyboard Layer 2 (Pass)
//Storyboard Layer 3 (Foreground)
//Storyboard Sound Samples

[TimingPoints]
-1200,606.060606060606,4,1,1,40,1,0
1224,-100,4,1,1,60,0,0
9103,-100,4,1,1,80,0,0
9406,-100,4,1,1,60,0,0
10921,-100,4,2,1,70,0,0
11224,-100,4,2,1,50,0,0
19709,-100,4,2,1,70,0,0
20012,-100,4,2,1,50,0,0
26527,-100,4,2,1,30,0,0
26678,-100,4,2,1,50,0,0
28496,-100,4,2,1,70,0,0
28799,-100,4,2,1,50,0,0
30315,-100,4,2,1,70,0,0
30618,-100,4,2,1,40,0,0
48496,-100,4,2,1,50,0,0
49709,-100,4,1,1,60,0,1
60769,-100,4,1,1,40,0,1
60921,-100,4,1,1,60,0,1
63951,-100,4,1,1,40,0,1
64254,-100,4,1,1,60,0,1
67284,-83.3333333333333,4,1,1,80,0,1
67587,-100,4,1,1,60,0,1
69103,-100,4,1,1,70,0,1
69406,-100,4,1,1,60,0,1
70466,-100,4,1,1,40,0,1
70618,-100,4,1,1,60,0,1
75315,-100,4,1,1,40,0,1
75466,-100,4,1,1,60,0,1
80163,-100,4,1,1,40,0,1
80315,-100,4,1,1,60,0,1
83345,-100,4,1,1,40,0,1
83648,-100,4,1,1,60,0,1
88496,-100,4,2,1,40,0,0

[Colours]
Combo1 : 214,137,143
Combo2 : 69,142,224
Combo3 : 240,186,104
Combo4 : 148,117,213

[HitObjects]
320,176,12,6,0,P|356:175|388:184,1,65,2|2,2:0|2:0,0:0:0:0:
440,244,618,1,8,2:0:0:0:
440,328,921,1,0,1:0:0:0:
364,364,1224,6,0,B|300:372|300:372|232:352,1,130,4|2,0:2|0:0,0:0:0:0:
184,288,2133,1,0,0:0:0:0:
180,204,2436,2,0,L|192:136,2,65,2|0|2,2:0|0:0|0:0,0:0:0:0:
109,249,3345,6,0,L|37:253,2,65,0|2|0,0:0|2:0|2:0,0:0:0:0:
184,288,4254,1,2,0:0:0:0:
260,252,4557,2,0,P|328:232|384:248,1,130,0|4,0:0|0:2,0:0:0:0:
444,308,5466,1,2,0:0:0:0:
508,152,6072,6,0,B|490:90|490:90|447:35,1,130,2|2,0:2|0:0,0:0:0:0:
367,30,6981,1,0,0:0:0:0:
288,56,7284,2,0,P|270:88|269:125,2,65,2|0|2,2:0|0:0|0:0,0:0:0:0:
353,111,8193,6,0,P|348:143|333:171,1,65,0|2,0:0|2:0,0:0:0:0:
264,220,8800,1,0,0:0:0:0:
180,232,9103,2,0,B|84:228|84:228|56:208,1,130,4|0,0:2|0:0,0:0:0:0:
28,128,10012,1,4,0:2:0:0:
80,60,10315,2,0,L|144:62,1,65,8|8,2:0|3:0,0:0:0:0:
228,72,10921,6,0,L|292:56,2,65,4|0|8,1:2|1:0|0:0,0:0:0:0:
180,140,11830,2,0,P|156:204|172:264,1,130,0|0,1:0|1:0,0:0:0:0:
220,332,12739,1,8,0:0:0:0:
300,308,13042,6,0,B|364:312|364:312|428:296,1,130,0|0,1:0|0:0,0:0:0:0:
488,236,13951,1,8,0:0:0:0:
496,152,14254,1,0,1:0:0:0:
368,40,14860,1,4,1:2:0:0:
360,124,15163,1,8,0:0:0:0:
248,252,15769,6,0,P|209:252|184:244,1,65,2|0,1:2|1:0,0:0:0:0:
124,184,16375,1,8,0:0:0:0:
122,99,16678,2,0,P|165:46|229:39,1,130,0|0,1:0|1:0,0:0:0:0:
308,56,17587,1,8,0:0:0:0:
360,124,17890,6,0,L|364:264,1,130,0|0,1:0|1:0,0:0:0:0:
352,339,18800,2,0,P|320:353|290:355,1,65,8|2,0:0|0:0,0:0:0:0:
208,344,19406,2,0,L|140:336,1,65,0|4,1:0|1:2,0:0:0:0:
68,304,20012,1,8,0:0:0:0:
44,224,20315,1,4,1:3:0:0:
48,140,20618,6,0,L|56:76,2,65,4|0|8,1:2|1:0|0:0,0:0:0:0:
120,186,21527,2,0,P|188:200|239:174,1,130,0|0,1:0|1:0,0:0:0:0:
272,96,22436,1,8,0:0:0:0:
344,52,22739,6,0,B|404:80|404:80|436:144,1,130,0|0,1:0|0:0,0:0:0:0:
436,220,23648,1,8,0:0:0:0:
412,300,23951,1,0,1:0:0:0:
248,344,24557,1,4,1:2:0:0:
272,264,24860,1,8,0:0:0:0:
272,96,25466,6,0,P|232:80|204:80,2,65,2|0|8,1:2|1:0|0:0,0:0:0:0:
337,148,26375,2,0,P|281:179|220:163,1,130,0|0,1:0|1:0,0:0:0:0:
142,130,27284,1,8,0:0:0:0:
64,160,27587,6,0,L|56:292,1,130,2|0,1:2|1:0,0:0:0:0:
76,372,28496,1,4,1:2:0:0:
248,360,29103,2,0,L|316:344,1,65,0|4,1:0|1:2,0:0:0:0:
392,316,29709,2,0,L|428:256,1,65,8|4,1:2|1:3,0:0:0:0:
440,176,30315,5,4,1:2:0:0:
372,20,30921,1,2,2:0:0:0:
316,84,31224,2,0,P|256:108|196:84,1,130,0|0,1:0|1:0,0:0:0:0:
140,20,32133,1,8,2:0:0:0:
36,152,32739,6,0,P|22:215|24:279,1,130,2|2,1:2|0:0,0:0:0:0:
64,356,33648,2,0,P|124:372|188:356,1,130,0|4,1:0|1:2,0:0:0:0:
232,284,34557,1,4,1:3:0:0:
380,368,35163,6,0,P|437:341|462:283,1,130,2|2,1:2|0:0,0:0:0:0:
452,200,36072,2,0,L|316:188,1,130,0|0,1:0|1:0,0:0:0:0:
240,200,36981,1,8,0:0:0:0:
100,296,37587,6,0,P|42:273|32:209,1,130,0|2,1:0|0:0,0:0:0:0:
48,128,38496,2,0,L|128:24,1,130,0|4,1:0|1:2,0:0:0:0:
212,40,39406,2,0,L|280:36,1,65,4|0,1:3|1:0,0:0:0:0:
362,37,40012,5,4,1:2:0:0:
464,172,40618,1,2,0:0:0:0:
436,252,40921,2,0,P|376:276|316:252,1,130,0|0,1:0|1:0,0:0:0:0:
296,172,41830,1,8,0:0:0:0:
128,144,42436,6,0,P|105:203|129:262,1,130,2|2,1:2|0:0,0:0:0:0:
184,328,43345,2,0,P|243:350|302:326,1,130,0|4,1:0|1:2,0:0:0:0:
360,264,44254,2,0,P|368:223|364:193,1,65,8|8,1:2|1:2,0:0:0:0:
356,116,44860,5,2,1:2:0:0:
32,216,46072,1,2,1:2:0:0:
356,312,47284,1,4,0:0:0:0:
32,280,48496,6,0,P|27:247|31:215,1,65,8|0,1:2|1:0,0:0:0:0:
60,136,49103,1,4,3:0:0:0:
128,86,49406,1,4,3:0:0:0:
212,92,49709,6,0,L|280:112,1,65,4|0,0:2|0:0,0:0:0:0:
344,160,50315,1,8,0:0:0:0:
344,248,50618,2,0,P|276:276|224:260,1,130,2|0,0:2|0:0,0:0:0:0:
160,204,51527,1,8,0:0:0:0:
145,288,51830,5,2,0:2:0:0:
293,366,52436,2,0,P|328:361|358:349,1,65,2|8,2:0|0:0,0:0:0:0:
425,302,53042,2,0,L|437:222,1,65,0|2,0:0|2:0,0:0:0:0:
435,152,53648,2,0,L|425:87,2,65,4|8|2,0:2|0:0|2:0,0:0:0:0:
361,195,54557,6,0,L|285:199,1,65
216,176,55163,1,8,0:0:0:0:
130,180,55466,2,0,P|153:235|215:261,1,130,2|0,0:2|0:0,0:0:0:0:
296,288,56375,1,8,0:0:0:0:
260,364,56678,6,0,L|124:368,1,130,2|0,0:2|0:0,0:0:0:0:
48,344,57587,1,8,0:0:0:0:
36,176,58193,1,0,0:0:0:0:
91,113,58496,1,4,0:2:0:0:
176,100,58799,2,0,P|208:98|238:110,1,65,8|8,0:0|3:0,0:0:0:0:
310,159,59406,6,0,P|346:162|380:148,1,65,4|0,0:2|0:0,0:0:0:0:
424,84,60012,1,8,0:0:0:0:
379,10,60315,2,0,L|239:18,1,130,2|0,0:2|0:0,0:0:0:0:
164,24,61224,1,8,0:0:0:0:
80,60,61527,6,0,P|64:128|72:192,1,130,2|0,0:2|2:0,0:0:0:0:
114,260,62436,1,8,0:0:0:0:
192,228,62739,1,2,0:2:0:0:
360,208,63345,1,4,0:2:0:0:
444,228,63648,2,0,P|472:260|480:284,1,65,8|0,0:0|0:0,0:0:0:0:
472,364,64254,6,0,B|408:372|408:372|344:360,1,130,2|8,0:2|0:0,0:0:0:0:
292,292,65163,1,2,0:2:0:0:
140,360,65769,1,2,0:2:0:0:
1,269,66375,1,2,0:2:0:0:
48,104,66981,6,0,L|72:40,1,65,2|4,0:2|0:2,0:0:0:0:
203,153,67890,2,0,P|234:161|267:161,1,65
333,108,68496,1,4,0:3:0:0:
369,32,68799,1,8,0:3:0:0:
454,27,69103,6,0,P|482:51|494:75,1,65,4|0,0:2|0:0,0:0:0:0:
509,159,69709,1,8,0:0:0:0:
482,240,70012,2,0,L|346:244,1,130,2|0,0:2|0:0,0:0:0:0:
268,244,70921,1,8,0:0:0:0:
266,161,71224,5,2,0:2:0:0:
100,136,71830,2,0,P|68:160|60:184,1,65,2|8,2:0|0:0,0:0:0:0:
48,267,72436,2,0,P|52:306|69:325,1,65,0|2,0:0|2:0,0:0:0:0:
144,364,73042,2,0,L|208:368,2,65,4|8|2,0:2|0:0|2:0,0:0:0:0:
164,280,73951,6,0,L|228:284,1,65
312,272,74557,1,8,0:0:0:0:
380,324,74860,2,0,P|444:319|468:264,1,130,2|0,0:2|0:0,0:0:0:0:
488,180,75769,1,8,0:0:0:0:
454,102,76072,6,0,P|389:83|325:101,1,130,2|0,0:2|0:0,0:0:0:0:
280,168,76981,2,0,L|280:272,2,97.5,8|4|4,0:0|0:2|0:2,0:0:0:0:
253,88,78193,1,8,0:0:0:0:
176,52,78496,1,4,3:0:0:0:
96,84,78800,6,0,L|96:148,1,65,4|0,0:2|0:0,0:0:0:0:
100,236,79406,1,8,0:0:0:0:
136,314,79709,2,0,P|73:318|24:276,1,130,2|0,0:2|0:0,0:0:0:0:
20,190,80618,1,8,0:0:0:0:
96,149,80921,6,0,L|228:144,1,130,2|0,0:2|2:0,0:0:0:0:
310,160,81830,1,8,0:0:0:0:
328,244,82133,1,2,0:2:0:0:
492,200,82739,2,0,L|500:132,1,65,4|8,0:2|0:0,0:0:0:0:
500,50,83345,1,4,2:0:0:0:
423,13,83648,6,0,P|359:24|325:75,1,130,2|8,0:2|0:0,0:0:0:0:
310,160,84557,1,2,0:2:0:0:
420,288,85163,1,2,0:2:0:0:
276,376,85769,1,2,0:2:0:0:
166,248,86375,6,0,P|159:211|165:181,1,65,2|4,2:0|0:2,0:0:0:0:
180,100,86981,2,0,L|211:33,1,65,8|0,0:3|0:0,0:0:0:0:
288,15,87587,2,0,L|329:75,1,65
309,152,88193,2,0,L|235:157,1,65,8|0,0:3|3:0,0:0:0:0:
