osu file format v5

[General]
AudioFilename: Kirby - Boss Medley (brawl).mp3
AudioLeadIn: 3000
AudioHash: 677b473ec6af5beae80dfdbdf3b9f7cb
PreviewTime: -1
Countdown: 1
SampleSet: Normal
EditorBookmarks: 49541

[Metadata]
Title:Kirby - Boss Medley (brawl)
Artist:
Creator:drayter
Version:Insane

[Difficulty]
HPDrainRate:7
CircleSize:6
OverallDifficulty:5
SliderMultiplier: 1.5
SliderTickRate: 3

[Events]
//Background and Video events
//Break Periods
2,24248,31584
2,49741,55536
//Storyboard Layer 0 (Background)
//Storyboard Layer 1 (Failing)
//Storyboard Layer 2 (Passing)
//Storyboard Layer 3 (Foreground)
//Storyboard Sound Samples
//Background Colour Transformations
3,100,255,128,255

[TimingPoints]
11500,352.239150795002,4,1,0,50

[Colours]
Combo1 : 221,221,0
Combo2 : 0,248,37
Combo3 : 51,93,255
Combo4 : 248,40,0
Combo5 : 255,173,0

[HitObjects]
256,192,1593,1,6
256,192,2121,1,6
128,128,3134,5,0
256,128,3442,1,0
416,128,3662,1,0
416,224,3970,1,0
320,224,4235,1,4
416,128,4587,5,0
332,127,4851,1,0
224,128,5115,1,0
128,128,5379,1,0
128,224,5644,1,4
128,320,5996,5,0
224,256,6260,1,0
288,320,6524,1,0
320,224,6788,1,0
320,128,7052,1,4
205,50,7405,5,0
120,122,7625,1,0
191,165,7889,1,0
130,231,8153,1,0
225,231,8417,1,4
256,320,8770,1,2
256,213,9034,1,2
256,109,9298,1,2
154,108,9606,1,2
57,108,9870,1,6
57,234,10223,5,2
140,236,10487,1,2
225,233,10707,1,2
308,233,10971,1,2
391,233,11235,1,6
256,320,11632,5,2
256,224,11896,1,2
256,160,12116,1,2
352,160,12424,1,2
448,160,12688,1,6
320,160,13041,5,2
256,160,13261,1,2
320,224,13525,1,2
224,224,13789,1,2
192,160,14097,1,6
256,192,14273,12,0,24048
172,97,32634,5,0
223,97,32766,1,0
222,98,32854,1,0
273,96,32942,1,0
320,96,33118,1,0
347,174,33470,5,0
347,174,33558,1,0
298,176,33647,2,0,B|298:176|196:176|138:174,1,150
162,234,34175,1,0
214,236,34219,1,0
214,236,34263,1,0
214,236,34307,1,0
264,236,34527,1,6
315,299,34703,6,6,B|315:299|139:296,1,168.75
143,247,35452,1,0
145,214,35540,1,0
144,179,35628,1,0
224,228,36817,1,0
247,229,36905,1,0
275,255,36993,1,6
356,140,38226,5,0
326,181,38358,1,0
326,181,38446,1,0
326,181,38534,1,0
300,220,38754,1,0
275,260,39106,1,0
276,261,39194,1,0
228,264,39282,2,4,B|228:264|168:180|200:114,1,150
232,83,39811,5,0
232,83,39855,1,0
232,83,39899,1,0
232,83,39987,1,0
283,87,40163,1,4
336,84,40339,2,0,B|336:84|326:256,1,168.75
300,303,41088,5,0
257,321,41220,1,0
257,321,41308,1,0
257,321,41352,1,0
257,321,41396,1,0
208,328,41572,2,0,B|208:328|181:143|412:144|412:311,1,375
94,132,43861,5,0
95,175,44038,1,0
97,175,44126,1,0
95,175,44214,1,0
103,227,44390,1,0
162,235,44566,6,6,B|162:235|250:275|322:235,1,150
366,228,45270,1,0
438,157,45447,1,0
419,157,45535,1,0
396,158,45623,1,0
374,159,45799,2,0,B|374:159|192:160,1,168.75
134,159,46327,1,6
256,192,46459,12,0,49541
55,47,56586,6,0,B|55:47|38:200|40:313|104:358|180:336|250:342|288:320,1,468.75
452,289,57995,6,0,B|452:289|446:154|437:98|398:51|341:42|257:36|215:37|148:35|160:64,1,468.75
96,96,59404,6,0,B|96:96|97:277|135:296|176:257|214:206|244:172|258:54|321:105|352:160,1,450
376,278,60813,6,0,B|376:278|328:322|184:312|133:245|133:138|188:88|254:89|288:160,1,450
408,125,62222,6,0,B|408:125|306:301|204:216|192:86|139:54|79:83|64:192,1,468.75
128,320,63675,6,0,B|128:320|109:-2|108:-16|192:64|192:96|160:128|160:160|13:313|224:160|316:33|254:-11|466:3|372:48|139:156|357:144|43:151|-8:267|149:294|270:257|268:300|280:316|307:292|352:320,1,881.25
256,192,66537,12,0,73582
