osu file format v5

[General]
AudioFilename: Kirby.mp3
AudioLeadIn: 0
PreviewTime: -1
Countdown: 1
SampleSet: Soft
StackLeniency: 0.7
Mode: 0
LetterboxInBreaks: 1

[Metadata]
Title:Kirby
Artist:
Creator:Lasmon
Version:Normal
Source:Kirby Air Ride
Tags:

[Difficulty]
HPDrainRate:6
CircleSize:6
OverallDifficulty:4
SliderMultiplier:1.4
SliderTickRate:1

[Events]
//Background and Video events
//Break Periods
2,39163,47155
2,59651,64350
//Storyboard Layer 0 (Background)
//Storyboard Layer 1 (Failing)
//Storyboard Layer 2 (Passing)
//Storyboard Layer 3 (Foreground)
//Storyboard Sound Samples
//Background Colour Transformations
3,100,163,162,255

[TimingPoints]
0,365.853658536585,4,2,0,70,1

[HitObjects]
96,64,1097,1,0
160,64,2012,1,0
192,64,2378,1,0
224,64,2743,1,0
224,128,3292,1,0
224,160,3841,1,0
160,256,4756,5,0
224,256,5121,1,0
288,256,5487,1,0
352,224,6036,1,0
384,192,6585,2,0,B|0:192,1,350
32,256,7865,1,0
64,64,8414,2,0,B|96:160|96:224|64:288|64:352|128:352|192:352|192:288|192:224|192:160|192:64|256:0|320:64|320:160|320:224|288:288|288:384|384:352|512:384|448:288|448:224|448:160|448:64|352:64|288:64|96:64,1,1190
256,192,13353,12,0,19024
160,96,21951,5,4
256,96,22317,1,0
352,96,22682,1,4
160,160,23048,1,4
224,224,23414,1,0
288,224,23780,1,0
352,160,24146,1,4
256,64,25060,5,4
256,256,25792,1,4
256,96,26524,1,0
256,160,26890,1,0
256,224,27256,1,0
160,160,27621,5,2
192,160,27804,1,2
224,160,27987,1,2
288,160,28353,1,2
352,160,28719,2,2,B|512:160,2,140
160,128,30182,6,0,B|224:224|320:224|384:128|256:64,1,280
224,96,31646,1,0
256,64,32378,1,0
256,128,32743,1,0
256,192,33109,1,0
256,256,33841,5,2
256,192,34207,1,2
256,128,34573,1,2
224,160,34939,1,2
288,224,35304,1,2
224,256,35670,1,0
288,320,36036,1,8
256,96,36768,5,8
256,256,37499,1,8
192,128,38231,1,0
256,192,38597,1,0
320,256,38963,1,0
256,128,48475,5,0
256,160,49024,1,0
256,160,49207,1,0
256,256,49573,1,0
256,224,49939,1,0
256,288,50304,1,0
256,192,50670,1,0
160,160,51402,5,0
128,192,51585,1,0
128,192,51768,1,0
96,224,51951,1,0
96,288,52317,1,0
160,256,52499,1,0
192,224,52865,1,0
224,192,53231,1,0
224,160,53597,1,0
256,128,53963,1,0
256,64,54329,5,0
256,320,54695,1,0
480,192,55060,1,0
32,192,55426,1,0
416,64,55792,1,0
64,64,56158,1,0
416,320,56524,1,0
128,320,56890,1,0
192,32,57256,1,0
320,32,57621,1,0
256,224,57987,1,0
256,160,58353,1,0
256,96,58719,1,0
192,160,59085,1,0
320,160,59451,1,0
256,128,65670,5,4
