osu file format v5

[General]
AudioFilename: 03_Last Piece(ed1).mp3
AudioLeadIn: 0
PreviewTime: -1
Countdown: 2
SampleSet: Normal
StackLeniency: 0.7
Mode: 0
LetterboxInBreaks: 0

[Editor]
DistanceSpacing: 0.699999988079071
BeatDivisor: 4
GridSize: 8

[Metadata]
Title:Last Piece
Artist:Kirari
Creator:tom800510
Version:Ordinary Teacher!!?
Source:
Tags:

[Difficulty]
HPDrainRate:2
CircleSize:4
OverallDifficulty:1
SliderMultiplier:1.4
SliderTickRate:0.5

[Events]
//Background and Video events
0,0,"47_1024.jpg"
//Break Periods
2,163387,183848
//Storyboard Layer 0 (Background)
//Storyboard Layer 1 (Fail)
//Storyboard Layer 2 (Pass)
//Storyboard Layer 3 (Foreground)
//Storyboard Sound Samples
//Background Colour Transformations
3,100,0,0,0

[TimingPoints]
21480,638.297872340426,4,1,0,70,1,0
42087,-100,4,2,0,82,0,0
82623,-100,4,2,0,82,0,0
83097,-100,4,1,0,70,0,0
103204,-100,4,2,0,82,0,0
143261,-100,4,2,0,82,0,0
143895,-100,4,1,0,70,0,0
163367,-100,4,1,0,70,0,0
201980,-100,4,1,0,79,0,0
202619,-100,4,1,0,85,0,0
203257,-100,4,1,0,94,0,0
203895,-100,4,1,0,100,0,0
204511,-100,4,1,0,100,0,0
204671,-100,4,1,0,100,0,1
205172,-100,4,1,0,71,0,0
225581,-100,4,2,0,52,0,1

[Colours]
Combo1 : 220,169,99
Combo2 : 168,206,38
Combo3 : 33,86,211
Combo4 : 218,70,27

[HitObjects]
226,215,21479,2,0,B|352:215,2,105,4|0|0
162,215,22756,1,8
62,137,23394,1,0
125,140,23714,1,0
187,140,24033,1,4
249,140,24352,2,0,C|313:139|347:151|352:205,1,140
414,190,25309,1,8
298,241,25948,5,0
235,240,26267,1,0
172,240,26586,2,0,C|76:240|39:231,2,105,4|0|4
235,240,27862,1,8
350,285,28501,5,0
412,285,28820,1,0
474,281,29139,2,0,C|471:223|404:211|401:127,1,210,4|0
401,68,30416,1,8
275,78,31054,5,0
212,80,31373,1,0
149,83,31692,2,0,C|68:138|96:207|80:246,1,210,4|0
36,280,32969,1,8
151,329,33607,5,0
213,330,33926,1,0
275,328,34245,2,0,C|317:279|388:278|440:223,1,210,4|0
470,171,35522,1,8
256,192,36160,12,8,38075
283,126,38714,5,0
220,124,39033,1,0
183,175,39352,1,4
202,234,39671,1,0
257,264,39990,1,0
312,233,40309,1,0
327,171,40628,1,8
126,298,42224,6,2,C|223:298,1,70
258,295,42862,1,8
321,294,43182,2,0,C|401:294,1,70
491,172,44299,6,0,C|440:155|379:157,1,105
325,155,45097,2,2,C|260:152|238:114,2,105,8|0|8
387,156,46373,1,8
259,293,47331,6,2,C|372:293|427:197,1,210
435,150,48607,1,0
414,90,48926,1,8
357,61,49245,1,0
294,55,49565,2,2,C|215:81|257:136|140:166,1,245,2|8
81,175,51160,1,8
20,194,51479,1,8
158,322,52437,5,0
220,320,52756,1,8
282,318,53075,1,0
344,321,53394,1,8
406,314,53714,2,2,B|464:245|394:156,1,140,2|8
350,183,54671,1,0
287,187,54990,1,0
224,184,55309,1,8
161,185,55628,2,0,B|105:118|168:48,2,140,0|0|4
224,186,57224,5,8
286,185,57543,1,0
348,186,57862,1,0
411,184,58182,2,2,B|460:208|432:277|428:279|375:257,1,140,2|2
317,259,59139,2,0,B|264:256|248:308,1,70,2|2
209,328,59777,2,0,B|150:343|140:307,1,70,2|2
93,279,60416,2,0,B|44:264|19:297,1,70,0|6
285,92,62969,6,2,B|345:51|368:146|420:67|442:111,2,140
221,93,64565,2,2,B|163:69|119:114|76:92,2,140
454,188,67118,6,0,B|358:187,1,70
321,189,67756,1,0
258,190,68075,2,0,B|263:267,1,70,8|0
265,322,68714,2,0,B|142:314,2,105,0|0|8
326,310,69990,6,0,B|378:309|388:256,1,70
422,227,70628,1,8
447,169,70948,1,8
457,106,71267,2,0,B|406:61|339:232|322:23|306:-5|191:50,1,280,0|4
221,164,73182,6,2,B|161:118|128:200|67:158,2,140
283,164,74777,2,2,B|347:127|388:195|438:168,2,140
256,192,77331,12,8,79405
83,309,80203,5,2
176,321,80682,2,2,B|222:327|249:274,1,70
320,249,81479,2,2,B|387:203|476:255|436:249,2,140,2|8|6
242,302,83235,5,0
147,302,83714,1,0
142,239,84033,2,2,B|123:196|122:141|147:94,1,140
205,104,84990,1,0
206,41,85309,2,0,B|143:25|94:41,2,105,4|0|0
269,39,86586,2,2,B|321:53|385:49|426:41,1,140
470,45,87543,5,0
470,107,87862,1,4
406,106,88182,1,0
343,106,88501,1,0
280,107,88820,1,0
217,109,89139,2,2,C|130:108|89:166|87:169,1,140
78,208,90097,5,0
140,209,90416,1,4
202,208,90735,1,0
264,207,91054,1,0
326,209,91373,1,0
388,209,91692,2,2,C|465:214|493:254|497:275,1,140
496,328,92650,5,0
433,326,92969,2,0,C|389:334|348:324,3,70,4|0|0|0
301,325,94245,2,2,C|233:312|143:332,1,140
101,327,95203,6,0,C|44:301|37:221,1,140
95,201,96160,1,0
95,137,96479,1,0
36,114,96799,1,2
256,192,97437,12,6,99352
122,280,99990,6,0,C|153:320|194:329,1,70,0|0
233,318,100628,2,0,C|281:304|316:317,1,70
363,309,101267,2,0,C|407:311|433:285,2,70,0|0|2
52,254,103501,5,2
107,282,103820,1,0
162,251,104139,1,8
218,278,104458,1,2
276,253,104777,2,0,B|318:275|368:223,1,70
377,192,105416,1,0
425,152,105735,2,2,B|445:73|405:49,1,105
351,33,106533,1,0
289,47,106852,1,8
256,192,108607,12,2,110203
162,149,110841,5,0
222,167,111160,1,0
284,158,111479,2,0,B|330:127|388:163,2,105,8|0|6
132,329,113714,5,0
132,329,114033,1,8
257,332,114671,1,0
257,332,114990,1,0
382,332,115628,1,8
384,268,115948,2,0,B|455:224,1,70,0|0
443,168,116586,2,0,B|370:127,1,70,8|0
381,70,117224,2,0,B|452:36,1,70,0|4
256,192,118820,12,2,120416
164,194,121054,5,0
226,195,121373,1,0
288,195,121692,1,0
350,195,122011,1,8
75,84,124245,6,2,B|121:112|162:58|224:113,1,140
336,104,125522,1,0
398,104,125841,1,8
431,225,126479,1,0
368,226,126799,1,0
305,223,127118,2,2,B|220:234|129:185|80:235,1,210,8|0
96,285,128394,5,0
159,285,128714,2,2,B|225:308|274:281,1,105,2|8
263,192,129671,1,0
260,129,129990,2,2,B|204:108|152:157|133:107,2,105
323,131,131267,5,0
385,131,131586,1,0
447,131,131905,1,8
449,68,132224,1,0
386,67,132543,2,2,B|316:56|236:66,1,140,2|6
219,315,134458,6,2,B|177:295|120:336|77:289,1,140
82,169,135735,1,0
144,171,136054,1,8
269,173,136692,1,2
331,175,137011,1,0
394,174,137331,1,8
151,107,138607,6,0,B|241:129,1,70
310,146,139405,1,2
312,240,139884,2,0,B|214:272,1,70
157,295,140682,1,2
256,192,141479,12,8,142756
101,191,143394,5,4
101,64,144033,1,2
163,66,144352,1,0
225,67,144671,2,0,B|266:76|303:68,1,70,4|2
357,69,145309,1,8
449,155,145948,5,2
386,158,146267,1,0
323,158,146586,1,6
260,160,146905,1,0
197,162,147224,1,0
134,163,147543,1,2
71,164,147862,1,8
109,284,148501,6,0,B|194:278,1,70,2|0
241,286,149139,2,0,B|326:299,1,70,6|0
373,297,149777,2,0,B|454:275,4,70,2|0|8|0|2
322,258,151373,1,0
268,291,151692,1,12
236,236,152011,1,0
180,265,152331,1,0
144,212,152650,1,2
88,242,152969,1,8
72,117,153607,6,0,B|108:125|168:112,1,70,2|0
204,116,154245,1,12
267,117,154565,1,0
267,117,154884,1,0
329,116,155203,1,2
329,116,155522,1,8
413,209,156160,6,0,B|346:220|320:202,1,70,2|0
280,212,156799,1,12
217,212,157118,1,0
217,212,157437,1,0
154,213,157756,1,2
154,213,158075,1,12
256,192,158714,12,4,160628
72,188,161267,6,0,L|137:222|222:180,1,140,0|8
259,190,162224,1,0
321,189,162543,2,0,L|382:159|466:198,1,140,8|4
257,86,185522,5,0
257,211,186160,1,0
257,337,186799,1,2
257,274,187118,1,0
256,148,187756,2,0,L|256:-5,2,140
63,80,190628,5,0
111,120,190948,1,0
161,157,191267,1,2
262,82,191905,1,0
362,158,192543,2,0,C|414:213|444:219,2,105,2|0|0
312,118,193820,1,4
100,319,195735,5,0
162,320,196054,1,0
224,320,196373,2,0,C|281:301|278:248|328:232|348:187,1,210,2|0
373,139,197650,1,0
464,117,198128,1,0
410,39,198607,1,2
110,80,200841,6,0,C|61:145,1,70,0|4
63,198,201479,2,0,C|89:279,1,70
111,321,202118,2,0,C|196:351,1,70,0|0
211,291,202756,2,0,C|254:231,1,70,4|0
314,237,203394,2,0,C|408:232,1,70,0|4
428,277,204033,2,0,C|482:349,2,70,0|0|4
428,151,205309,5,2
431,88,205628,2,0,C|365:49|300:73,1,140
250,99,206586,1,12
191,75,206905,1,0
133,100,207224,5,2
133,100,207543,1,0
70,100,207862,1,12
70,100,208182,1,0
72,162,208501,1,0
72,224,208820,1,2
71,286,209139,1,8
153,191,209777,5,2
200,148,210097,1,0
262,142,210416,2,0,C|359:142|412:169,1,140,12|0
433,211,211373,1,0
370,211,211692,1,8
307,211,212011,1,0
243,210,212331,6,0,C|152:210,1,70,2|0
110,216,212969,2,0,C|50:259,1,70
55,319,213607,1,8
117,319,213926,1,0
179,320,214245,1,4
305,321,214884,6,0,C|404:321,2,70,2|0|0
303,226,216001,1,12
302,131,216479,1,0
302,68,216799,1,8
239,67,217118,1,0
176,67,217437,6,0,C|100:67|16:93,1,140,2|0
41,179,218554,1,12
44,273,219033,1,0
106,273,219352,1,8
106,335,219671,1,0
168,336,219990,6,0,C|270:336,1,70,2|0
300,334,220628,1,12
394,334,221107,1,0
394,239,221586,1,0
393,176,221905,1,8
282,114,222543,6,0,C|194:114,1,70,2|0
149,124,223182,2,0,C|149:219,1,70,0|2
156,256,223820,2,0,C|233:256,1,70
256,192,224458,12,0,225735
