osu file format v6

[General]
AudioFilename: Kinya Kotani - BLAZE.mp3
AudioLeadIn: 0
PreviewTime: 71350
Countdown: 0
SampleSet: Soft
StackLeniency: 0.7
Mode: 0
LetterboxInBreaks: 1

[Editor]
Bookmarks: 9973,14819,15973,29819,109434,149127,151665,173819
DistanceSpacing: 0.800000011920929
BeatDivisor: 4
GridSize: 8

[Metadata]
Title:BLAZE
Artist:Kinya Kotani
Creator:Lizbeth
Version:Easy
Source:Tsubasa Chronicle
Tags:Lissette

[Difficulty]
HPDrainRate:5
CircleSize:3
OverallDifficulty:4
SliderMultiplier:1.1
SliderTickRate:1

[Events]
//Background and Video events
0,0,"tsubasa-chronicle3.jpg"
//Break Periods
2,68549,70953
//Storyboard Layer 0 (Background)
//Storyboard Layer 1 (Fail)
//Storyboard Layer 2 (Pass)
//Storyboard Layer 3 (Foreground)
//Storyboard Sound Samples
//Background Colour Transformations
3,100,163,162,255

[TimingPoints]
11350,461.538461538462,4,2,2,71,1,0
25896,-100,4,1,2,71,0,0
27049,-100,4,2,2,71,0,0
72273,-100,4,2,2,71,0,1
72503,-100,4,2,2,71,0,0
95127,-100,4,1,2,71,0,0
96281,-100,4,2,2,71,0,0
101811,-100,4,2,2,71,0,1
102273,-100,4,1,2,71,0,0

[Colours]
Combo1 : 205,152,201
Combo2 : 255,89,172
Combo3 : 113,184,255
Combo4 : 239,227,82

[HitObjects]
40,104,11349,2,0,B|96:72|152:112,1,110,0|2
152,192,12273,2,0,B|208:224|264:184,1,110,0|2
264,104,13196,2,0,B|320:72|376:112,1,110,0|2
376,192,14119,2,0,B|432:224|488:184,1,110,0|2
440,272,15042,6,0,B|216:272,1,220,0|2
56,208,16888,2,0,B|168:208,3,110,2|0|2|0
232,152,18734,6,0,B|464:152,1,220,6|0
448,64,20119,1,2
272,64,21042,1,2
96,64,21965,1,2
96,240,22888,1,2
96,328,23350,1,0
176,288,23811,1,2
176,288,24273,2,0,B|408:288,1,220,0|2
256,192,26119,6,0,B|256:96,2,82.5,4|4|4
256,192,27042,12,0,29350
200,336,30273,6,0,B|120:328|128:264,1,110,2|0
128,184,31196,1,2
304,192,32119,2,0,B|384:184|376:120,1,110,2|0
376,40,33042,1,2
200,40,33965,6,0,B|136:80|152:144,2,110,2|0|2
248,208,35811,1,2
304,272,36273,2,0,B|328:280|320:320,2,55,0|0|2
368,208,37196,6,0,B|368:96,1,110,0|8
288,56,38119,2,0,B|288:168,1,110,0|8
208,208,39042,2,0,B|208:88,1,110,0|8
128,144,39965,2,0,B|128:89,2,55,0|0|8
128,232,40888,6,0,B|208:320,1,110,0|8
224,224,41811,2,0,B|304:312,1,110,0|8
328,224,42734,2,0,B|408:312,1,110,0|8
464,248,43657,2,0,B|416:200,2,55,0|0|8
416,80,45042,5,8
320,224,45965,1,2
224,72,46888,1,8
128,216,47811,1,2
32,64,48734,1,8
168,176,49657,2,0,B|168:288,3,110,2|0|8|0
256,288,51503,6,0,B|376:288,1,110,8|0
400,208,52426,2,0,B|280:208,1,110,8|0
248,128,53350,1,8
336,128,53811,2,0,B|400:128,3,55,0|2|0|2
424,256,55196,5,4
336,280,55657,2,0,B|336:216,2,55,0|2|0
256,312,56580,2,0,B|256:192,1,110,0|4
176,232,57503,2,0,B|176:287,2,55,0|2|0
96,264,58426,2,0,B|64:264,6,27.5
96,264,59350,6,0,B|232:336|336:216|456:336,1,330,2|0
431,224,61196,2,0,B|342:152|224:248|110:176,1,330,2|0
224,112,63042,2,0,B|256:144|328:88|368:144,3,110,0|2|0|2
400,64,64888,5,2
288,200,65811,1,2
168,328,66734,1,2
168,328,67426,2,0,B|48:328,2,110,0|2|0
40,128,72273,6,0,B|88:88|160:136,2,110,0|2|0
208,176,74119,2,0,B|256:216|328:168,2,110,0|2|0
376,136,75965,2,0,B|424:96|496:144,2,110,0|2|0
344,312,77811,5,0
256,312,78273,1,2
168,312,78734,1,0
296,192,79657,5,0
208,192,80119,1,2
248,112,80580,1,0
120,112,81273,6,0,B|0:112,4,110,0|2|0|2|0
296,112,84042,2,0,B|432:112,2,110,0|2|0
296,240,85657,1,4
120,240,86580,1,4
168,168,87042,6,0,B|168:48,1,110,0|8
240,112,87965,2,4,B|240:-16,1,110,0|8
312,56,88888,2,0,B|312:166,1,110,0|8
384,112,89811,2,0,B|384:222,1,110,0|8
400,304,90734,6,0,B|272:240|160:320,2,220
280,192,93503,1,0
120,112,94426,1,0
280,40,95349,6,0,B|311:15|359:39,2,82.5,4|4|4
256,192,96734,12,4,101811
