osu file format v5

[General]
AudioFilename: 11.-castlevania-stage-1.mp3
AudioLeadIn: 0
PreviewTime: -1
Countdown: 1
SampleSet: Normal
StackLeniency: 0.7
Mode: 0
LetterboxInBreaks: 1

[Metadata]
Title:Castlevania - Vampire Killer
Artist:Kinuyo Yamashita
Creator:adam2046
Version:Normal A
Source:
Tags:

[Difficulty]
HPDrainRate:3
CircleSize:5
OverallDifficulty:3
SliderMultiplier:1
SliderTickRate:2

[Events]
//Background and Video events
//Break Periods
//Storyboard Layer 0 (Background)
//Storyboard Layer 1 (Failing)
//Storyboard Layer 2 (Passing)
//Storyboard Layer 3 (Foreground)
//Storyboard Sound Samples
//Background Colour Transformations
3,100,163,162,255

[TimingPoints]
7460,466.735254027506,4,1,0,100

[HitObjects]
104,72,7693,2,0,C|152:136,1,75
208,136,8393,2,0,C|208:176,3,25
280,88,9326,5,0
280,128,9560,2,0,C|280:184,6,50
336,192,11427,5,0
272,192,11777,1,0
272,128,12127,1,0
272,128,12244,1,0
272,128,12360,1,0
144,128,13060,5,0
168,184,13410,1,0
208,232,13760,1,0
272,240,14110,1,0
336,240,14461,1,0
336,152,14927,5,0
336,88,15277,1,0
272,88,15627,2,0,C|136:88,1,125
88,88,16561,1,0
64,120,16794,1,0
104,160,17144,1,0
160,184,17494,2,0,B|296:184,1,125
384,184,18661,5,0
384,120,19011,1,0
320,120,19361,2,0,C|176:120,1,125
192,176,20295,1,0
192,216,20528,2,0,C|344:216,1,150
344,256,21462,2,0,C|184:256,1,150
144,184,22395,2,0,B|208:96|360:88|400:176,1,300
480,176,24262,6,0,B|480:232,2,50
400,176,25195,2,0,B|400:240,2,50
320,176,26129,2,0,B|184:184|184:312|400:216,1,300
320,248,27996,6,0,B|320:312,2,50
400,248,28929,2,0,B|400:312,2,50
360,176,29863,6,0,B|232:176|176:80,1,200
128,96,31146,2,0,B|128:224,1,125
64,224,32080,1,0
64,160,32430,1,0
64,120,32663,2,0,B|64:256,1,125
40,304,33597,5,0
96,304,33947,1,0
136,304,34180,2,0,B|136:144,1,150
192,144,35230,1,0
192,144,35464,1,0
192,200,35814,1,0
184,256,36164,1,0
144,256,36397,2,0,B|40:280|40:112,1,200
72,96,37564,5,0
128,112,37914,1,0
176,144,38264,1,0
224,176,38614,1,0
304,120,39197,5,0
296,176,39548,1,0
272,232,39898,1,0
232,280,40248,1,0
176,304,40598,1,0
296,304,41298,6,0,B|296:224,1,75
296,168,41998,2,0,B|296:136,3,25
192,144,42931,1,0
192,184,43165,2,0,B|256:184,6,50
192,144,44798,6,0,B|352:144,1,150
384,144,45732,2,0,B|384:312,1,150
344,296,46665,2,0,B|208:296,1,125
160,296,47599,2,0,B|160:200,1,75
160,120,48532,5,0
216,120,48882,1,0
312,120,49466,1,0
344,168,49816,1,0
440,152,50399,1,0
440,152,50749,1,0
440,48,51333,1,0
440,48,51683,1,0
352,96,52266,5,0
256,192,52616,12,0,53900
352,112,54133,1,0
352,112,54366,1,0
224,112,55066,1,0
224,112,55300,1,0
224,232,56000,1,0
256,192,56350,12,0,57634
