osu file format v5

[General]
AudioFilename: 11.-castlevania-stage-1.mp3
AudioLeadIn: 0
PreviewTime: -1
Countdown: 1
SampleSet: Normal
StackLeniency: 0.7
Mode: 0
LetterboxInBreaks: 1

[Metadata]
Title:Castlevania - Vampire Killer
Artist:Kinuyo Yamashita
Creator:adam2046
Version:Hard
Source:
Tags:

[Difficulty]
HPDrainRate:3
CircleSize:6
OverallDifficulty:5
SliderMultiplier:1.7
SliderTickRate:0.5

[Events]
//Background and Video events
//Break Periods
//Storyboard Layer 0 (Background)
//Storyboard Layer 1 (Failing)
//Storyboard Layer 2 (Passing)
//Storyboard Layer 3 (Foreground)
//Storyboard Sound Samples
//Background Colour Transformations
3,100,163,162,255

[TimingPoints]
7460,466.735154027506,4,1,0,100

[HitObjects]
80,104,7459,1,0
152,104,7693,1,0
256,104,8043,1,0
256,208,8393,1,0
256,208,8510,1,0
256,208,8626,1,0
256,208,8743,1,0
112,104,9326,1,0
184,104,9560,1,0
184,104,9676,1,0
256,104,9910,2,0,L|304:104,9,42.5
440,88,11427,5,0
336,88,11777,1,0
336,192,12127,1,0
336,192,12244,1,0
336,192,12360,1,0
336,192,12477,1,0
160,192,13060,1,0
160,120,13294,1,0
160,120,13410,1,0
232,120,13644,2,0,L|232:184,9,42.5
256,232,14927,5,0
160,184,15277,1,0
256,136,15627,1,0
256,208,15861,1,0
232,312,16211,1,0
128,312,16561,1,0
96,248,16794,5,0
136,152,17144,1,0
240,152,17494,1,0
312,152,17728,1,0
408,192,18078,1,2
232,192,18661,5,0
128,192,19011,1,0
128,88,19361,1,0
200,88,19595,1,0
200,192,19945,1,0
304,192,20295,1,0
248,240,20528,5,0
160,184,20878,1,0
80,112,21228,1,0
144,88,21462,1,0
248,56,21812,1,0
352,24,22162,1,0
416,56,22395,5,2
416,56,22512,1,2
416,88,22628,1,2
416,88,22745,2,2,B|240:88|88:56|40:168|352:160,1,510
344,192,24262,5,0
400,232,24495,1,0
344,272,24729,1,0
344,272,24845,1,0
240,272,25195,1,0
208,208,25429,1,0
160,152,25662,1,0
160,152,25779,1,0
56,136,26129,5,2
56,136,26246,1,2
56,168,26362,1,2
56,168,26479,2,2,B|244:168|316:49|480:123|480:328,1,552.5
32,192,29863,5,0
64,192,29979,1,0
136,192,30213,1,0
208,192,30446,2,0,L|440:192,1,212.5
416,160,31146,1,0
416,88,31380,1,0
416,56,31496,1,0
384,56,31613,1,0
352,56,31730,1,0
256,80,32080,1,0
168,128,32430,1,0
168,192,32663,2,0,L|432:192,1,255
424,120,33597,5,0
424,120,33713,1,0
352,120,33947,1,0
280,120,34180,2,0,L|40:120,1,212.5
64,152,34880,6,0,L|64:208,5,42.5
160,168,35814,1,0
264,168,36164,1,0
336,176,36397,2,0,L|40:352,1,340
40,280,37564,5,0
40,176,37914,1,0
144,176,38264,2,0,L|208:176,3,42.5
360,152,39197,1,0
288,152,39431,1,0
288,152,39548,1,0
288,224,39781,2,0,C|288:280,9,42.5
424,224,41298,5,0
360,136,41648,1,0
256,136,41998,2,0,L|192:136,3,42.5
32,136,42931,1,0
88,176,43165,1,0
88,176,43281,1,0
160,192,43515,1,0
160,192,43631,1,0
160,192,43748,1,0
160,192,43865,1,0
160,192,43982,1,0
160,192,44098,1,0
160,192,44215,1,0
160,192,44332,1,0
160,192,44448,1,0
160,192,44565,1,0
216,232,44798,5,0
312,184,45148,1,0
400,128,45498,2,0,L|464:208,1,85
400,288,46082,1,0
296,304,46432,5,0
224,304,46665,1,0
120,304,47015,2,0,L|120:176,1,127.5
120,104,47599,1,0
208,168,47949,1,0
168,344,48532,5,0
208,248,48882,1,0
256,152,49232,1,0
312,192,49466,1,0
312,296,49816,1,0
208,264,50166,1,0
144,232,50399,1,0
72,152,50749,1,0
72,48,51099,1,0
136,72,51333,1,0
240,104,51683,1,0
240,208,52033,1,0
232,280,52266,5,0
232,280,52383,1,0
232,312,52499,1,0
232,312,52616,2,0,C|432:144|224:45,1,467.5
184,56,54133,5,0
184,128,54366,1,0
256,128,54600,1,0
256,128,54716,1,0
256,232,55066,1,0
200,184,55300,1,0
208,112,55533,1,0
208,112,55650,1,0
136,32,56000,5,0
136,32,56117,1,0
96,32,56233,1,0
96,32,56350,2,0,L|385:34|384:248,1,467.5
392,280,57867,5,0
392,352,58100,1,0
320,352,58334,1,0
288,352,58450,1,0
184,352,58800,1,0
184,280,59034,1,0
184,208,59267,1,0
184,168,59384,1,0
