osu file format v9

[General]
AudioFilename: Todokebutsu.mp3
AudioLeadIn: 0
PreviewTime: 32775
Countdown: 0
SampleSet: Soft
StackLeniency: 0.7
Mode: 0
LetterboxInBreaks: 1

[Editor]
Bookmarks: 44623,81158,113427,129561,147723,177965,210234,217549,217802,234187,235195,245528,277797,285864
DistanceSpacing: 0.4
BeatDivisor: 4
GridSize: 4

[Metadata]
Title:Todoke Mono
Artist:Kinomi Hijiri
Creator:Nymph_
Version:Normal
Source:D.C.II ~Da Capo II~
Tags:Asakura Yume

[Difficulty]
HPDrainRate:1
CircleSize:4
OverallDifficulty:1
ApproachRate:4
SliderMultiplier:1.2
SliderTickRate:1

[Events]
//Background and Video events
0,0,"1.jpg"
//Break Periods
2,113641,128758
2,210439,226313
//Storyboard Layer 0 (Background)
//Storyboard Layer 1 (Fail)
//Storyboard Layer 2 (Pass)
//Storyboard Layer 3 (Foreground)
//Storyboard Sound Samples
//Background Colour Transformations
3,100,163,162,255

[TimingPoints]
2526,504.159314343332,4,2,0,60,1,0
81174,-100,4,2,1,60,0,1
113441,-100,4,2,0,60,0,0
177973,-100,4,2,1,60,0,1
210239,-100,4,2,1,60,0,0
227507,-100,4,2,1,40,0,0
242505,-100,4,2,2,60,0,0
245404,-100,4,2,1,60,0,0
245530,-100,4,2,1,60,0,1
251706,-100,4,2,0,60,0,1
251958,-100,4,2,1,60,0,1
277796,-100,4,2,1,60,0,0
277797,-100,4,2,1,99,0,1
277798,-100,4,2,1,99,0,0

[Colours]
Combo1 : 217,179,255
Combo2 : 142,199,255
Combo3 : 255,179,255
Combo4 : 0,128,255

[HitObjects]
64,128,33279,1,2
128,56,33783,1,0
224,56,34288,1,2
224,56,34792,2,0,B|280:16|336:60,1,120,0|2
416,104,35800,1,0
416,248,37312,5,2
360,328,37817,1,0
264,328,38321,1,2
264,328,38825,2,0,B|204:327|204:327|165:280,1,120,0|2
168,232,39581,2,0,B|227:232|227:232|266:279,1,120
312,280,40337,2,0,B|376:280,1,60,2|0
448,152,41346,5,2
448,56,41850,1,0
368,104,42354,1,2
368,104,42858,2,0,B|361:32|249:32|241:104,1,180
240,152,43867,1,0
192,288,44623,6,0,B|132:288,2,60
288,288,45631,2,0,B|348:288,2,60
240,208,46639,6,0,B|180:208,1,60,0|2
80,208,47396,1,2
32,120,47900,1,2
80,40,48404,1,2
176,40,48908,1,4
232,120,49412,5,2
288,200,49916,1,0
344,120,50421,1,2
440,120,50925,2,0,B|464:176|464:176|432:240,1,120,0|2
388,232,51681,2,0,B|372:256|372:256|390:288,1,60
256,320,53446,5,2
160,320,53950,1,0
64,320,54454,1,2
64,224,54958,2,0,B|24:208|24:120|80:120,1,120,0|2
112,124,55714,2,0,B|152:140|152:228|96:228,1,120
88,264,56471,2,0,B|104:288|72:296|88:320,1,60,2|0
232,320,57479,5,2
328,320,57983,1,0
424,320,58487,1,2
488,248,58991,2,0,B|520:192|480:112,1,120,0|2
440,136,59748,2,0,B|416:104|448:72,1,60
296,72,60756,6,0,B|356:72,2,60,0|4|0
200,72,61764,2,0,B|140:72,2,60
248,152,62773,6,0,B|248:212,1,60,0|2
184,288,63529,1,2
248,360,64033,1,2
312,288,64537,1,2
248,216,65041,6,0,B|272:160|224:136|264:80,1,120,4|2
348,96,66050,1,0
348,96,66554,2,0,B|408:96,1,60,2|0
352,224,67562,5,2
304,224,67814,2,0,B|208:192|120:224,1,180,0|2
56,288,69075,1,0
136,344,69579,5,2
184,344,69831,2,0,B|280:376|368:344,1,180,0|2
416,264,71091,1,0
416,168,71595,2,0,B|356:168,1,60,2|0
260,168,72352,2,0,B|332:168,1,60,0|2
320,264,73108,6,0,B|400:264,2,60,4|0|2
224,264,74116,1,0
272,348,74620,2,0,B|212:348,1,60,2|0
328,264,75629,5,2
376,264,75881,2,0,B|416:176|376:88,1,180,0|2
280,88,77141,1,0
184,88,77645,5,2
136,88,77897,2,0,B|96:176|136:264,1,180,0|2
256,192,79158,12,0,81174
272,144,81679,5,8
368,144,82183,1,0
408,232,82687,2,0,B|336:232,1,60,8|0
288,312,83443,2,0,B|360:312,1,60,0|8
440,312,84199,1,0
440,216,84703,1,8
328,128,85460,6,0,B|328:68,2,60,0|8|0
328,176,86216,2,0,B|388:176,2,60,0|0|8
280,176,86972,1,0
204,116,87476,1,0
128,176,87981,1,0
128,176,88485,1,8
200,304,89241,5,4
280,352,89745,1,8
376,352,90249,1,0
456,304,90753,2,0,B|456:244,1,60,8|0
392,168,91510,6,0,B|452:168,2,60,0|8|0
344,168,92266,1,0
248,168,92770,2,0,B|188:168,1,60,8|0
140,168,93274,1,4
64,108,93778,2,0,B|64:48,1,60,8|0
140,108,94535,2,0,B|200:108,1,60,0|4
252,188,95291,5,0
300,272,95795,1,8
204,272,96299,1,0
156,188,96803,1,8
60,188,97307,5,4
40,92,97812,1,8
116,32,98316,1,0
212,32,98820,2,0,B|284:32,1,60,8|0
308,120,99576,2,0,B|236:120,1,60,0|8
156,120,100332,1,0
60,120,100837,1,8
164,224,101593,6,0,B|92:224,2,60,0|8|0
212,224,102349,2,0,B|284:224,2,60,0|0|8
212,176,103105,1,0
132,120,103609,1,0
172,32,104114,1,0
252,88,104618,1,8
396,88,105374,5,4
396,88,105878,1,8
396,184,106382,2,0,B|436:200|436:288|380:288,1,120,0|8
348,284,107139,2,0,B|308:268|308:180|364:180,1,120
372,144,107895,1,8
372,48,108399,1,0
276,48,108903,6,0,B|196:48,2,60,8|0|4
372,48,109911,2,0,B|436:48,1,60,8|4
372,124,110668,2,0,B|312:124,2,60,0|8|4
256,192,111424,12,4,113441
72,72,130078,5,2
160,40,130582,1,0
248,72,131086,1,2
176,136,131590,2,0,B|256:184|368:136,1,180
400,144,132599,1,0
280,240,134111,5,2
216,312,134615,1,0
152,240,135119,1,2
212,168,135624,2,0,B|168:104|228:32,1,120,0|2
260,56,136380,2,0,B|304:120|244:192,1,120,0|0
232,208,137136,2,0,B|248:240|212:248|240:280,1,60,2|0
352,344,138144,5,2
448,344,138649,1,0
400,260,139153,1,2
400,260,139657,2,0,B|456:252|456:124|392:116,1,180
396,68,140665,1,0
252,72,141421,6,0,B|192:72,2,60
272,168,142430,2,0,B|352:168,2,60
176,168,143438,6,0,B|112:168,1,60,0|2
76,80,144194,1,2
32,168,144698,1,2
76,256,145203,1,2
76,256,145707,1,4
156,308,146211,5,2
240,264,146715,1,0
176,192,147219,1,2
176,192,147723,2,0,B|136:184|136:96|192:96,1,120,0|2
228,100,148480,2,0,B|252:140|224:164,1,60
280,328,150244,5,2
376,328,150748,1,0
432,248,151252,1,2
432,152,151757,2,0,B|464:96|424:24,1,120,0|2
383,37,152513,2,0,B|351:93|391:165,1,120,0|0
384,200,153269,2,0,B|384:272,2,60,2|0|0
312,136,154277,5,4
240,72,154782,1,0
168,136,155286,1,2
168,136,155790,2,0,B|128:208|184:264,1,120,0|2
216,248,156546,2,0,B|240:288|200:328,1,60
216,160,157554,6,0,B|168:104,2,60,0|4|0
312,160,158563,2,0,B|368:112,2,60
264,240,159571,2,0,B|264:320,1,60,0|2
352,328,160327,1,2
264,360,160832,1,2
176,328,161336,1,2
264,296,161840,6,0,B|264:224,2,60,4|0|2
168,296,162848,1,0
128,208,163352,2,0,B|56:208,2,60,2|0|0
224,208,164361,5,2
224,208,164613,2,0,B|288:240|328:160|424:216,1,180,0|2
496,200,165873,1,0
448,280,166377,5,2
448,280,166629,2,0,B|384:248|344:328|248:272,1,180,0|2
176,280,167890,1,0
176,184,168394,2,0,B|116:184,1,60,2|0
80,96,169150,2,0,B|144:96,1,60,0|2
232,96,169906,6,0,B|312:96,2,60,4|0|2
136,96,170915,1,0
104,184,171419,2,0,B|32:184,2,60,2|0|0
200,184,172427,5,2
248,184,172679,2,0,B|352:144|440:192,1,180,0|2
480,256,173940,1,0
424,336,174444,5,2
376,336,174696,2,0,B|272:376|184:328,1,180,0|2
120,288,175956,1,2
64,208,176460,1,2
64,112,176965,1,2
120,32,177469,1,2
176,112,177973,5,4
272,112,178477,1,8
368,112,178981,1,0
348,204,179485,2,0,B|276:204,1,60,8|0
192,204,180242,2,0,B|132:204,1,60,0|8
160,296,180998,1,0
256,296,181502,1,8
400,296,182258,6,0,B|464:296,2,60,0|8|0
400,248,183015,2,0,B|400:168,2,60,0|0|8
352,248,183771,1,0
280,184,184275,1,0
208,248,184779,1,0
280,312,185283,1,8
136,312,186039,5,4
64,248,186544,1,8
136,184,187048,1,0
232,184,187552,2,0,B|296:184,1,60,8|0
392,184,188308,6,0,B|472:184,2,60,0|8|0
368,144,189064,2,0,B|288:144,1,60
280,184,189569,2,0,B|216:184,1,60,8|0
172,184,190073,1,4
160,88,190577,6,0,B|240:88,1,60,8|0
320,88,191333,2,0,B|384:88,1,60,0|8
408,176,192089,1,0
312,176,192594,1,8
216,176,193098,1,0
216,176,193602,1,8
168,96,194106,5,4
112,176,194610,1,8
168,256,195114,1,0
264,256,195619,2,0,B|336:256,1,60,8|0
368,176,196375,2,0,B|296:176,1,60,0|8
212,176,197131,1,0
116,176,197635,1,8
216,72,198391,6,0,B|216:0,2,60,0|8|0
216,120,199148,2,0,B|216:192,2,60,0|0|8
264,120,199904,1,4
344,72,200408,1,0
424,120,200912,1,4
344,176,201416,1,8
344,320,202173,5,4
344,320,202677,1,8
248,320,203181,2,0,B|184:344|128:320,1,120,0|8
128,272,203937,2,0,B|192:248|248:272,1,120
296,272,204693,1,8
392,272,205198,1,0
392,176,205702,6,0,B|452:176,2,60,8|0|4
328,104,206710,2,0,B|268:104,1,60,8|4
208,176,207466,2,0,B|148:176,2,60,0|8|4
256,192,208223,12,4,210239
160,96,227633,6,0,B|80:96,2,60
256,96,228641,2,0,B|316:96,2,60
208,176,229649,6,0,B|128:176,2,60
304,176,230658,2,0,B|364:176,2,60
256,264,231666,6,0,B|320:264,2,60
160,264,232674,2,0,B|96:264,1,60
52,264,233178,1,0
104,180,233683,1,0
104,84,234187,1,0
392,76,235699,6,0,B|472:76,2,60
296,76,236708,2,0,B|236:76,2,60
344,160,237716,6,0,B|424:160,2,60
248,160,238724,2,0,B|188:160,2,60
296,248,239732,6,0,B|232:248,2,60
392,248,240741,2,0,B|464:248,1,60
500,248,241245,1,0
456,336,241749,1,0
360,336,242253,1,0
256,192,242505,12,4,244396
256,112,244774,6,0,B|256:40,2,60,4|4|4
256,160,245530,5,4
192,232,246034,1,8
256,304,246539,1,0
320,232,247043,2,0,B|380:232,1,60,8|0
352,144,247799,2,0,B|292:144,1,60,0|8
240,64,248555,1,0
188,144,249059,1,8
320,216,249816,6,0,B|384:216,2,60,0|8|0
320,264,250572,2,0,B|320:352,2,60,0|0|8
272,264,251328,1,4
176,264,251832,1,2
120,184,252336,1,4
120,88,252841,1,8
264,88,253597,5,4
360,88,254101,1,8
360,88,254605,1,0
320,176,255109,2,0,B|384:176,1,60,8|0
384,272,255866,6,0,B|456:272,2,60,0|8|0
336,272,256622,1,0
240,272,257126,2,0,B|176:272,1,60,8|0
132,272,257630,5,4
96,184,258134,2,0,B|176:184,1,60,0|4
160,88,258891,2,0,B|224:88,1,60,0|4
312,88,259647,5,0
408,88,260151,1,8
464,168,260655,1,0
464,264,261159,1,8
368,264,261663,5,4
272,264,262168,1,8
272,264,262672,1,0
200,328,263176,2,0,B|140:328,1,60,8|0
80,248,263932,2,0,B|140:248,1,60,0|8
232,248,264688,1,0
184,168,265193,1,8
328,168,265949,6,0,B|268:168,2,60,0|8|0
376,168,266705,2,0,B|448:168,2,60,0|0|8
352,128,267461,1,4
352,128,267965,1,0
352,32,268470,1,4
352,32,268974,1,8
208,32,269730,5,4
112,32,270234,1,8
48,104,270738,2,0,B|16:184|64:256,1,120,0|8
92,220,271494,2,0,B|124:140|76:68,1,120
72,60,272251,1,8
168,60,272755,1,0
208,148,273259,6,0,B|268:148,2,60,8|0|4
112,148,274267,2,0,B|52:148,1,60,8|4
112,224,275024,2,0,B|172:224,2,60,0|8|4
256,192,275780,12,4,277796
