osu file format v9

[General]
AudioFilename: Todokebutsu.mp3
AudioLeadIn: 0
PreviewTime: 32775
Countdown: 0
SampleSet: Soft
StackLeniency: 0.7
Mode: 0
LetterboxInBreaks: 1

[Editor]
Bookmarks: 44623,81158,113427,129561,177965,210234,217549,217802,234187,235195,241371,245528,277797,285864
DistanceSpacing: 0.8
BeatDivisor: 4
GridSize: 4

[Metadata]
Title:Todoke Mono
Artist:Kinomi Hijiri
Creator:Nymph_
Version:Hard
Source:D.C.II ~Da Capo II~
Tags:Asakura Yume

[Difficulty]
HPDrainRate:6
CircleSize:4
OverallDifficulty:6
ApproachRate:7
SliderMultiplier:1.6
SliderTickRate:1

[Events]
//Background and Video events
0,0,"1.jpg"
//Break Periods
2,113641,129178
2,242453,244630
//Storyboard Layer 0 (Background)
//Storyboard Layer 1 (Fail)
//Storyboard Layer 2 (Pass)
//Storyboard Layer 3 (Foreground)
//Storyboard Sound Samples
//Background Colour Transformations
3,100,163,162,255

[TimingPoints]
2526,504.159314343332,4,2,1,60,1,0
32775,-100,4,2,0,60,0,0
66554,-100,4,2,2,60,0,0
81174,-100,4,2,1,60,0,1
113441,-100,4,2,0,60,0,0
163730,-100,4,2,2,60,0,0
169780,-100,4,2,0,60,0,0
170032,-100,4,2,2,60,0,0
177847,-100,4,2,1,60,0,0
177973,-100,4,2,1,60,0,1
210113,-100,4,2,2,60,0,1
210239,-100,4,2,2,60,0,0
226246,-100,4,2,0,60,0,0
227507,-100,4,2,1,40,0,0
242505,-100,4,2,1,50,0,0
245404,-100,4,2,0,50,0,0
245530,-100,4,2,0,80,0,1
246034,-100,4,2,1,80,0,1
251202,-100,4,2,0,80,0,1
252589,-100,4,2,1,80,0,1
275780,-100,4,2,1,60,0,1
277796,-100,4,2,1,100,0,0
277797,-100,4,2,1,99,0,1
277798,-100,4,2,1,99,0,0

[Colours]
Combo1 : 217,179,255
Combo2 : 142,199,255
Combo3 : 255,179,255
Combo4 : 0,128,255

[HitObjects]
144,64,33279,1,2
48,152,33783,1,0
104,264,34288,1,2
208,344,34792,2,0,B|288:376|416:312,1,160,0|2
424,304,35548,1,0
392,248,35800,2,0,B|344:224|296:240,1,80
256,272,36304,1,2
232,336,36556,2,0,B|144:352|136:312,1,80
88,216,37312,5,2
40,96,37817,1,0
152,40,38321,1,2
280,40,38825,2,0,B|360:0|448:48,1,160,0|2
432,104,39581,2,0,B|357:144|277:104,1,160
216,104,40337,2,0,B|112:104,2,80,2|0|0
96,272,41346,5,2
200,352,41850,1,0
328,352,42354,1,2
328,352,42858,2,0,B|432:352|432:216,1,160,0|2
432,184,43614,1,0
432,184,43867,1,0
432,120,44119,1,0
432,120,44371,1,2
320,64,44623,5,0
360,120,44875,1,0
320,176,45127,1,0
192,64,45631,5,0
152,120,45883,1,0
192,176,46135,1,0
256,192,46639,5,0
256,120,46892,2,0,B|248:64|296:24,1,80,2|0
328,192,47396,2,0,B|384:184|424:232,1,80,2|0
256,264,47900,2,0,B|264:320|216:360,1,80,2|0
184,192,48404,2,0,B|128:200|88:152,1,80,2|0
108,172,48908,1,4
152,296,49412,5,2
264,360,49916,1,0
376,296,50421,1,2
376,296,50925,2,0,B|432:272|432:184|368:160,1,160,0|2
328,120,51681,1,0
272,160,51933,2,0,B|256:144|208:144|192:160,1,80
200,224,52437,2,0,B|184:240|136:240|120:224,1,80,2|0
56,224,52941,1,0
184,72,53446,5,2
312,24,53950,1,0
424,88,54454,1,2
424,216,54958,2,0,B|456:264|456:320|424:368,1,160,0|2
360,368,55714,2,0,B|328:321|328:265|360:217,1,160
360,152,56471,1,2
304,184,56723,1,0
360,218,56975,1,0
344,344,57479,5,2
216,360,57983,1,0
112,288,58487,1,2
112,288,58991,2,0,B|56:264|56:176|120:152,1,160,0|2
112,96,59748,1,0
112,96,60000,1,0
240,96,60504,5,2
304,96,60756,2,0,B|384:96,2,80,0|4|0
280,224,61764,2,0,B|200:224,2,80,0|0|0
320,344,62773,5,0
320,344,63025,2,0,B|368:344|408:312,1,80,2|0
395,321,63529,2,0,B|432:304|456:256,1,80,2|0
451,265,64033,2,0,B|472:232|472:184,1,80,2|0
471,189,64537,2,0,B|472:144|448:104,1,80,2|0
312,64,65041,5,4
264,24,65293,1,0
216,64,65545,1,2
312,152,66050,1,0
264,272,66554,2,0,B|160:272,1,80,2|0
120,272,67058,1,6
32,176,67562,5,2
72,128,67814,2,0,B|96:88|208:80|232:152,1,160
256,176,68570,1,2
384,176,69075,1,6
320,64,69579,5,2
272,112,69831,2,0,B|232:136|224:248|296:272,1,160
312,304,70587,1,2
184,304,71091,1,4
104,200,71595,5,2
104,200,71847,1,0
104,136,72099,2,0,B|112:96|152:64,1,80,6|0
145,69,72604,2,0,B|184:40|224:40,1,80,6|0
312,32,73108,5,6
376,32,73360,1,0
344,88,73612,1,2
344,216,74116,1,0
296,336,74620,2,0,B|192:336,1,80,2|0
152,336,75124,1,6
128,208,75629,5,2
192,208,75881,2,0,B|216:248|328:256|352:184,1,160
384,168,76637,1,2
384,40,77141,1,6
256,40,77645,5,2
256,40,77897,2,0,B|168:16|96:44,1,160
52,88,78654,1,2
0,208,79158,1,0
0,208,79410,1,0
32,264,79662,6,0,B|57:311|106:325,1,80,6|0
184,328,80166,2,0,B|229:356|278:344,1,80,6|0
352,328,80670,2,0,B|405:329|442:294,1,80,6|0
432,176,81174,5,4
360,72,81679,1,8
240,32,82183,1,0
128,88,82687,1,8
120,152,82939,2,0,B|8:152,1,80
56,216,83443,2,0,B|168:216,1,80,0|8
176,264,83947,1,0
216,216,84199,1,0
296,120,84703,1,8
376,216,85208,5,0
376,216,85460,2,0,B|456:216,2,80,0|8|0
360,280,86216,2,0,B|280:280,2,80,0|0|8
424,280,86972,1,0
456,152,87476,1,0
416,104,87728,1,8
376,56,87981,1,0
256,48,88485,2,0,B|160:48,1,80,8|8
96,136,89241,5,4
24,240,89745,1,8
96,344,90249,1,0
224,344,90753,2,0,B|240:360|288:360|304:344,1,80,8|0
392,256,91510,6,0,B|288:256,2,80,0|0|0
456,256,92266,1,0
376,152,92770,2,0,B|464:152,2,80,8|0|4
280,64,93778,1,0
280,64,94030,1,0
152,64,94535,1,0
152,64,94787,1,4
152,64,95039,1,0
104,112,95291,6,0,B|88:128|88:176|104:192,1,80,8|0
192,160,95795,2,0,B|208:176|208:224|184:240,1,80,8|0
168,328,96299,2,0,B|88:328,2,80,8|8|8
264,328,97055,1,8
360,328,97307,5,4
448,232,97812,1,8
424,104,98316,1,0
320,32,98820,1,8
256,32,99072,2,0,B|160:32,1,80,0|0
176,32,99576,1,0
112,32,99828,1,8
56,144,100332,1,0
104,264,100837,1,8
232,264,101341,5,0
232,264,101593,2,0,B|312:264,1,80,0|8
376,264,102097,1,0
376,200,102349,2,0,B|456:200,2,80,0|0|8
312,200,103105,1,0
312,72,103609,1,0
368,104,103862,1,8
420,136,104114,1,0
360,256,104618,1,8
296,256,104870,1,8
168,256,105374,5,4
168,256,105878,1,8
276,324,106382,2,0,B|300:364|412:372|436:300,1,160,0|8
420,260,107139,2,0,B|396:220|284:212|260:284,1,160
224,292,107895,1,8
224,292,108399,1,0
152,188,108903,5,8
152,188,109155,1,0
152,188,109407,1,4
280,164,109911,2,0,B|296:148|344:148|360:164,1,80,8|4
312,284,110668,2,0,B|296:300|248:300|232:284,2,80,0|0|4
256,192,111424,12,4,113441
88,64,130078,5,2
208,24,130582,1,0
328,64,131086,1,2
432,144,131590,2,0,B|464:224|424:328,1,160,0|2
368,288,132347,1,0
320,240,132599,2,0,B|232:224|224:264,1,80
192,288,133103,1,2
192,352,133355,2,0,B|104:368|96:328,1,80
224,216,134111,5,2
144,112,134615,1,0
240,24,135119,1,2
240,24,135624,2,0,B|344:24|344:152,1,160,0|2
344,184,136380,1,0
344,184,136632,2,0,B|344:280|232:280,1,160,0|2
176,280,137388,1,0
112,280,137640,1,0
176,168,138144,5,2
72,96,138649,1,0
176,24,139153,1,2
280,96,139657,1,0
384,168,140161,1,2
384,168,140413,1,0
384,168,140665,1,0
384,296,141169,5,2
384,296,141421,1,0
328,328,141673,1,0
328,328,141926,1,0
136,328,142682,1,0
136,328,142934,1,0
48,152,143690,5,2
48,152,143942,1,0
88,104,144194,1,2
88,104,144446,1,0
136,64,144698,2,0,B|224:48|232:88,1,80,2|0
294,64,145203,2,0,B|206:48|198:88,1,80,2|0
216,129,145707,1,6
176,320,146211,5,2
296,360,146715,1,0
416,320,147219,1,2
416,320,147723,2,0,B|472:296|472:208|408:184,1,160,0|2
352,192,148480,1,0
312,136,148732,1,0
272,192,148984,1,0
232,136,149236,1,2
192,192,149488,1,0
128,192,149740,1,0
32,272,150244,5,2
152,320,150748,1,0
280,320,151252,1,2
280,320,151757,2,0,B|304:376|392:376|416:312,1,160,2|2
408,264,152513,2,0,B|384:208|296:208|272:272,1,160,2|2
224,296,153269,1,2
176,336,153521,1,0
128,296,153773,1,0
56,120,154277,5,2
152,32,154782,1,0
280,32,155286,1,2
280,32,155790,2,0,B|384:32|384:160,1,160,0|2
384,132,156546,1,0
384,192,156798,1,0
312,368,157554,6,0,B|392:368,2,80,0|4|0
200,280,158563,2,0,B|88:280,2,80
320,224,159571,5,0
320,224,159823,2,0,B|416:224,1,80,2|0
352,176,160327,2,0,B|272:176,1,80,2|0
224,136,160832,2,0,B|120:136,1,80,2|0
192,88,161336,2,0,B|272:88,1,80,2|0
336,88,161840,6,0,B|416:88,2,80,4|0|2
208,88,162848,1,0
128,192,163352,2,0,B|48:192,2,80,2|0|4
200,88,164361,5,2
264,88,164613,2,0,B|328:88|368:152|344:240|260:240,1,240,0|2
128,240,165873,1,4
256,240,166377,5,2
304,288,166629,2,0,B|304:352|368:392|456:368|456:284,1,240,0|2
456,160,167890,1,4
392,48,168394,6,0,B|296:48,1,80,2|0
280,104,168898,1,0
248,160,169150,2,0,B|344:160,1,80,2|4
456,160,169906,5,4
488,216,170158,1,0
456,272,170411,1,2
352,344,170915,1,0
224,344,171419,1,2
224,344,171671,1,0
224,344,171923,1,4
136,248,172427,5,2
136,184,172679,2,0,B|136:120|200:80|288:104|288:192,1,240,0|2
288,312,173940,1,4
416,312,174444,5,2
416,248,174696,2,0,B|480:248|520:184|496:96|408:96,1,240,0|2
304,32,175956,6,0,B|224:32,1,80,0|0
160,32,176460,1,4
32,176,176965,1,4
160,320,177469,1,4
352,320,177973,5,4
352,192,178477,1,8
416,80,178981,1,0
288,80,179485,1,8
288,80,179737,1,0
160,80,180242,1,0
160,80,180494,1,8
96,192,180998,1,0
224,192,181502,1,8
340,336,182258,6,0,B|420:336,2,80,0|8|0
276,336,183015,2,0,B|196:336,2,80,0|0|8
340,336,183771,1,0
232,264,184275,1,0
336,192,184779,1,0
440,112,185283,1,8
440,112,185535,1,8
336,32,186039,5,4
208,32,186544,1,8
104,104,187048,1,0
104,104,187552,2,0,B|104:208,1,80,8|0
104,312,188308,5,0
104,312,188560,1,8
104,312,188812,1,0
168,312,189064,2,0,B|248:312,3,80,0|0|8|0
312,312,190073,1,4
400,216,190577,1,8
400,216,190829,1,0
312,120,191333,1,0
312,120,191585,1,12
184,120,192089,5,8
136,72,192341,1,0
88,120,192594,1,8
48,176,192846,1,0
48,272,193098,2,0,B|56:328|120:344,1,80,8|8
184,320,193602,2,0,B|218:364|282:346,1,80,0|8
352,352,194106,5,4
448,264,194610,1,8
448,128,195114,1,0
344,48,195619,1,8
344,48,195871,1,0
216,48,196375,1,0
216,48,196627,1,8
280,160,197131,1,0
280,160,197635,1,8
312,288,198139,5,0
312,352,198391,1,0
248,352,198643,1,8
184,352,198896,1,0
184,288,199148,2,0,B|104:288,1,80
128,224,199652,2,0,B|216:224,1,80,0|0
336,224,200408,5,0
336,224,200660,1,8
336,224,200912,1,0
256,128,201416,1,8
256,128,201668,1,8
80,48,202173,5,4
40,168,202677,1,8
88,288,203181,1,0
216,288,203685,2,0,B|296:288,1,80,8|0
192,368,204441,2,0,B|112:368,1,80,0|8
112,368,205198,1,0
64,248,205702,5,8
64,184,205954,1,0
112,144,206206,1,0
280,40,206710,1,8
344,40,206962,1,0
456,200,207466,1,0
416,248,207718,1,8
376,200,207970,1,0
336,248,208223,5,4
200,328,208727,1,0
200,328,208979,1,4
72,232,209483,1,0
72,232,209735,1,12
120,80,210239,6,0,B|296:80,1,160,4|8
368,168,211247,2,0,B|208:168,1,160,0|8
120,256,212256,5,4
208,344,212760,1,8
336,344,213264,1,0
336,344,213516,1,0
336,344,213768,1,8
464,208,214272,5,4
464,208,214777,1,8
400,96,215281,2,0,B|320:96,3,80,0|0|8|0
224,96,216289,6,0,B|200:72|72:72|48:104,1,160,4|8
40,184,217045,2,0,B|64:208|192:208|216:176,1,160,4|8
288,192,217802,1,8
432,320,218306,5,4
304,320,218810,1,8
176,320,219314,1,0
176,320,219566,1,0
176,320,219818,1,8
136,272,220070,2,0,B|136:192,1,80,0|4
176,72,220826,5,8
240,72,221079,2,0,B|260:16|424:16|448:80,1,240,0|8
448,208,222339,5,4
320,208,222843,2,0,B|232:208,1,80,8|0
136,280,223599,2,0,B|240:280,1,80
256,332,224104,1,4
368,280,224608,6,0,B|464:280,1,80,0|8
368,72,225364,1,2
144,72,225868,1,0
256,264,226372,1,4
352,112,227633,6,0,B|392:88|448:120,2,80
160,112,228641,2,0,B|123:89|83:113,2,80
352,112,229649,2,0,B|392:88|448:120,2,80
160,112,230658,2,0,B|123:89|83:113,2,80
352,112,231666,5,0
392,160,231918,1,0
352,208,232170,1,0
224,208,232674,1,0
224,208,232926,1,0
160,208,233178,2,0,B|120:232|120:344|168:360,1,160
352,352,234187,5,0
440,308,234439,1,0
460,216,234691,1,0
440,124,234943,1,0
352,84,235195,1,0
160,84,235699,6,0,B|121:60|84:83,2,80
352,84,236708,2,0,B|388:61|427:84,2,80
160,84,237716,2,0,B|121:60|84:83,2,80
352,84,238724,2,0,B|388:61|427:84,2,80
352,212,239732,5,0
352,212,239985,1,0
352,212,240237,1,0
160,212,240741,1,0
160,212,240993,1,0
160,212,241245,1,0
256,376,241749,1,0
256,184,242253,1,0
256,192,245530,5,4
256,192,246034,5,8
408,252,246539,1,0
284,352,247043,2,0,B|204:352,1,80,8|0
44,352,247799,2,0,B|124:352,1,80,0|8
124,192,248555,1,0
124,192,249059,1,8
260,108,249564,1,0
328,68,249816,5,0
328,68,250068,1,8
328,68,250320,1,0
408,68,250572,1,0
408,68,250824,1,0
408,68,251076,1,8
368,140,251328,1,4
448,280,251832,1,0
304,352,252336,1,4
144,352,252841,2,0,B|56:352,1,80,8|8
144,216,253597,5,4
4,136,254101,1,8
144,56,254605,1,0
304,56,255109,2,0,B|224:56,1,80,8|0
96,160,255866,6,0,B|192:160,1,80,0|8
256,160,256370,1,0
336,160,256622,1,0
448,272,257126,2,0,B|368:272,1,80,8|0
344,348,257630,5,4
184,348,258134,1,0
184,348,258386,1,4
56,252,258891,1,0
56,172,259143,1,4
100,104,259395,1,0
192,40,259647,6,0,B|296:40,1,80,8|0
312,144,260151,2,0,B|416:144,1,80,8|0
352,248,260655,2,0,B|272:248,1,80,8|8
216,344,261159,2,0,B|136:344,1,80,8|8
80,288,261663,5,4
80,128,262168,1,8
216,48,262672,1,0
352,136,263176,2,0,B|448:136,1,80,8|0
424,216,263680,1,0
344,216,263932,2,0,B|264:216,1,80,0|8
184,216,264436,1,0
104,216,264688,1,0
104,216,265193,1,8
312,336,265949,6,0,B|400:336,2,80,0|8|0
232,336,266705,2,0,B|152:336,2,80,0|0|8
312,336,267461,1,4
440,216,267965,1,0
280,216,268470,1,4
144,128,268974,1,8
144,128,269226,1,8
280,40,269730,5,4
440,40,270234,1,8
364,180,270738,2,0,B|364:260,2,80,0|0|8
364,100,271494,1,0
284,100,271747,1,0
284,180,271999,1,0
204,180,272251,1,8
44,180,272755,1,0
160,296,273259,6,0,B|80:296,2,80,8|0|4
360,192,274267,2,0,B|440:192,1,80,8|4
240,92,275024,2,0,B|160:92,2,80,0|8|4
256,192,275780,12,4,277796
