osu file format v14

[General]
AudioFilename: Bloomin' Mario Bros.mp3
AudioLeadIn: 0
PreviewTime: 12094
Countdown: 0
SampleSet: Soft
StackLeniency: 0.7
Mode: 3
LetterboxInBreaks: 0
SpecialStyle: 0
WidescreenStoryboard: 1

[Editor]
DistanceSpacing: 0.9
BeatDivisor: 4
GridSize: 8
TimelineZoom: 1

[Metadata]
Title:Bloomin' Mario Bros
TitleUnicode:Bloomin' Mario Bros
Artist:KinkyOats
ArtistUnicode:KinkyOats
Creator:Feerum
Version:playin14's 7K HD
Source:
Tags:Super Mario Bloomin feeling Reikokaz playin14
BeatmapID:648528
BeatmapSetID:287423

[Difficulty]
HPDrainRate:6
CircleSize:7
OverallDifficulty:7
ApproachRate:5
SliderMultiplier:1.7
SliderTickRate:1

[Events]
//Background and Video events
0,0,"Bloomin' Mario Bros BG.jpg",0,0
//Break Periods
//Storyboard Layer 0 (Background)
//Storyboard Layer 1 (Fail)
//Storyboard Layer 2 (Pass)
//Storyboard Layer 3 (Foreground)
//Storyboard Sound Samples

[TimingPoints]
1487,331.491712707182,4,2,0,100,1,0

[HitObjects]
329,192,1404,5,0,0:0:0:0:
402,192,1487,128,0,1818:0:0:0:0:
475,192,1818,128,0,2149:0:0:0:0:
402,192,2149,1,0,0:0:0:0:
329,192,2315,1,0,0:0:0:0:
182,192,2481,1,0,0:0:0:0:
36,192,2647,1,0,0:0:0:0:
109,192,2812,1,0,0:0:0:0:
402,192,3144,1,0,0:0:0:0:
329,192,3475,128,0,4138:0:0:0:0:
256,192,3807,1,0,0:0:0:0:
109,192,3890,1,0,0:0:0:0:
182,192,3973,1,0,0:0:0:0:
402,192,4138,128,0,4470:0:0:0:0:
36,192,4138,1,0,0:0:0:0:
329,192,4304,1,0,0:0:0:0:
256,192,4387,1,0,0:0:0:0:
182,192,4470,1,0,0:0:0:0:
109,192,4470,128,0,4801:0:0:0:0:
36,192,4636,1,0,0:0:0:0:
182,192,4801,1,0,0:0:0:0:
329,192,4801,1,0,0:0:0:0:
402,192,4801,128,0,5133:0:0:0:0:
36,192,4967,1,0,0:0:0:0:
109,192,5050,1,0,0:0:0:0:
182,192,5133,1,0,0:0:0:0:
256,192,5133,128,0,5464:0:0:0:0:
329,192,5299,1,0,0:0:0:0:
402,192,5464,128,0,6790:0:0:0:0:
36,192,5464,1,0,0:0:0:0:
109,192,5547,1,0,0:0:0:0:
182,192,5630,1,0,0:0:0:0:
109,192,5796,1,0,0:0:0:0:
182,192,5879,1,0,0:0:0:0:
256,192,5962,1,0,0:0:0:0:
182,192,6127,1,0,0:0:0:0:
256,192,6210,1,0,0:0:0:0:
329,192,6293,1,0,0:0:0:0:
475,192,6376,1,0,0:0:0:0:
36,192,6459,1,0,0:0:0:0:
256,192,6625,128,0,6790:0:0:0:0:
36,192,6790,128,0,7122:0:0:0:0:
109,192,6790,1,0,0:0:0:0:
256,192,7122,128,0,7453:0:0:0:0:
182,192,7122,1,0,0:0:0:0:
402,192,7453,1,0,0:0:0:0:
329,192,7619,1,0,0:0:0:0:
256,192,7785,1,0,0:0:0:0:
109,192,7785,1,0,0:0:0:0:
182,192,7951,1,0,0:0:0:0:
256,192,8116,1,0,0:0:0:0:
256,192,8282,1,0,0:0:0:0:
329,192,8448,128,0,8779:0:0:0:0:
182,192,8779,128,0,9442:0:0:0:0:
109,192,9442,1,0,0:0:0:0:
329,192,9442,128,0,9774:0:0:0:0:
109,192,9608,1,0,0:0:0:0:
109,192,9774,1,0,0:0:0:0:
402,192,9774,128,0,10105:0:0:0:0:
109,192,9940,1,0,0:0:0:0:
36,192,10105,1,0,0:0:0:0:
329,192,10105,128,0,10271:0:0:0:0:
109,192,10188,1,0,0:0:0:0:
182,192,10271,1,0,0:0:0:0:
402,192,10271,128,0,10437:0:0:0:0:
256,192,10354,1,0,0:0:0:0:
36,192,10437,1,0,0:0:0:0:
475,192,10437,128,0,10603:0:0:0:0:
109,192,10520,1,0,0:0:0:0:
182,192,10603,1,0,0:0:0:0:
402,192,10603,128,0,10768:0:0:0:0:
256,192,10685,1,0,0:0:0:0:
329,192,10768,1,0,0:0:0:0:
475,192,10934,1,0,0:0:0:0:
402,192,11100,1,0,0:0:0:0:
109,192,11266,1,0,0:0:0:0:
182,192,11431,128,0,12094:0:0:0:0:
256,192,11597,1,0,0:0:0:0:
475,192,11597,1,0,0:0:0:0:
256,192,11763,1,0,0:0:0:0:
475,192,11763,1,0,0:0:0:0:
329,192,12094,128,0,12426:0:0:0:0:
402,192,12094,1,0,0:0:0:0:
109,192,12094,1,0,0:0:0:0:
182,192,12426,128,0,12757:0:0:0:0:
36,192,12426,1,0,0:0:0:0:
256,192,12426,1,0,0:0:0:0:
402,192,12757,1,0,0:0:0:0:
109,192,12757,1,0,0:0:0:0:
329,192,12923,1,0,0:0:0:0:
256,192,13089,1,0,0:0:0:0:
109,192,13254,1,0,0:0:0:0:
182,192,13420,128,0,13752:0:0:0:0:
36,192,13420,1,0,0:0:0:0:
402,192,13752,128,0,14083:0:0:0:0:
475,192,13752,1,0,0:0:0:0:
256,192,14083,128,0,14746:0:0:0:0:
182,192,14083,1,0,0:0:0:0:
329,192,14249,1,0,0:0:0:0:
402,192,14332,1,0,0:0:0:0:
475,192,14415,1,0,0:0:0:0:
329,192,14580,1,0,0:0:0:0:
475,192,14746,1,0,0:0:0:0:
182,192,14746,128,0,15078:0:0:0:0:
109,192,14746,1,0,0:0:0:0:
329,192,15078,128,0,15409:0:0:0:0:
402,192,15078,1,0,0:0:0:0:
36,192,15078,1,0,0:0:0:0:
475,192,15409,1,0,0:0:0:0:
109,192,15575,1,0,0:0:0:0:
182,192,15741,1,0,0:0:0:0:
256,192,15906,1,0,0:0:0:0:
329,192,16072,1,0,0:0:0:0:
475,192,16238,1,0,0:0:0:0:
402,192,16404,1,0,0:0:0:0:
256,192,16569,1,0,0:0:0:0:
329,192,16735,128,0,17398:0:0:0:0:
36,192,17067,1,0,0:0:0:0:
109,192,17149,1,0,0:0:0:0:
182,192,17232,1,0,0:0:0:0:
256,192,17315,1,0,0:0:0:0:
402,192,17398,1,0,0:0:0:0:
109,192,17398,128,0,17730:0:0:0:0:
36,192,17398,1,0,0:0:0:0:
329,192,17730,128,0,18061:0:0:0:0:
402,192,17730,1,0,0:0:0:0:
182,192,17730,1,0,0:0:0:0:
475,192,18061,1,0,0:0:0:0:
402,192,18227,1,0,0:0:0:0:
182,192,18393,1,0,0:0:0:0:
36,192,18558,1,0,0:0:0:0:
109,192,18724,1,0,0:0:0:0:
109,192,18890,1,0,0:0:0:0:
402,192,19056,128,0,19387:0:0:0:0:
475,192,19056,1,0,0:0:0:0:
182,192,19387,128,0,20050:0:0:0:0:
36,192,19387,1,0,0:0:0:0:
256,192,19553,1,0,0:0:0:0:
329,192,19636,1,0,0:0:0:0:
402,192,19719,1,0,0:0:0:0:
256,192,19884,1,0,0:0:0:0:
329,192,20050,128,0,20382:0:0:0:0:
402,192,20050,1,0,0:0:0:0:
109,192,20050,1,0,0:0:0:0:
109,192,20382,128,0,20713:0:0:0:0:
36,192,20382,1,0,0:0:0:0:
256,192,20382,1,0,0:0:0:0:
256,192,20713,1,0,0:0:0:0:
36,192,20879,1,0,0:0:0:0:
109,192,21045,1,0,0:0:0:0:
182,192,21210,1,0,0:0:0:0:
329,192,21376,1,0,0:0:0:0:
475,192,21542,1,0,0:0:0:0:
402,192,21707,1,0,0:0:0:0:
256,192,21873,1,0,0:0:0:0:
329,192,22039,128,0,22702:0:0:0:0:
182,192,22205,1,0,0:0:0:0:
36,192,22205,1,0,0:0:0:0:
182,192,22370,1,0,0:0:0:0:
36,192,22370,1,0,0:0:0:0:
402,192,22702,1,0,0:0:0:0:
402,192,23033,1,0,0:0:0:0:
402,192,23365,1,0,0:0:0:0:
256,192,23531,1,0,0:0:0:0:
109,192,23696,1,0,0:0:0:0:
36,192,23862,1,0,0:0:0:0:
182,192,24028,1,0,0:0:0:0:
402,192,24359,1,0,0:0:0:0:
329,192,24691,128,0,25354:0:0:0:0:
109,192,24857,1,0,0:0:0:0:
182,192,24940,1,0,0:0:0:0:
109,192,25022,1,0,0:0:0:0:
182,192,25105,1,0,0:0:0:0:
109,192,25188,1,0,0:0:0:0:
402,192,25354,128,0,25685:0:0:0:0:
475,192,25354,1,0,0:0:0:0:
256,192,25354,1,0,0:0:0:0:
109,192,25685,128,0,26017:0:0:0:0:
182,192,25685,1,0,0:0:0:0:
36,192,25685,1,0,0:0:0:0:
256,192,26017,1,0,0:0:0:0:
36,192,26183,1,0,0:0:0:0:
109,192,26348,1,0,0:0:0:0:
182,192,26514,1,0,0:0:0:0:
329,192,26680,1,0,0:0:0:0:
475,192,26846,1,0,0:0:0:0:
402,192,27011,1,0,0:0:0:0:
182,192,27177,1,0,0:0:0:0:
256,192,27343,128,0,28006:0:0:0:0:
329,192,27674,1,0,0:0:0:0:
402,192,27757,1,0,0:0:0:0:
329,192,27840,1,0,0:0:0:0:
402,192,27923,1,0,0:0:0:0:
475,192,28006,1,0,0:0:0:0:
109,192,28006,128,0,28337:0:0:0:0:
182,192,28006,1,0,0:0:0:0:
36,192,28006,1,0,0:0:0:0:
329,192,28337,128,0,28669:0:0:0:0:
402,192,28337,1,0,0:0:0:0:
256,192,28337,1,0,0:0:0:0:
256,192,28669,1,0,0:0:0:0:
182,192,28835,1,0,0:0:0:0:
109,192,29000,1,0,0:0:0:0:
36,192,29166,1,0,0:0:0:0:
109,192,29332,1,0,0:0:0:0:
109,192,29498,1,0,0:0:0:0:
256,192,29663,128,0,29995:0:0:0:0:
329,192,29663,1,0,0:0:0:0:
182,192,29995,128,0,30658:0:0:0:0:
36,192,29995,1,0,0:0:0:0:
402,192,30161,1,0,0:0:0:0:
475,192,30243,1,0,0:0:0:0:
402,192,30326,1,0,0:0:0:0:
475,192,30409,1,0,0:0:0:0:
402,192,30492,1,0,0:0:0:0:
256,192,30658,128,0,30989:0:0:0:0:
329,192,30658,1,0,0:0:0:0:
109,192,30658,1,0,0:0:0:0:
402,192,30989,128,0,31321:0:0:0:0:
329,192,30989,1,0,0:0:0:0:
475,192,30989,1,0,0:0:0:0:
329,192,31321,1,0,0:0:0:0:
109,192,31486,1,0,0:0:0:0:
182,192,31652,1,0,0:0:0:0:
256,192,31818,1,0,0:0:0:0:
329,192,31984,1,0,0:0:0:0:
402,192,32149,1,0,0:0:0:0:
475,192,32315,1,0,0:0:0:0:
402,192,32481,1,0,0:0:0:0:
475,192,32647,128,0,33310:0:0:0:0:
256,192,33310,1,0,0:0:0:0:
36,192,33310,1,0,0:0:0:0:
329,192,33393,1,0,0:0:0:0:
402,192,33475,1,0,0:0:0:0:
109,192,33641,1,0,0:0:0:0:
256,192,33641,128,0,33973:0:0:0:0:
182,192,33807,1,0,0:0:0:0:
329,192,33973,128,0,34304:0:0:0:0:
36,192,33973,1,0,0:0:0:0:
402,192,34304,1,0,0:0:0:0:
109,192,34304,1,0,0:0:0:0:
475,192,34470,1,0,0:0:0:0:
402,192,34553,1,0,0:0:0:0:
36,192,34636,1,0,0:0:0:0:
329,192,34636,128,0,34967:0:0:0:0:
256,192,34636,1,0,0:0:0:0:
475,192,34801,1,0,0:0:0:0:
182,192,34967,1,0,0:0:0:0:
402,192,34967,128,0,35299:0:0:0:0:
475,192,34967,1,0,0:0:0:0:
256,192,35133,1,0,0:0:0:0:
475,192,35216,1,0,0:0:0:0:
109,192,35299,1,0,0:0:0:0:
329,192,35299,128,0,35962:0:0:0:0:
182,192,35630,1,0,0:0:0:0:
402,192,35630,1,0,0:0:0:0:
402,192,35796,1,0,0:0:0:0:
36,192,35962,1,0,0:0:0:0:
475,192,35962,128,0,36625:0:0:0:0:
256,192,35962,1,0,0:0:0:0:
109,192,36293,1,0,0:0:0:0:
256,192,36293,1,0,0:0:0:0:
36,192,36625,1,0,0:0:0:0:
329,192,36625,128,0,37288:0:0:0:0:
182,192,36625,1,0,0:0:0:0:
182,192,36790,1,0,0:0:0:0:
109,192,36956,1,0,0:0:0:0:
256,192,36956,1,0,0:0:0:0:
182,192,37122,1,0,0:0:0:0:
36,192,37288,1,0,0:0:0:0:
475,192,37288,1,0,0:0:0:0:
402,192,37453,1,0,0:0:0:0:
329,192,37536,1,0,0:0:0:0:
182,192,37619,1,0,0:0:0:0:
475,192,37619,1,0,0:0:0:0:
402,192,37785,1,0,0:0:0:0:
329,192,37868,1,0,0:0:0:0:
36,192,37951,1,0,0:0:0:0:
402,192,37951,1,0,0:0:0:0:
109,192,38006,1,0,0:0:0:0:
36,192,38116,1,0,0:0:0:0:
109,192,38172,1,0,0:0:0:0:
182,192,38282,1,0,0:0:0:0:
329,192,38282,1,0,0:0:0:0:
402,192,38282,128,0,38614:0:0:0:0:
256,192,38448,1,0,0:0:0:0:
36,192,38614,1,0,0:0:0:0:
475,192,38614,128,0,39940:0:0:0:0:
329,192,38614,1,0,0:0:0:0:
182,192,38614,1,0,0:0:0:0:
329,192,38779,1,0,0:0:0:0:
182,192,38779,1,0,0:0:0:0:
109,192,38945,1,0,0:0:0:0:
402,192,38945,1,0,0:0:0:0:
402,192,39111,1,0,0:0:0:0:
36,192,39277,1,0,0:0:0:0:
182,192,39277,1,0,0:0:0:0:
329,192,39277,1,0,0:0:0:0:
182,192,39442,1,0,0:0:0:0:
329,192,39442,1,0,0:0:0:0:
109,192,39608,1,0,0:0:0:0:
402,192,39608,1,0,0:0:0:0:
329,192,39691,1,0,0:0:0:0:
402,192,39774,1,0,0:0:0:0:
36,192,39940,1,0,0:0:0:0:
256,192,39940,1,0,0:0:0:0:
329,192,39940,128,0,40934:0:0:0:0:
256,192,40105,1,0,0:0:0:0:
182,192,40271,1,0,0:0:0:0:
475,192,40271,1,0,0:0:0:0:
256,192,40437,1,0,0:0:0:0:
109,192,40603,1,0,0:0:0:0:
256,192,40603,1,0,0:0:0:0:
475,192,40768,1,0,0:0:0:0:
182,192,40934,1,0,0:0:0:0:
402,192,40934,128,0,41266:0:0:0:0:
256,192,40934,1,0,0:0:0:0:
475,192,41017,1,0,0:0:0:0:
256,192,41100,1,0,0:0:0:0:
36,192,41266,1,0,0:0:0:0:
329,192,41266,128,0,41597:0:0:0:0:
182,192,41266,1,0,0:0:0:0:
256,192,41348,1,0,0:0:0:0:
182,192,41431,1,0,0:0:0:0:
402,192,41514,1,0,0:0:0:0:
109,192,41597,1,0,0:0:0:0:
475,192,41597,128,0,41928:0:0:0:0:
256,192,41763,1,0,0:0:0:0:
36,192,41928,1,0,0:0:0:0:
402,192,41928,128,0,42260:0:0:0:0:
329,192,41928,1,0,0:0:0:0:
256,192,42011,1,0,0:0:0:0:
182,192,42094,1,0,0:0:0:0:
256,192,42177,1,0,0:0:0:0:
109,192,42260,1,0,0:0:0:0:
475,192,42260,128,0,42591:0:0:0:0:
329,192,42426,1,0,0:0:0:0:
36,192,42591,1,0,0:0:0:0:
256,192,42591,128,0,43917:0:0:0:0:
182,192,42591,1,0,0:0:0:0:
402,192,42674,1,0,0:0:0:0:
402,192,42840,1,0,0:0:0:0:
475,192,42923,1,0,0:0:0:0:
402,192,43033,1,0,0:0:0:0:
329,192,43144,1,0,0:0:0:0:
182,192,43254,1,0,0:0:0:0:
36,192,43337,1,0,0:0:0:0:
329,192,43503,1,0,0:0:0:0:
402,192,43586,128,0,43917:0:0:0:0:
36,192,43917,128,0,45243:0:0:0:0:
109,192,43917,1,0,0:0:0:0:
182,192,44000,1,0,0:0:0:0:
256,192,44083,1,0,0:0:0:0:
182,192,44249,1,0,0:0:0:0:
256,192,44332,1,0,0:0:0:0:
329,192,44415,1,0,0:0:0:0:
256,192,44580,1,0,0:0:0:0:
329,192,44663,1,0,0:0:0:0:
402,192,44746,1,0,0:0:0:0:
329,192,44912,1,0,0:0:0:0:
402,192,44995,1,0,0:0:0:0:
475,192,45078,1,0,0:0:0:0:
475,192,45243,128,0,46569:0:0:0:0:
402,192,45243,1,0,0:0:0:0:
329,192,45326,1,0,0:0:0:0:
256,192,45409,1,0,0:0:0:0:
329,192,45575,1,0,0:0:0:0:
256,192,45658,1,0,0:0:0:0:
182,192,45741,1,0,0:0:0:0:
256,192,45906,1,0,0:0:0:0:
182,192,45989,1,0,0:0:0:0:
109,192,46072,1,0,0:0:0:0:
182,192,46238,1,0,0:0:0:0:
109,192,46321,1,0,0:0:0:0:
36,192,46404,1,0,0:0:0:0:
329,192,46569,128,0,47895:0:0:0:0:
256,192,46569,1,0,0:0:0:0:
402,192,46652,1,0,0:0:0:0:
475,192,46735,1,0,0:0:0:0:
256,192,46901,1,0,0:0:0:0:
182,192,46984,1,0,0:0:0:0:
109,192,47067,1,0,0:0:0:0:
182,192,47232,1,0,0:0:0:0:
256,192,47315,1,0,0:0:0:0:
402,192,47398,1,0,0:0:0:0:
182,192,47564,1,0,0:0:0:0:
109,192,47647,1,0,0:0:0:0:
36,192,47730,1,0,0:0:0:0:
182,192,47895,128,0,49221:0:0:0:0:
256,192,47895,1,0,0:0:0:0:
109,192,47978,1,0,0:0:0:0:
36,192,48061,1,0,0:0:0:0:
256,192,48227,1,0,0:0:0:0:
329,192,48310,1,0,0:0:0:0:
402,192,48393,1,0,0:0:0:0:
329,192,48558,1,0,0:0:0:0:
256,192,48641,1,0,0:0:0:0:
109,192,48724,1,0,0:0:0:0:
329,192,48890,1,0,0:0:0:0:
402,192,48973,1,0,0:0:0:0:
475,192,49056,1,0,0:0:0:0:
109,192,49221,128,0,50547:0:0:0:0:
329,192,49221,1,0,0:0:0:0:
402,192,49304,1,0,0:0:0:0:
475,192,49387,1,0,0:0:0:0:
256,192,49553,1,0,0:0:0:0:
329,192,49636,1,0,0:0:0:0:
402,192,49719,1,0,0:0:0:0:
182,192,49884,1,0,0:0:0:0:
256,192,49967,1,0,0:0:0:0:
329,192,50050,1,0,0:0:0:0:
36,192,50216,1,0,0:0:0:0:
182,192,50299,1,0,0:0:0:0:
256,192,50382,1,0,0:0:0:0:
402,192,50547,128,0,51873:0:0:0:0:
182,192,50547,1,0,0:0:0:0:
109,192,50630,1,0,0:0:0:0:
36,192,50713,1,0,0:0:0:0:
256,192,50879,1,0,0:0:0:0:
182,192,50962,1,0,0:0:0:0:
109,192,51045,1,0,0:0:0:0:
329,192,51210,1,0,0:0:0:0:
256,192,51293,1,0,0:0:0:0:
182,192,51376,1,0,0:0:0:0:
475,192,51542,1,0,0:0:0:0:
329,192,51625,1,0,0:0:0:0:
256,192,51707,1,0,0:0:0:0:
256,192,51873,128,0,54525:0:0:0:0:
36,192,51873,1,0,0:0:0:0:
329,192,51873,1,0,0:0:0:0:
402,192,51956,1,0,0:0:0:0:
109,192,52039,1,0,0:0:0:0:
475,192,52039,1,0,0:0:0:0:
182,192,52205,1,0,0:0:0:0:
475,192,52205,1,0,0:0:0:0:
402,192,52288,1,0,0:0:0:0:
329,192,52370,1,0,0:0:0:0:
36,192,52370,1,0,0:0:0:0:
109,192,52536,1,0,0:0:0:0:
329,192,52536,1,0,0:0:0:0:
402,192,52619,1,0,0:0:0:0:
475,192,52702,1,0,0:0:0:0:
182,192,52702,1,0,0:0:0:0:
475,192,52868,1,0,0:0:0:0:
36,192,52868,1,0,0:0:0:0:
402,192,52951,1,0,0:0:0:0:
329,192,53033,1,0,0:0:0:0:
109,192,53033,1,0,0:0:0:0:
36,192,53199,128,0,54525:0:0:0:0:
329,192,53199,1,0,0:0:0:0:
402,192,53282,1,0,0:0:0:0:
475,192,53365,1,0,0:0:0:0:
329,192,53531,1,0,0:0:0:0:
402,192,53614,1,0,0:0:0:0:
475,192,53696,1,0,0:0:0:0:
329,192,53862,1,0,0:0:0:0:
402,192,53945,1,0,0:0:0:0:
475,192,54028,1,0,0:0:0:0:
109,192,54028,1,0,0:0:0:0:
475,192,54194,1,0,0:0:0:0:
109,192,54194,1,0,0:0:0:0:
402,192,54277,1,0,0:0:0:0:
329,192,54359,1,0,0:0:0:0:
475,192,54525,128,0,54857:0:0:0:0:
182,192,54525,1,0,0:0:0:0:
182,192,54857,128,0,55188:0:0:0:0:
402,192,55188,128,0,55354:0:0:0:0:
329,192,55354,128,0,55520:0:0:0:0:
256,192,55520,128,0,55685:0:0:0:0:
109,192,55685,128,0,55851:0:0:0:0:
182,192,55851,1,0,0:0:0:0:
182,192,56017,1,0,0:0:0:0:
329,192,56183,128,0,56514:0:0:0:0:
256,192,56514,128,0,57177:0:0:0:0:
182,192,57177,128,0,57509:0:0:0:0:
36,192,57509,128,0,57840:0:0:0:0:
329,192,57840,128,0,58006:0:0:0:0:
182,192,58006,128,0,58172:0:0:0:0:
256,192,58172,128,0,58337:0:0:0:0:
329,192,58337,128,0,58503:0:0:0:0:
402,192,58503,128,0,58669:0:0:0:0:
475,192,58669,128,0,58835:0:0:0:0:
329,192,58835,128,0,59000:0:0:0:0:
256,192,59000,128,0,59166:0:0:0:0:
182,192,59166,128,0,59829:0:0:0:0:
109,192,59166,1,0,0:0:0:0:
109,192,59498,1,0,0:0:0:0:
329,192,59829,128,0,59995:0:0:0:0:
256,192,59829,1,0,0:0:0:0:
402,192,60161,1,0,0:0:0:0:
329,192,60326,128,0,60492:0:0:0:0:
475,192,60492,1,0,0:0:0:0:
402,192,60658,1,0,0:0:0:0:
256,192,60824,1,0,0:0:0:0:
109,192,60989,1,0,0:0:0:0:
182,192,61155,128,0,61486:0:0:0:0:
329,192,61155,1,0,0:0:0:0:
256,192,61486,128,0,61818:0:0:0:0:
36,192,61486,1,0,0:0:0:0:
109,192,61818,128,0,62481:0:0:0:0:
402,192,61818,1,0,0:0:0:0:
329,192,62149,1,0,0:0:0:0:
182,192,62232,1,0,0:0:0:0:
256,192,62315,1,0,0:0:0:0:
329,192,62481,128,0,62647:0:0:0:0:
402,192,62481,1,0,0:0:0:0:
36,192,62481,1,0,0:0:0:0:
182,192,62812,128,0,63144:0:0:0:0:
256,192,62812,1,0,0:0:0:0:
109,192,62812,1,0,0:0:0:0:
402,192,63144,1,0,0:0:0:0:
256,192,63310,1,0,0:0:0:0:
109,192,63475,1,0,0:0:0:0:
182,192,63641,1,0,0:0:0:0:
256,192,63807,1,0,0:0:0:0:
475,192,63973,1,0,0:0:0:0:
402,192,64138,1,0,0:0:0:0:
329,192,64304,1,0,0:0:0:0:
402,192,64470,128,0,65133:0:0:0:0:
182,192,64470,1,0,0:0:0:0:
256,192,64636,1,0,0:0:0:0:
109,192,64636,1,0,0:0:0:0:
256,192,64801,1,0,0:0:0:0:
109,192,64801,1,0,0:0:0:0:
329,192,65133,128,0,65464:0:0:0:0:
475,192,65133,1,0,0:0:0:0:
182,192,65133,1,0,0:0:0:0:
109,192,65464,128,0,65796:0:0:0:0:
256,192,65464,1,0,0:0:0:0:
36,192,65464,1,0,0:0:0:0:
475,192,65796,1,0,0:0:0:0:
402,192,65796,1,0,0:0:0:0:
329,192,65962,1,0,0:0:0:0:
182,192,65962,1,0,0:0:0:0:
256,192,66127,1,0,0:0:0:0:
109,192,66127,1,0,0:0:0:0:
182,192,66293,1,0,0:0:0:0:
329,192,66293,1,0,0:0:0:0:
475,192,66459,1,0,0:0:0:0:
256,192,66459,1,0,0:0:0:0:
402,192,66790,1,0,0:0:0:0:
329,192,66901,1,0,0:0:0:0:
402,192,67011,1,0,0:0:0:0:
329,192,67122,1,0,0:0:0:0:
182,192,67453,128,0,67785:0:0:0:0:
402,192,67785,128,0,68116:0:0:0:0:
475,192,67785,1,0,0:0:0:0:
256,192,67785,1,0,0:0:0:0:
109,192,68116,128,0,68448:0:0:0:0:
182,192,68116,1,0,0:0:0:0:
36,192,68116,1,0,0:0:0:0:
329,192,68448,1,0,0:0:0:0:
182,192,68614,1,0,0:0:0:0:
256,192,68779,1,0,0:0:0:0:
329,192,68945,1,0,0:0:0:0:
182,192,69111,1,0,0:0:0:0:
402,192,69277,1,0,0:0:0:0:
329,192,69442,1,0,0:0:0:0:
182,192,69608,1,0,0:0:0:0:
256,192,69774,128,0,70437:0:0:0:0:
109,192,70105,1,0,0:0:0:0:
182,192,70188,1,0,0:0:0:0:
329,192,70271,1,0,0:0:0:0:
402,192,70354,1,0,0:0:0:0:
475,192,70437,1,0,0:0:0:0:
109,192,70437,128,0,70768:0:0:0:0:
36,192,70437,1,0,0:0:0:0:
256,192,70768,1,0,0:0:0:0:
329,192,70768,128,0,71100:0:0:0:0:
475,192,70768,1,0,0:0:0:0:
475,192,71100,1,0,0:0:0:0:
402,192,71266,1,0,0:0:0:0:
329,192,71431,1,0,0:0:0:0:
182,192,71597,1,0,0:0:0:0:
256,192,71763,1,0,0:0:0:0:
256,192,71928,1,0,0:0:0:0:
402,192,72094,1,0,0:0:0:0:
329,192,72205,1,0,0:0:0:0:
402,192,72315,1,0,0:0:0:0:
329,192,72426,1,0,0:0:0:0:
182,192,72757,128,0,73089:0:0:0:0:
329,192,73089,128,0,73420:0:0:0:0:
475,192,73089,1,0,0:0:0:0:
256,192,73089,1,0,0:0:0:0:
36,192,73089,1,0,0:0:0:0:
36,192,73254,1,0,0:0:0:0:
36,192,73420,1,0,0:0:0:0:
256,192,73420,128,0,73752:0:0:0:0:
182,192,73420,1,0,0:0:0:0:
402,192,73420,1,0,0:0:0:0:
36,192,73586,1,0,0:0:0:0:
109,192,73752,1,0,0:0:0:0:
402,192,73752,1,0,0:0:0:0:
109,192,73917,1,0,0:0:0:0:
329,192,73917,1,0,0:0:0:0:
109,192,74083,1,0,0:0:0:0:
402,192,74083,1,0,0:0:0:0:
109,192,74249,1,0,0:0:0:0:
475,192,74249,1,0,0:0:0:0:
109,192,74415,1,0,0:0:0:0:
329,192,74415,1,0,0:0:0:0:
475,192,74580,1,0,0:0:0:0:
402,192,74746,1,0,0:0:0:0:
256,192,74912,1,0,0:0:0:0:
329,192,75078,128,0,75741:0:0:0:0:
182,192,75243,1,0,0:0:0:0:
36,192,75243,1,0,0:0:0:0:
182,192,75409,1,0,0:0:0:0:
36,192,75409,1,0,0:0:0:0:
256,192,75741,128,0,76072:0:0:0:0:
329,192,76072,128,0,76404:0:0:0:0:
402,192,76404,128,0,76569:0:0:0:0:
256,192,76569,128,0,76735:0:0:0:0:
109,192,76735,128,0,76901:0:0:0:0:
36,192,76901,128,0,77067:0:0:0:0:
182,192,77067,128,0,77398:0:0:0:0:
402,192,77398,128,0,77730:0:0:0:0:
182,192,77730,128,0,78393:0:0:0:0:
256,192,77895,1,0,0:0:0:0:
329,192,77978,1,0,0:0:0:0:
256,192,78061,1,0,0:0:0:0:
329,192,78144,1,0,0:0:0:0:
256,192,78227,1,0,0:0:0:0:
402,192,78393,128,0,78724:0:0:0:0:
475,192,78393,1,0,0:0:0:0:
109,192,78393,1,0,0:0:0:0:
256,192,78724,128,0,79056:0:0:0:0:
329,192,78724,1,0,0:0:0:0:
36,192,78724,1,0,0:0:0:0:
182,192,79056,1,0,0:0:0:0:
36,192,79221,1,0,0:0:0:0:
109,192,79387,1,0,0:0:0:0:
182,192,79470,1,0,0:0:0:0:
329,192,79719,1,0,0:0:0:0:
475,192,79884,1,0,0:0:0:0:
402,192,80050,1,0,0:0:0:0:
329,192,80216,1,0,0:0:0:0:
402,192,80382,128,0,81045:0:0:0:0:
109,192,80713,1,0,0:0:0:0:
182,192,80796,1,0,0:0:0:0:
256,192,80879,1,0,0:0:0:0:
182,192,80962,1,0,0:0:0:0:
256,192,81045,1,0,0:0:0:0:
329,192,81045,128,0,81376:0:0:0:0:
475,192,81045,1,0,0:0:0:0:
109,192,81376,128,0,81707:0:0:0:0:
256,192,81376,1,0,0:0:0:0:
36,192,81376,1,0,0:0:0:0:
329,192,81707,1,0,0:0:0:0:
256,192,81873,1,0,0:0:0:0:
182,192,82039,1,0,0:0:0:0:
36,192,82205,1,0,0:0:0:0:
109,192,82370,1,0,0:0:0:0:
109,192,82536,1,0,0:0:0:0:
256,192,82702,128,0,83033:0:0:0:0:
329,192,82702,1,0,0:0:0:0:
109,192,83033,128,0,83696:0:0:0:0:
36,192,83033,1,0,0:0:0:0:
329,192,83199,1,0,0:0:0:0:
402,192,83282,1,0,0:0:0:0:
329,192,83365,1,0,0:0:0:0:
402,192,83448,1,0,0:0:0:0:
329,192,83531,1,0,0:0:0:0:
256,192,83696,128,0,84028:0:0:0:0:
182,192,83696,1,0,0:0:0:0:
475,192,83696,1,0,0:0:0:0:
329,192,84028,128,0,84359:0:0:0:0:
402,192,84028,1,0,0:0:0:0:
36,192,84028,1,0,0:0:0:0:
182,192,84359,1,0,0:0:0:0:
36,192,84525,1,0,0:0:0:0:
109,192,84691,1,0,0:0:0:0:
182,192,84857,1,0,0:0:0:0:
256,192,85022,128,0,86348:0:0:0:0:
329,192,85022,1,0,0:0:0:0:
475,192,85188,1,0,0:0:0:0:
402,192,85354,1,0,0:0:0:0:
109,192,85520,1,0,0:0:0:0:
182,192,85685,128,0,86348:0:0:0:0:
402,192,85851,1,0,0:0:0:0:
402,192,86017,1,0,0:0:0:0:
329,192,86348,128,0,86680:0:0:0:0:
475,192,86348,1,0,0:0:0:0:
109,192,86348,1,0,0:0:0:0:
182,192,86680,128,0,87011:0:0:0:0:
256,192,86680,1,0,0:0:0:0:
36,192,86680,1,0,0:0:0:0:
402,192,87011,1,0,0:0:0:0:
329,192,87177,1,0,0:0:0:0:
109,192,87177,1,0,0:0:0:0:
256,192,87343,1,0,0:0:0:0:
182,192,87343,1,0,0:0:0:0:
329,192,87509,1,0,0:0:0:0:
36,192,87509,1,0,0:0:0:0:
182,192,87674,128,0,88006:0:0:0:0:
256,192,87674,1,0,0:0:0:0:
109,192,87674,1,0,0:0:0:0:
402,192,88006,128,0,88337:0:0:0:0:
475,192,88006,1,0,0:0:0:0:
329,192,88006,1,0,0:0:0:0:
256,192,88337,128,0,89000:0:0:0:0:
109,192,88669,1,0,0:0:0:0:
475,192,88669,1,0,0:0:0:0:
109,192,89000,1,0,0:0:0:0:
475,192,89000,1,0,0:0:0:0:
402,192,89000,128,0,89332:0:0:0:0:
182,192,89332,128,0,89663:0:0:0:0:
256,192,89332,1,0,0:0:0:0:
36,192,89332,1,0,0:0:0:0:
329,192,89663,1,0,0:0:0:0:
36,192,89829,1,0,0:0:0:0:
256,192,89829,1,0,0:0:0:0:
109,192,89995,1,0,0:0:0:0:
182,192,89995,1,0,0:0:0:0:
329,192,90161,1,0,0:0:0:0:
36,192,90161,1,0,0:0:0:0:
182,192,90326,1,0,0:0:0:0:
402,192,90326,1,0,0:0:0:0:
329,192,90492,1,0,0:0:0:0:
475,192,90492,1,0,0:0:0:0:
402,192,90658,1,0,0:0:0:0:
256,192,90658,1,0,0:0:0:0:
329,192,90824,1,0,0:0:0:0:
109,192,90824,1,0,0:0:0:0:
256,192,90989,1,0,0:0:0:0:
182,192,90989,128,0,91652:0:0:0:0:
36,192,91321,1,0,0:0:0:0:
109,192,91404,1,0,0:0:0:0:
256,192,91486,1,0,0:0:0:0:
109,192,91569,1,0,0:0:0:0:
329,192,91652,1,0,0:0:0:0:
402,192,91652,128,0,91984:0:0:0:0:
475,192,91652,1,0,0:0:0:0:
109,192,91984,128,0,92315:0:0:0:0:
36,192,91984,1,0,0:0:0:0:
256,192,91984,1,0,0:0:0:0:
329,192,92315,1,0,0:0:0:0:
256,192,92481,1,0,0:0:0:0:
402,192,92481,1,0,0:0:0:0:
475,192,92647,1,0,0:0:0:0:
182,192,92647,1,0,0:0:0:0:
402,192,92812,1,0,0:0:0:0:
109,192,92812,1,0,0:0:0:0:
182,192,92978,1,0,0:0:0:0:
256,192,92978,1,0,0:0:0:0:
182,192,93144,1,0,0:0:0:0:
329,192,93144,1,0,0:0:0:0:
256,192,93310,1,0,0:0:0:0:
475,192,93310,128,0,93641:0:0:0:0:
402,192,93641,128,0,94304:0:0:0:0:
36,192,93641,128,0,94304:0:0:0:0:
329,192,93641,1,0,0:0:0:0:
109,192,93641,1,0,0:0:0:0:
182,192,93973,1,0,0:0:0:0:
256,192,93973,1,0,0:0:0:0:
182,192,94138,1,0,0:0:0:0:
329,192,94138,1,0,0:0:0:0:
256,192,94304,128,0,94636:0:0:0:0:
475,192,94304,1,0,0:0:0:0:
109,192,94304,1,0,0:0:0:0:
182,192,94636,128,0,94967:0:0:0:0:
329,192,94636,1,0,0:0:0:0:
36,192,94636,1,0,0:0:0:0:
329,192,94967,1,0,0:0:0:0:
36,192,95133,1,0,0:0:0:0:
256,192,95133,1,0,0:0:0:0:
109,192,95299,1,0,0:0:0:0:
402,192,95299,1,0,0:0:0:0:
329,192,95464,1,0,0:0:0:0:
182,192,95464,1,0,0:0:0:0:
256,192,95630,1,0,0:0:0:0:
402,192,95630,1,0,0:0:0:0:
475,192,95796,1,0,0:0:0:0:
329,192,95796,1,0,0:0:0:0:
402,192,95962,1,0,0:0:0:0:
109,192,95962,1,0,0:0:0:0:
329,192,96127,1,0,0:0:0:0:
182,192,96127,1,0,0:0:0:0:
256,192,96293,128,0,96956:0:0:0:0:
109,192,96459,1,0,0:0:0:0:
402,192,96459,1,0,0:0:0:0:
109,192,96625,1,0,0:0:0:0:
402,192,96625,1,0,0:0:0:0:
36,192,96956,1,0,0:0:0:0:
182,192,96956,1,0,0:0:0:0:
329,192,96956,1,0,0:0:0:0:
475,192,96956,1,0,0:0:0:0:
