osu file format v14

[General]
AudioFilename: Bloomin' Mario Bros.mp3
AudioLeadIn: 0
PreviewTime: 12094
Countdown: 0
SampleSet: Soft
StackLeniency: 0.7
Mode: 3
LetterboxInBreaks: 0
SpecialStyle: 0
WidescreenStoryboard: 1

[Editor]
DistanceSpacing: 0.9
BeatDivisor: 4
GridSize: 8
TimelineZoom: 1

[Metadata]
Title:Bloomin' Mario Bros
TitleUnicode:Bloomin' Mario Bros
Artist:KinkyOats
ArtistUnicode:KinkyOats
Creator:Feerum
Version:4k NM
Source:
Tags:Super Mario Bloomin feeling Reikokaz playin14
BeatmapID:648527
BeatmapSetID:287423

[Difficulty]
HPDrainRate:8
CircleSize:4
OverallDifficulty:8
ApproachRate:5
SliderMultiplier:1.7
SliderTickRate:1

[Events]
//Background and Video events
0,0,"Bloomin' Mario Bros BG.jpg",0,0
//Break Periods
//Storyboard Layer 0 (Background)
//Storyboard Layer 1 (Fail)
//Storyboard Layer 2 (Pass)
//Storyboard Layer 3 (Foreground)
//Storyboard Sound Samples

[TimingPoints]
1487,331.491712707182,4,2,0,100,1,0
12094,-100,4,2,0,100,0,1
33310,-100,4,2,0,100,0,0
54525,-125,4,2,0,100,0,0
65133,-100,4,2,0,100,0,0
75741,-100,4,2,0,100,0,1
96956,-100,4,2,0,100,0,0

[HitObjects]
448,192,824,128,0,1487:0:0:0:0:
320,192,1487,1,0,0:0:0:0:
64,192,1818,1,0,0:0:0:0:
448,192,2149,1,0,0:0:0:0:
320,192,2315,1,0,0:0:0:0:
192,192,2481,1,0,0:0:0:0:
64,192,2647,1,0,0:0:0:0:
192,192,2812,1,0,0:0:0:0:
448,192,3144,1,0,0:0:0:0:
192,192,3475,1,0,0:0:0:0:
448,192,3807,128,0,4138:0:0:0:0:
320,192,4138,1,0,0:0:0:0:
320,192,4304,1,0,0:0:0:0:
192,192,4387,1,0,0:0:0:0:
64,192,4470,1,0,0:0:0:0:
448,192,4636,128,0,4967:0:0:0:0:
320,192,4967,1,0,0:0:0:0:
192,192,5050,1,0,0:0:0:0:
64,192,5133,1,0,0:0:0:0:
320,192,5299,128,0,5464:0:0:0:0:
192,192,5464,1,0,0:0:0:0:
64,192,5547,1,0,0:0:0:0:
448,192,5630,1,0,0:0:0:0:
320,192,5796,1,0,0:0:0:0:
192,192,5879,1,0,0:0:0:0:
64,192,5962,1,0,0:0:0:0:
64,192,6127,1,0,0:0:0:0:
192,192,6210,1,0,0:0:0:0:
320,192,6293,1,0,0:0:0:0:
448,192,6376,1,0,0:0:0:0:
64,192,6459,128,0,6625:0:0:0:0:
192,192,6625,1,0,0:0:0:0:
448,192,6790,1,0,0:0:0:0:
192,192,7122,1,0,0:0:0:0:
448,192,7453,1,0,0:0:0:0:
320,192,7619,1,0,0:0:0:0:
192,192,7785,1,0,0:0:0:0:
64,192,7951,1,0,0:0:0:0:
320,192,8116,1,0,0:0:0:0:
320,192,8282,1,0,0:0:0:0:
448,192,8448,128,0,8779:0:0:0:0:
192,192,8779,1,0,0:0:0:0:
320,192,9111,1,0,0:0:0:0:
64,192,9442,1,0,0:0:0:0:
320,192,9774,1,0,0:0:0:0:
192,192,10105,1,0,0:0:0:0:
64,192,10271,1,0,0:0:0:0:
192,192,10437,1,0,0:0:0:0:
320,192,10603,1,0,0:0:0:0:
448,192,10768,1,0,0:0:0:0:
64,192,10934,1,0,0:0:0:0:
448,192,11100,1,0,0:0:0:0:
320,192,11266,1,0,0:0:0:0:
192,192,11431,1,0,0:0:0:0:
448,192,11597,1,0,0:0:0:0:
64,192,11597,1,0,0:0:0:0:
64,192,11763,1,0,0:0:0:0:
448,192,11763,1,0,0:0:0:0:
192,192,12094,1,0,0:0:0:0:
320,192,12426,1,0,0:0:0:0:
448,192,12757,1,0,0:0:0:0:
320,192,12923,1,0,0:0:0:0:
192,192,13089,1,0,0:0:0:0:
64,192,13254,1,0,0:0:0:0:
320,192,13420,128,0,13752:0:0:0:0:
192,192,13420,1,0,0:0:0:0:
448,192,13752,1,0,0:0:0:0:
192,192,14083,1,0,0:0:0:0:
64,192,14083,1,0,0:0:0:0:
448,192,14249,1,0,0:0:0:0:
320,192,14332,1,0,0:0:0:0:
64,192,14415,1,0,0:0:0:0:
192,192,14580,1,0,0:0:0:0:
448,192,14746,128,0,15078:0:0:0:0:
320,192,14746,1,0,0:0:0:0:
64,192,15078,1,0,0:0:0:0:
192,192,15409,1,0,0:0:0:0:
64,192,15575,1,0,0:0:0:0:
192,192,15741,1,0,0:0:0:0:
320,192,15906,1,0,0:0:0:0:
448,192,16072,1,0,0:0:0:0:
64,192,16238,1,0,0:0:0:0:
448,192,16404,1,0,0:0:0:0:
320,192,16569,1,0,0:0:0:0:
64,192,16735,1,0,0:0:0:0:
192,192,16735,128,0,17067:0:0:0:0:
448,192,17067,1,0,0:0:0:0:
320,192,17149,1,0,0:0:0:0:
64,192,17232,1,0,0:0:0:0:
192,192,17315,1,0,0:0:0:0:
448,192,17398,128,0,17730:0:0:0:0:
320,192,17730,128,0,18061:0:0:0:0:
192,192,18061,1,0,0:0:0:0:
64,192,18227,1,0,0:0:0:0:
448,192,18393,1,0,0:0:0:0:
320,192,18558,1,0,0:0:0:0:
192,192,18724,1,0,0:0:0:0:
448,192,18890,1,0,0:0:0:0:
320,192,19056,1,0,0:0:0:0:
192,192,19056,128,0,19387:0:0:0:0:
64,192,19387,1,0,0:0:0:0:
320,192,19553,1,0,0:0:0:0:
192,192,19636,1,0,0:0:0:0:
448,192,19719,1,0,0:0:0:0:
64,192,19884,1,0,0:0:0:0:
192,192,20050,128,0,20382:0:0:0:0:
320,192,20382,128,0,20713:0:0:0:0:
448,192,20713,1,0,0:0:0:0:
64,192,20879,1,0,0:0:0:0:
192,192,21045,1,0,0:0:0:0:
320,192,21210,1,0,0:0:0:0:
448,192,21376,1,0,0:0:0:0:
64,192,21542,1,0,0:0:0:0:
448,192,21707,1,0,0:0:0:0:
192,192,21873,1,0,0:0:0:0:
64,192,22039,1,0,0:0:0:0:
320,192,22205,128,0,22536:0:0:0:0:
192,192,22370,128,0,22536:0:0:0:0:
448,192,22702,1,0,0:0:0:0:
320,192,23033,1,0,0:0:0:0:
64,192,23365,1,0,0:0:0:0:
192,192,23531,1,0,0:0:0:0:
320,192,23696,1,0,0:0:0:0:
448,192,23862,1,0,0:0:0:0:
320,192,24028,128,0,24359:0:0:0:0:
448,192,24359,1,0,0:0:0:0:
64,192,24691,1,0,0:0:0:0:
448,192,24857,128,0,25354:0:0:0:0:
320,192,24857,1,0,0:0:0:0:
192,192,25022,1,0,0:0:0:0:
64,192,25354,1,0,0:0:0:0:
64,192,25685,128,0,26017:0:0:0:0:
192,192,26017,1,0,0:0:0:0:
320,192,26183,1,0,0:0:0:0:
192,192,26348,1,0,0:0:0:0:
64,192,26514,1,0,0:0:0:0:
320,192,26680,1,0,0:0:0:0:
448,192,26846,1,0,0:0:0:0:
64,192,27011,1,0,0:0:0:0:
192,192,27177,1,0,0:0:0:0:
448,192,27343,1,0,0:0:0:0:
64,192,27674,128,0,28006:0:0:0:0:
448,192,27674,128,0,28006:0:0:0:0:
192,192,28006,1,0,0:0:0:0:
320,192,28337,1,0,0:0:0:0:
192,192,28669,1,0,0:0:0:0:
64,192,28835,1,0,0:0:0:0:
448,192,29000,1,0,0:0:0:0:
320,192,29166,1,0,0:0:0:0:
64,192,29332,1,0,0:0:0:0:
448,192,29498,1,0,0:0:0:0:
320,192,29663,128,0,29995:0:0:0:0:
64,192,29995,1,0,0:0:0:0:
448,192,30161,128,0,30658:0:0:0:0:
192,192,30161,1,0,0:0:0:0:
320,192,30326,1,0,0:0:0:0:
64,192,30658,1,0,0:0:0:0:
64,192,30989,128,0,31321:0:0:0:0:
192,192,31321,1,0,0:0:0:0:
448,192,31486,1,0,0:0:0:0:
320,192,31652,1,0,0:0:0:0:
192,192,31818,1,0,0:0:0:0:
64,192,31984,1,0,0:0:0:0:
448,192,32149,1,0,0:0:0:0:
64,192,32315,1,0,0:0:0:0:
192,192,32481,1,0,0:0:0:0:
448,192,32647,128,0,33310:0:0:0:0:
320,192,33310,1,0,0:0:0:0:
192,192,33393,1,0,0:0:0:0:
64,192,33475,1,0,0:0:0:0:
320,192,33641,1,0,0:0:0:0:
448,192,33807,128,0,33973:0:0:0:0:
320,192,33973,128,0,34304:0:0:0:0:
192,192,34304,1,0,0:0:0:0:
448,192,34470,1,0,0:0:0:0:
320,192,34553,1,0,0:0:0:0:
64,192,34636,128,0,34967:0:0:0:0:
192,192,34967,1,0,0:0:0:0:
320,192,35133,1,0,0:0:0:0:
448,192,35216,1,0,0:0:0:0:
64,192,35299,128,0,35630:0:0:0:0:
192,192,35630,128,0,35962:0:0:0:0:
448,192,35962,1,0,0:0:0:0:
320,192,35962,1,0,0:0:0:0:
64,192,36293,1,0,0:0:0:0:
192,192,36293,1,0,0:0:0:0:
448,192,36625,128,0,36956:0:0:0:0:
320,192,36956,1,0,0:0:0:0:
64,192,36956,1,0,0:0:0:0:
192,192,37122,128,0,37288:0:0:0:0:
320,192,37288,1,0,0:0:0:0:
64,192,37453,1,0,0:0:0:0:
192,192,37536,1,0,0:0:0:0:
448,192,37619,1,0,0:0:0:0:
320,192,37785,1,0,0:0:0:0:
192,192,37868,1,0,0:0:0:0:
64,192,37951,128,0,38282:0:0:0:0:
192,192,38282,1,0,0:0:0:0:
448,192,38448,1,0,0:0:0:0:
320,192,38531,1,0,0:0:0:0:
64,192,38614,1,0,0:0:0:0:
192,192,38614,1,0,0:0:0:0:
448,192,38945,128,0,39277:0:0:0:0:
192,192,39277,1,0,0:0:0:0:
320,192,39277,1,0,0:0:0:0:
64,192,39608,128,0,39940:0:0:0:0:
192,192,39940,1,0,0:0:0:0:
320,192,40105,1,0,0:0:0:0:
448,192,40271,128,0,40437:0:0:0:0:
320,192,40437,1,0,0:0:0:0:
192,192,40603,1,0,0:0:0:0:
64,192,40768,128,0,40934:0:0:0:0:
192,192,40934,128,0,41266:0:0:0:0:
448,192,41266,1,0,0:0:0:0:
64,192,41431,1,0,0:0:0:0:
192,192,41514,1,0,0:0:0:0:
448,192,41597,1,0,0:0:0:0:
320,192,41763,1,0,0:0:0:0:
64,192,41928,128,0,42094:0:0:0:0:
448,192,42094,128,0,42260:0:0:0:0:
320,192,42260,128,0,42591:0:0:0:0:
192,192,42591,1,0,0:0:0:0:
64,192,42674,1,0,0:0:0:0:
448,192,42840,1,0,0:0:0:0:
320,192,42923,1,0,0:0:0:0:
64,192,43033,1,0,0:0:0:0:
192,192,43144,1,0,0:0:0:0:
448,192,43254,1,0,0:0:0:0:
320,192,43337,1,0,0:0:0:0:
64,192,43503,1,0,0:0:0:0:
192,192,43586,1,0,0:0:0:0:
448,192,43917,128,0,44249:0:0:0:0:
320,192,43917,1,0,0:0:0:0:
64,192,44249,128,0,44580:0:0:0:0:
192,192,44249,1,0,0:0:0:0:
320,192,44580,128,0,44912:0:0:0:0:
448,192,44580,1,0,0:0:0:0:
192,192,44912,128,0,45243:0:0:0:0:
64,192,44912,1,0,0:0:0:0:
448,192,45243,128,0,45575:0:0:0:0:
64,192,45243,1,0,0:0:0:0:
64,192,45575,128,0,45906:0:0:0:0:
320,192,45575,1,0,0:0:0:0:
448,192,45906,128,0,46238:0:0:0:0:
192,192,45906,1,0,0:0:0:0:
64,192,46238,128,0,46569:0:0:0:0:
320,192,46238,1,0,0:0:0:0:
192,192,46569,1,0,0:0:0:0:
448,192,46901,1,0,0:0:0:0:
320,192,47232,1,0,0:0:0:0:
64,192,47564,1,0,0:0:0:0:
192,192,47895,1,0,0:0:0:0:
320,192,48227,1,0,0:0:0:0:
448,192,48558,1,0,0:0:0:0:
64,192,48890,1,0,0:0:0:0:
448,192,49221,128,0,49553:0:0:0:0:
320,192,49221,1,0,0:0:0:0:
320,192,49553,128,0,49884:0:0:0:0:
192,192,49553,1,0,0:0:0:0:
192,192,49884,128,0,50216:0:0:0:0:
64,192,49884,1,0,0:0:0:0:
64,192,50216,128,0,50547:0:0:0:0:
320,192,50216,1,0,0:0:0:0:
320,192,50547,128,0,50879:0:0:0:0:
448,192,50547,1,0,0:0:0:0:
448,192,50879,128,0,51210:0:0:0:0:
192,192,50879,1,0,0:0:0:0:
192,192,51210,128,0,51542:0:0:0:0:
64,192,51210,1,0,0:0:0:0:
64,192,51542,128,0,51873:0:0:0:0:
320,192,51542,1,0,0:0:0:0:
448,192,51873,1,0,0:0:0:0:
320,192,52205,1,0,0:0:0:0:
192,192,52536,1,0,0:0:0:0:
64,192,52868,1,0,0:0:0:0:
192,192,53199,1,0,0:0:0:0:
320,192,53531,1,0,0:0:0:0:
448,192,53862,1,0,0:0:0:0:
320,192,54194,1,0,0:0:0:0:
64,192,54525,1,0,0:0:0:0:
192,192,54857,1,0,0:0:0:0:
448,192,55188,1,0,0:0:0:0:
320,192,55354,1,0,0:0:0:0:
192,192,55520,1,0,0:0:0:0:
64,192,55685,1,0,0:0:0:0:
320,192,55851,1,0,0:0:0:0:
448,192,56183,1,0,0:0:0:0:
192,192,56514,128,0,56846:0:0:0:0:
320,192,56846,1,0,0:0:0:0:
448,192,57177,1,0,0:0:0:0:
448,192,57509,1,0,0:0:0:0:
320,192,57591,1,0,0:0:0:0:
192,192,57674,1,0,0:0:0:0:
64,192,57757,1,0,0:0:0:0:
448,192,57840,1,0,0:0:0:0:
320,192,58006,1,0,0:0:0:0:
192,192,58172,1,0,0:0:0:0:
64,192,58337,1,0,0:0:0:0:
448,192,58503,1,0,0:0:0:0:
64,192,58669,1,0,0:0:0:0:
448,192,58835,1,0,0:0:0:0:
320,192,59000,1,0,0:0:0:0:
192,192,59166,128,0,59498:0:0:0:0:
64,192,59498,1,0,0:0:0:0:
448,192,59829,1,0,0:0:0:0:
192,192,59829,1,0,0:0:0:0:
320,192,60161,1,0,0:0:0:0:
192,192,60492,1,0,0:0:0:0:
448,192,60658,1,0,0:0:0:0:
320,192,60824,1,0,0:0:0:0:
192,192,60989,1,0,0:0:0:0:
448,192,61155,128,0,61486:0:0:0:0:
64,192,61486,1,0,0:0:0:0:
192,192,61818,128,0,62149:0:0:0:0:
320,192,62149,1,0,0:0:0:0:
448,192,62481,1,0,0:0:0:0:
64,192,62481,1,0,0:0:0:0:
192,192,62812,1,0,0:0:0:0:
320,192,63144,1,0,0:0:0:0:
64,192,63310,1,0,0:0:0:0:
192,192,63475,1,0,0:0:0:0:
320,192,63641,1,0,0:0:0:0:
448,192,63807,1,0,0:0:0:0:
64,192,63973,1,0,0:0:0:0:
448,192,64138,1,0,0:0:0:0:
320,192,64304,1,0,0:0:0:0:
192,192,64470,128,0,64801:0:0:0:0:
320,192,64801,1,0,0:0:0:0:
448,192,65133,1,0,0:0:0:0:
64,192,65133,1,0,0:0:0:0:
192,192,65464,1,0,0:0:0:0:
448,192,65796,1,0,0:0:0:0:
320,192,65962,1,0,0:0:0:0:
192,192,66127,1,0,0:0:0:0:
64,192,66293,1,0,0:0:0:0:
448,192,66459,128,0,66790:0:0:0:0:
320,192,66459,1,0,0:0:0:0:
192,192,66790,1,0,0:0:0:0:
64,192,66873,1,0,0:0:0:0:
320,192,66956,1,0,0:0:0:0:
192,192,67080,1,0,0:0:0:0:
448,192,67453,128,0,67785:0:0:0:0:
320,192,67453,1,0,0:0:0:0:
64,192,67785,1,0,0:0:0:0:
192,192,68116,1,0,0:0:0:0:
448,192,68448,1,0,0:0:0:0:
320,192,68614,1,0,0:0:0:0:
64,192,68779,1,0,0:0:0:0:
192,192,68945,1,0,0:0:0:0:
320,192,69111,1,0,0:0:0:0:
448,192,69277,1,0,0:0:0:0:
64,192,69442,1,0,0:0:0:0:
448,192,69608,1,0,0:0:0:0:
192,192,69774,128,0,70105:0:0:0:0:
448,192,70105,1,0,0:0:0:0:
320,192,70188,1,0,0:0:0:0:
192,192,70271,1,0,0:0:0:0:
64,192,70354,1,0,0:0:0:0:
448,192,70437,1,0,0:0:0:0:
320,192,70768,1,0,0:0:0:0:
64,192,71100,1,0,0:0:0:0:
192,192,71266,1,0,0:0:0:0:
320,192,71431,1,0,0:0:0:0:
448,192,71597,1,0,0:0:0:0:
320,192,71763,1,0,0:0:0:0:
64,192,71928,1,0,0:0:0:0:
192,192,72094,128,0,72426:0:0:0:0:
64,192,72757,1,0,0:0:0:0:
192,192,72840,1,0,0:0:0:0:
320,192,72923,1,0,0:0:0:0:
448,192,73006,1,0,0:0:0:0:
64,192,73089,1,0,0:0:0:0:
192,192,73420,128,0,73752:0:0:0:0:
448,192,73752,1,0,0:0:0:0:
320,192,73917,1,0,0:0:0:0:
448,192,74083,1,0,0:0:0:0:
64,192,74249,1,0,0:0:0:0:
192,192,74415,1,0,0:0:0:0:
320,192,74580,1,0,0:0:0:0:
448,192,74746,1,0,0:0:0:0:
192,192,74912,1,0,0:0:0:0:
320,192,75078,128,0,75409:0:0:0:0:
448,192,75243,1,0,0:0:0:0:
64,192,75409,1,0,0:0:0:0:
448,192,75741,128,0,76072:0:0:0:0:
320,192,76072,128,0,76404:0:0:0:0:
64,192,76404,1,0,0:0:0:0:
192,192,76569,1,0,0:0:0:0:
320,192,76735,1,0,0:0:0:0:
64,192,76901,1,0,0:0:0:0:
448,192,77067,1,0,0:0:0:0:
320,192,77067,128,0,77398:0:0:0:0:
192,192,77398,128,0,77730:0:0:0:0:
64,192,77730,1,0,0:0:0:0:
448,192,77895,1,0,0:0:0:0:
320,192,77895,1,0,0:0:0:0:
192,192,78061,1,0,0:0:0:0:
64,192,78061,1,0,0:0:0:0:
320,192,78393,128,0,78724:0:0:0:0:
448,192,78393,1,0,0:0:0:0:
192,192,78724,128,0,79056:0:0:0:0:
64,192,78724,1,0,0:0:0:0:
448,192,79056,1,0,0:0:0:0:
320,192,79221,1,0,0:0:0:0:
64,192,79387,1,0,0:0:0:0:
192,192,79553,1,0,0:0:0:0:
448,192,79719,1,0,0:0:0:0:
64,192,79884,1,0,0:0:0:0:
448,192,80050,1,0,0:0:0:0:
320,192,80216,1,0,0:0:0:0:
192,192,80382,128,0,80713:0:0:0:0:
320,192,80713,128,0,81045:0:0:0:0:
64,192,81045,128,0,81376:0:0:0:0:
192,192,81045,1,0,0:0:0:0:
448,192,81376,128,0,81707:0:0:0:0:
320,192,81376,1,0,0:0:0:0:
320,192,81707,1,0,0:0:0:0:
192,192,81873,1,0,0:0:0:0:
448,192,82039,1,0,0:0:0:0:
64,192,82205,1,0,0:0:0:0:
320,192,82370,1,0,0:0:0:0:
192,192,82536,1,0,0:0:0:0:
448,192,82702,128,0,83033:0:0:0:0:
192,192,83033,1,0,0:0:0:0:
64,192,83199,1,0,0:0:0:0:
320,192,83199,1,0,0:0:0:0:
448,192,83365,1,0,0:0:0:0:
192,192,83365,1,0,0:0:0:0:
320,192,83696,128,0,84028:0:0:0:0:
448,192,83696,1,0,0:0:0:0:
64,192,84028,128,0,84359:0:0:0:0:
192,192,84028,1,0,0:0:0:0:
192,192,84359,1,0,0:0:0:0:
448,192,84525,1,0,0:0:0:0:
320,192,84691,1,0,0:0:0:0:
64,192,84857,1,0,0:0:0:0:
192,192,85022,1,0,0:0:0:0:
448,192,85188,1,0,0:0:0:0:
320,192,85354,1,0,0:0:0:0:
192,192,85520,1,0,0:0:0:0:
64,192,85685,128,0,86017:0:0:0:0:
448,192,86348,1,0,0:0:0:0:
64,192,86348,1,0,0:0:0:0:
192,192,86680,1,0,0:0:0:0:
320,192,86680,1,0,0:0:0:0:
448,192,87011,1,0,0:0:0:0:
192,192,87177,1,0,0:0:0:0:
448,192,87343,1,0,0:0:0:0:
320,192,87509,1,0,0:0:0:0:
448,192,87674,1,0,0:0:0:0:
64,192,87674,1,0,0:0:0:0:
320,192,88006,1,0,0:0:0:0:
64,192,88006,1,0,0:0:0:0:
192,192,88337,1,0,0:0:0:0:
448,192,88337,1,0,0:0:0:0:
320,192,88669,128,0,89000:0:0:0:0:
64,192,88669,128,0,89000:0:0:0:0:
192,192,89000,1,0,0:0:0:0:
448,192,89000,1,0,0:0:0:0:
320,192,89332,1,0,0:0:0:0:
64,192,89332,1,0,0:0:0:0:
192,192,89663,1,0,0:0:0:0:
448,192,89829,1,0,0:0:0:0:
320,192,89995,1,0,0:0:0:0:
192,192,90161,1,0,0:0:0:0:
448,192,90326,1,0,0:0:0:0:
320,192,90492,1,0,0:0:0:0:
64,192,90658,1,0,0:0:0:0:
192,192,90824,1,0,0:0:0:0:
448,192,90989,1,0,0:0:0:0:
64,192,90989,1,0,0:0:0:0:
192,192,91321,128,0,91652:0:0:0:0:
320,192,91321,128,0,91652:0:0:0:0:
64,192,91652,1,0,0:0:0:0:
448,192,91652,1,0,0:0:0:0:
192,192,91984,1,0,0:0:0:0:
448,192,91984,1,0,0:0:0:0:
64,192,92315,1,0,0:0:0:0:
320,192,92481,1,0,0:0:0:0:
192,192,92647,1,0,0:0:0:0:
448,192,92812,1,0,0:0:0:0:
320,192,92978,1,0,0:0:0:0:
192,192,93144,1,0,0:0:0:0:
64,192,93310,128,0,93641:0:0:0:0:
320,192,93310,128,0,93641:0:0:0:0:
192,192,93641,1,0,0:0:0:0:
448,192,93641,1,0,0:0:0:0:
192,192,93973,1,0,0:0:0:0:
320,192,94138,1,0,0:0:0:0:
448,192,94304,1,0,0:0:0:0:
64,192,94304,1,0,0:0:0:0:
192,192,94636,1,0,0:0:0:0:
448,192,94636,1,0,0:0:0:0:
320,192,94967,1,0,0:0:0:0:
64,192,95133,1,0,0:0:0:0:
448,192,95299,1,0,0:0:0:0:
192,192,95464,1,0,0:0:0:0:
64,192,95630,1,0,0:0:0:0:
320,192,95796,1,0,0:0:0:0:
192,192,95962,1,0,0:0:0:0:
448,192,96127,1,0,0:0:0:0:
320,192,96293,128,0,96625:0:0:0:0:
192,192,96293,128,0,96625:0:0:0:0:
64,192,96625,1,0,0:0:0:0:
448,192,96625,1,0,0:0:0:0:
192,192,96956,1,0,0:0:0:0:
320,192,96956,1,0,0:0:0:0:
